osu file format v14

[General]
AudioFilename: audio.mp3
AudioLeadIn: 0
PreviewTime: 63900
Countdown: 1
SampleSet: Soft
StackLeniency: 0.7
Mode: 0
LetterboxInBreaks: 0
WidescreenStoryboard: 1

[Editor]
Bookmarks: 89255
DistanceSpacing: 1
BeatDivisor: 4
GridSize: 4
TimelineZoom: 2

[Metadata]
Title:Ketsubetsu no Tabi
TitleUnicode:決別の旅
Artist:Yonder Voice feat. YooSanHyakurei
ArtistUnicode:Yonder Voice feat. 瑶山百霊
Creator:- Angelia
Version:Easy
Source:東方Project
Tags:thzz Hanazawa_Kana _Yiiiii 少女秘封倶楽部 蓮台野夜行 童祭_~_Innocent_Treasures 夢違科学世紀 ネクロファンタジア 東方妖々夢 Touhou Toho LEMiao 苍罗杏 CP15
BeatmapID:1113851
BeatmapSetID:524818

[Difficulty]
HPDrainRate:2
CircleSize:3
OverallDifficulty:2
ApproachRate:3
SliderMultiplier:1
SliderTickRate:1

[Events]
//Background and Video events
0,0,"1f097e8b94e364cb57fafd3d6d6148db.jpg",0,0
//Break Periods
//Storyboard Layer 0 (Background)
//Storyboard Layer 1 (Fail)
//Storyboard Layer 2 (Pass)
//Storyboard Layer 3 (Foreground)
//Storyboard Sound Samples

[TimingPoints]
998,387.096774193548,4,2,1,50,1,0
14933,-100,4,2,1,50,0,0
58288,-100,4,2,1,50,0,0
64481,-100,4,2,1,50,0,1
73772,-100,4,2,1,50,0,0
76481,-100,4,2,1,50,0,0

[HitObjects]
72,80,2159,5,2,0:0:0:0:
156,136,2547,2,0,P|232:172|324:96,1,200,2|0,0:0|0:0,0:0:0:0:
232,68,3708,1,0,0:0:0:0:
316,12,4095,2,0,L|415:19,1,100,2|0,0:0|0:0,0:0:0:0:
476,100,4869,2,0,L|483:199,1,100
424,280,5643,6,0,L|224:272,1,200,2|0,0:0|0:0,0:0:0:0:
140,220,6805,1,0,0:0:0:0:
228,176,7192,2,0,L|432:184,1,200,2|0,0:0|0:0,0:0:0:0:
512,128,8353,1,0,0:0:0:0:
424,80,8740,6,0,L|216:72,1,200,6|0,0:0|0:0,0:0:0:0:
152,144,9901,1,0,0:0:0:0:
216,220,10289,2,0,B|268:212|324:236|324:236|384:252|432:224,1,200,2|0,0:0|0:0,0:0:0:0:
488,168,11450,1,0,0:0:0:0:
256,192,11837,12,2,13385,0:0:0:0:
88,132,14934,6,0,P|172:144|244:44,1,200,12|0,0:0|0:0,0:0:0:0:
340,36,16095,1,2,0:0:0:0:
428,84,16482,2,0,L|408:300,1,200,10|0,0:0|0:0,0:0:0:0:
332,344,17643,1,6,0:0:0:0:
260,276,18030,6,0,L|60:264,1,200,8|0,0:0|0:0,0:0:0:0:
96,172,19192,1,2,0:0:0:0:
72,80,19579,2,0,L|280:92,1,200,10|0,0:0|0:0,0:0:0:0:
364,52,20740,1,6,0:0:0:0:
440,116,21127,6,0,L|412:328,1,200,8|0,0:0|0:0,0:0:0:0:
324,360,22289,1,2,0:0:0:0:
268,276,22676,2,0,P|173:306|96:240,1,200,10|0,0:0|0:0,0:0:0:0:
192,208,23837,1,6,0:0:0:0:
288,176,24224,6,0,L|487:187,1,200,8|0,0:0|0:0,0:0:0:0:
472,288,25385,1,0,0:0:0:0:
384,340,25772,2,0,L|180:328,1,200,10|0,0:0|0:0,0:0:0:0:
92,368,26934,1,6,0:0:0:0:
32,288,27321,6,0,L|52:72,1,200,10|0,0:0|0:0,0:0:0:0:
136,40,28482,1,2,0:0:0:0:
212,108,28869,2,0,B|272:128|316:112|316:112|356:92|424:104,1,200,8|0,0:0|0:0,0:0:0:0:
288,264,30418,6,0,P|376:296|456:216,1,200,8|0,0:0|0:0,0:0:0:0:
360,196,31579,1,2,0:0:0:0:
260,176,31966,2,0,L|144:172,1,100,8|0,0:0|0:0,0:0:0:0:
64,200,32740,2,0,P|56:256|60:316,1,100,4|0,0:0|0:0,0:0:0:0:
148,340,33514,2,0,P|236:356|312:268,1,200,8|0,0:0|0:0,0:0:0:0:
212,256,34676,5,2,0:0:0:0:
280,184,35063,2,0,L|392:184,1,100,8|0,0:0|0:0,0:0:0:0:
480,204,35837,2,0,P|488:144|476:92,1,100,2|0,0:0|0:0,0:0:0:0:
400,48,36611,2,0,L|180:40,1,200,8|0,0:0|0:0,0:0:0:0:
72,196,38159,2,0,L|292:188,1,200,8|0,0:0|0:0,0:0:0:0:
372,180,39321,1,2,0:0:0:0:
332,272,39708,6,0,P|344:328|328:384,1,100,8|0,0:0|0:0,0:0:0:0:
236,360,40482,2,0,L|132:352,1,100,2|0,0:0|0:0,0:0:0:0:
72,280,41256,2,0,B|60:208|96:180|96:180|88:80,1,200,8|0,0:0|0:0,0:0:0:0:
184,56,42418,1,0,0:0:0:0:
264,116,42805,6,0,L|384:112,1,100,8|0,0:0|0:0,0:0:0:0:
404,204,43579,2,0,L|304:207,1,100,2|0,0:0|0:0,0:0:0:0:
216,164,44353,2,0,P|132:172|100:284,1,200,8|0,0:0|0:0,0:0:0:0:
196,256,45514,1,4,0:0:0:0:
276,316,45901,6,0,P|372:348|452:280,1,200,8|0,0:0|0:0,0:0:0:0:
368,232,47063,1,2,0:0:0:0:
456,184,47450,2,0,P|472:104|472:72,1,100,10|0,0:0|0:0,0:0:0:0:
376,52,48224,2,0,L|260:44,1,100,2|0,0:0|0:0,0:0:0:0:
204,116,48998,2,0,P|120:144|44:64,1,200,10|0,0:0|0:0,0:0:0:0:
140,40,50159,5,0,0:0:0:0:
240,28,50547,2,0,L|352:36,1,100,8|0,0:0|0:0,0:0:0:0:
412,104,51321,2,0,L|412:216,1,100,2|0,0:0|0:0,0:0:0:0:
352,304,52095,6,0,L|152:300,1,200,10|0,0:0|0:0,0:0:0:0:
60,340,53256,1,2,0:0:0:0:
72,240,53643,2,0,P|44:188|120:80,1,200,8|0,0:0|0:0,0:0:0:0:
212,104,54805,1,6,0:0:0:0:
308,76,55192,6,0,L|407:79,1,100,8|0,0:0|0:0,0:0:0:0:
444,172,55966,2,0,L|332:168,1,100,2|0,0:0|0:0,0:0:0:0:
260,220,56740,2,0,P|260:280|392:300,1,200,8|0,0:0|0:0,0:0:0:0:
360,216,57901,1,0,0:0:0:0:
296,136,58289,6,0,L|92:120,1,200,8|0,0:0|0:0,0:0:0:0:
52,208,59450,1,2,0:0:0:0:
116,284,59837,2,0,L|224:292,1,100,10|0,0:0|0:0,0:0:0:0:
308,256,60611,2,0,L|420:248,1,100,2|0,0:0|0:0,0:0:0:0:
484,312,61385,1,8,0:0:0:0:
256,192,61772,12,2,62934,0:0:0:0:
76,92,64482,6,0,L|188:84,1,100,8|0,0:0|0:0,0:0:0:0:
268,136,65256,2,0,L|376:144,1,100,2|0,0:0|0:0,0:0:0:0:
464,124,66030,2,0,P|456:180|416:224,1,100,8|0,0:0|0:0,0:0:0:0:
332,236,66805,2,0,L|340:336,1,100,2|0,0:0|0:0,0:0:0:0:
240,344,67579,6,0,P|176:356|96:244,1,200,12|0,0:0|0:0,0:0:0:0:
136,172,68740,1,2,0:0:0:0:
200,248,69127,2,0,L|408:252,1,200,10|0,0:0|0:0,0:0:0:0:
484,200,70289,1,2,0:0:0:0:
392,156,70676,6,0,P|368:72|264:44,1,200,8|0,0:0|0:0,0:0:0:0:
284,140,71837,1,2,0:0:0:0:
188,108,72224,2,0,L|76:104,1,100,8|0,0:0|0:0,0:0:0:0:
48,196,72998,2,0,L|160:200,1,100,2|0,0:0|0:0,0:0:0:0:
240,240,73772,5,12,0:0:0:0:
332,284,74159,1,0,0:0:0:0:
328,184,74547,2,0,L|336:80,1,100,2|0,0:0|0:0,0:0:0:0:
248,40,75321,2,0,L|132:36,1,100,8|0,0:0|0:0,0:0:0:0:
64,88,76095,1,2,0:0:0:0:
128,168,76482,6,0,L|232:172,1,100,2|8,0:0|0:0,0:0:0:0:
308,116,77256,1,0,0:0:0:0:
376,44,77643,2,0,P|412:100|332:204,1,200,2|8,0:0|0:0,0:0:0:0:
248,192,78805,5,0,0:0:0:0:
172,256,79192,2,0,P|180:316|312:336,1,200,2|8,0:0|0:0,0:0:0:0:
400,336,80353,1,0,0:0:0:0:
456,252,80740,6,0,P|476:88|464:36,1,200,2|8,0:0|0:0,0:0:0:0:
372,36,81901,1,0,0:0:0:0:
292,96,82289,2,0,L|84:88,1,200,2|8,0:0|0:0,0:0:0:0:
24,160,83450,2,0,L|16:260,1,100,4|0,0:0|0:0,0:0:0:0:
64,348,84224,5,2,0:0:0:0:
156,312,84611,2,0,P|200:320|276:304,1,100,8|0,0:0|0:0,0:0:0:0:
332,248,85385,2,0,P|416:244|448:260,1,100,2|0,0:0|0:0,0:0:0:0:
496,324,86159,1,12,0:0:0:0:
256,192,86547,12,14,89256,0:0:0:0:
