osu file format v14

[General]
AudioFilename: audio.mp3
AudioLeadIn: 0
PreviewTime: 15
Countdown: 0
SampleSet: Soft
StackLeniency: 0.3
Mode: 0
LetterboxInBreaks: 0
WidescreenStoryboard: 0

[Editor]
DistanceSpacing: 0.6
BeatDivisor: 4
GridSize: 32
TimelineZoom: 1.3

[Metadata]
Title:Soukyuu no Rapsodia
TitleUnicode:奏穹のラプソディア
Artist:Yonder Voice
ArtistUnicode:Yonder Voice
Creator:AIR
Version:Synesthesia
Source:東方緋想天 ~ Scarlet Weather Rhapsody
Tags:瑶山百霊 YooSanHyakurei 東方Project 有頂天変 Wonderful Heaven Catastrophe in Bhava-agra Tenshi Hinanawi 比那名居 天子 Team Shanghai Alice ZUN SWR Xenado Hisouten 10.5 天遊 蒼羅杏 touhou japanese video game pop jpop
BeatmapID:2961049
BeatmapSetID:1439093

[Difficulty]
HPDrainRate:4
CircleSize:5
OverallDifficulty:8
ApproachRate:9.2
SliderMultiplier:1.8
SliderTickRate:1

[Events]
//Background and Video events
0,0,"82089000_p0.jpg",0,0
//Break Periods
//Storyboard Layer 0 (Background)
//Storyboard Layer 1 (Fail)
//Storyboard Layer 2 (Pass)
//Storyboard Layer 3 (Foreground)
//Storyboard Layer 4 (Overlay)
//Storyboard Sound Samples

[TimingPoints]
-30,387.096774193549,4,2,1,50,1,0
357,-166.666666666667,4,2,1,50,0,0
13905,-125,4,2,1,60,0,0
18163,-125,4,2,1,20,0,0
18550,-125,4,2,1,40,0,0
18937,-125,4,2,1,60,0,0
19711,-66.6666666666667,4,2,1,60,0,0
20099,-100,4,2,1,60,0,0
23195,-83.3333333333333,4,2,1,70,0,0
24647,-100,4,2,1,50,0,0
26292,-125,4,2,3,50,0,0
38679,-100,4,2,1,60,0,0
43324,-83.3333333333333,4,2,1,60,0,0
44099,-66.6666666666667,4,2,1,60,0,0
44873,-100,4,2,1,60,0,0
49518,-83.3333333333333,4,2,1,60,0,0
50292,-66.6666666666667,4,2,1,60,0,0
51066,-100,4,2,1,60,0,0
55711,-100,4,2,1,20,0,0
56099,-100,4,2,1,40,0,0
56486,-100,4,2,1,50,0,0
56873,-66.6666666666667,4,2,1,60,0,0
57260,-83.3333333333333,4,2,1,70,0,0
61905,-125,4,2,3,70,0,0
63453,-83.3333333333333,4,2,1,80,0,1
75840,-83.3333333333333,4,2,1,80,0,1
85131,-83.3333333333333,4,2,1,40,0,1
85518,-83.3333333333333,4,2,1,45,0,1
85905,-83.3333333333333,4,2,1,50,0,1
86292,-83.3333333333333,4,2,1,60,0,1
86486,-83.3333333333333,4,2,1,70,0,1
86679,-100,4,2,1,80,0,1
88034,-166.666666666667,4,2,1,60,0,0
100615,-125,4,2,1,60,0,0
105260,-125,4,2,1,20,0,0
105647,-125,4,2,1,40,0,0
106034,-125,4,2,1,60,0,0
106421,-66.6666666666667,4,2,1,60,0,0
106808,-100,4,2,1,60,0,0
109905,-83.3333333333333,4,2,1,70,0,0
111453,-100,4,2,3,70,0,0
113002,-125,4,2,3,50,0,0
125389,-100,4,2,1,60,0,0
130034,-83.3333333333333,4,2,1,60,0,0
130808,-66.6666666666667,4,2,1,60,0,0
131582,-100,4,2,1,60,0,0
136228,-83.3333333333333,4,2,1,60,0,0
137002,-66.6666666666667,4,2,1,60,0,0
137776,-100,4,2,1,60,0,0
142421,-100,4,2,1,20,0,0
142808,-100,4,2,1,40,0,0
143195,-100,4,2,1,50,0,0
143582,-66.6666666666667,4,2,1,60,0,0
143970,-83.3333333333333,4,2,1,60,0,0
147066,-83.3333333333333,4,2,1,70,0,0
148615,-125,4,2,3,70,0,0
150163,-83.3333333333333,4,2,1,80,0,1
162550,-83.3333333333333,4,2,1,80,0,1
171840,-83.3333333333333,4,2,1,40,0,1
172228,-83.3333333333333,4,2,1,45,0,1
172615,-83.3333333333333,4,2,1,50,0,1
173002,-83.3333333333333,4,2,1,60,0,1
173195,-83.3333333333333,4,2,1,70,0,1
173389,-100,4,2,1,80,0,1
174163,-125,4,2,1,80,0,1
174744,-166.666666666667,4,2,3,50,0,0
199711,-100,4,2,1,70,0,1
212099,-83.3333333333333,4,2,1,80,0,1
223905,-125,4,2,1,70,0,0
224486,-83.3333333333333,4,2,1,80,0,1
236873,-83.3333333333333,4,2,1,80,0,1
248679,-166.666666666667,4,2,1,80,0,0
253905,-166.666666666667,4,2,1,70,0,0
254679,-166.666666666667,4,2,1,60,0,0
255066,-166.666666666667,4,2,1,50,0,0
255453,-166.666666666667,4,2,1,40,0,0
255840,-166.666666666667,4,2,1,30,0,0
256228,-166.666666666667,4,2,1,20,0,0
256615,-166.666666666667,4,2,1,10,0,0

[Colours]
Combo1 : 255,53,53
Combo2 : 255,128,0
Combo3 : 0,64,128
Combo4 : 0,128,128

[HitObjects]
325,222,357,6,0,P|347:243|400:198,1,107.999996704102
400,205,937,1,8,0:1:0:0:
400,205,1324,1,8,0:1:0:0:
483,142,1518,6,0,L|372:134,1,107.999996704102,4|0,0:1|0:0,0:0:0:0:
375,134,2099,1,8,0:1:0:0:
269,79,2292,1,0,0:0:0:0:
201,28,2486,2,0,L|136:18,1,53.9999983520508,8|0,0:1|0:0,0:0:0:0:
269,79,2873,2,0,P|286:123|263:190,1,107.999996704102,8|0,0:1|0:0,0:0:0:0:
270,180,3453,1,8,0:1:0:0:
11,178,3840,1,0,0:0:0:0:
77,213,4034,2,0,L|81:285,1,53.9999983520508,8|0,0:1|0:0,0:0:0:0:
11,178,4421,6,0,P|4:123|49:97,1,107.999996704102,8|0,0:1|0:0,0:0:0:0:
137,127,5002,2,0,P|146:157|137:178,1,53.9999983520508,8|0,0:1|0:0,0:0:0:0:
211,211,5389,1,8,0:1:0:0:
180,276,5582,2,0,B|175:289|175:289|177:337,1,53.9999983520508,8|0,0:1|0:0,0:0:0:0:
255,285,5970,1,8,0:1:0:0:
325,264,6163,2,0,L|328:199,1,53.9999983520508
255,285,6550,1,8,0:1:0:0:
308,332,6744,1,0,0:0:0:0:
325,264,6937,2,0,L|360:262,1,26.9999991760254,8|0,0:1|3:0,0:0:0:0:
443,253,7131,2,0,B|493:235|493:235|430:205,1,107.999996704102,8|0,0:1|0:0,0:0:0:0:
396,160,7711,6,0,L|361:163,1,26.9999991760254,12|0,0:1|3:0,0:0:0:0:
82,190,8099,2,0,L|108:187,1,26.9999991760254,0|0,0:0|3:0,0:0:0:0:
82,190,8292,1,8,0:1:0:0:
6,147,8486,1,0,0:0:0:0:
63,92,8679,2,0,L|128:81,1,53.9999983520508,8|0,0:1|0:0,0:0:0:0:
210,49,9066,2,0,P|256:56|285:4,1,107.999996704102,8|0,0:1|0:0,0:0:0:0:
361,41,9647,1,8,0:1:0:0:
361,41,9840,2,0,L|350:74,1,26.9999991760254,8|0,0:1|3:0,0:0:0:0:
262,133,10034,1,0,0:0:0:0:
262,133,10228,2,0,L|312:124,1,26.9999991760254,8|0,0:1|3:0,0:0:0:0:
388,166,10421,1,0,0:0:0:0:
388,166,10615,2,0,L|363:140,1,26.9999991760254,8|0,0:1|3:0,0:0:0:0:
469,92,10808,6,0,L|469:151,1,53.9999983520508,0|8,0:0|0:1,0:0:0:0:
283,254,11195,2,0,L|283:195,1,53.9999983520508,0|8,0:0|0:1,0:0:0:0:
283,254,11582,1,8,0:1:0:0:
172,257,11776,2,0,B|171:240|171:240|205:272|201:334,1,107.999996704102,8|8,0:1|0:1,0:0:0:0:
98,330,12357,2,0,L|98:388,1,53.9999983520508,0|8,0:0|0:1,0:0:0:0:
31,283,12744,2,0,B|3:277|3:277|31:262,1,53.9999983520508,0|8,0:0|0:1,0:0:0:0:
98,330,13131,1,8,0:1:0:0:
201,322,13324,2,0,L|311:317,1,107.999996704102,8|0,0:1|0:0,0:0:0:0:
433,334,13905,6,0,P|483:330|496:272,1,108,4|0,0:1|0:0,0:0:0:0:
497,256,14292,2,0,L|491:176,1,72,2|8,0:3|0:1,0:0:0:0:
257,135,14679,1,2,0:3:0:0:
320,173,14873,2,0,B|325:189|325:189|313:253,1,72,8|2,0:1|0:3,0:0:0:0:
340,96,15260,2,0,L|417:78,1,72,8|2,0:1|0:3,0:0:0:0:
257,135,15647,1,0,0:0:0:0:
193,104,15840,2,0,P|154:108|139:72,1,72,2|8,0:3|0:1,0:0:0:0:
257,135,16228,1,2,0:3:0:0:
170,206,16421,2,0,L|149:279,1,72,8|2,0:1|0:3,0:0:0:0:
37,157,16808,2,0,P|7:163|26:127,1,72,8|2,0:1|0:3,0:0:0:0:
37,157,17195,1,0,0:0:0:0:
150,275,17389,6,0,L|249:242,1,72,2|8,0:3|0:1,0:0:0:0:
361,203,17776,1,2,0:3:0:0:
267,373,17970,1,8,0:1:0:0:
330,313,18163,2,0,L|272:306,3,36,2|0|8|0,1:3|1:0|1:0|1:0,0:0:0:0:
252,239,18550,2,0,L|194:232,3,36,2|0|8|0,1:3|1:0|1:0|1:0,0:0:0:0:
160,176,18937,2,0,L|102:169,1,36,2|0,1:3|1:0,0:0:0:0:
92,144,19131,2,0,L|34:137,1,36,8|0,1:0|1:0,0:0:0:0:
17,75,19324,2,0,L|11:28,1,36,10|0,1:3|1:0,0:0:0:0:
16,162,19518,2,0,L|10:209,1,36,8|0,1:0|1:0,0:0:0:0:
92,144,19711,6,0,L|127:144,7,33.7500012874604,2|0|0|0|0|0|0|0,0:3|1:0|1:0|1:0|1:0|1:0|1:0|1:0,0:0:0:0:
176,132,20099,6,0,P|210:143|216:130,1,45,2|0,1:3|1:0,0:0:0:0:
270,94,20292,2,0,P|281:77|265:60,1,45,0|0,1:0|1:0,0:0:0:0:
193,37,20486,2,0,P|168:39|169:59,1,45,2|0,1:3|1:0,0:0:0:0:
210,141,20679,2,0,L|225:199,1,45,8|0,1:0|1:0,0:0:0:0:
303,256,20873,2,0,L|353:256,1,45,2|0,1:3|1:0,0:0:0:0:
425,309,21066,2,0,B|434:322|434:322|423:366,1,45,8|0,1:0|1:0,0:0:0:0:
458,239,21260,2,0,B|473:235|473:235|436:218,1,45,2|0,1:3|1:0,0:0:0:0:
348,256,21453,2,0,L|303:256,1,45,8|0,1:0|1:0,0:0:0:0:
231,302,21647,5,2,1:3:0:0:
198,313,21744,1,0,1:0:0:0:
161,308,21840,1,8,1:0:0:0:
134,283,21937,1,0,1:0:0:0:
125,246,22034,1,2,1:3:0:0:
91,221,22131,1,0,1:0:0:0:
49,221,22228,1,8,1:0:0:0:
20,243,22324,1,0,1:0:0:0:
13,277,22421,2,0,L|1:339,1,45,2|0,1:3|1:0,0:0:0:0:
12,168,22615,2,0,L|0:106,1,45,8|0,1:0|1:0,0:0:0:0:
91,221,22808,2,0,L|150:221,1,45,2|0,1:3|1:0,0:0:0:0:
116,141,23002,2,0,B|124:120|124:120|85:133,1,45,8|0,1:0|1:0,0:0:0:0:
69,42,23195,6,0,P|53:52|50:22,1,53.9999983520508,2|0,1:3|1:0,0:0:0:0:
155,49,23389,2,0,L|209:48,1,53.9999983520508,0|0,1:0|1:0,0:0:0:0:
275,75,23582,2,0,L|329:74,1,53.9999983520508,2|0,1:3|1:0,0:0:0:0:
393,102,23776,2,0,L|447:101,1,53.9999983520508,0|0,1:0|1:0,0:0:0:0:
508,64,23970,1,2,1:3:0:0:
504,17,24066,1,0,1:0:0:0:
459,32,24163,1,0,1:0:0:0:
428,68,24260,1,0,1:0:0:0:
416,113,24357,1,2,1:3:0:0:
421,160,24453,1,0,1:0:0:0:
453,198,24550,1,0,1:0:0:0:
256,192,24647,12,0,25905,3:0:0:0:
197,320,26292,5,4,0:3:0:0:
124,348,26486,2,0,P|87:347|68:307,1,72,0|2,0:0|0:0,0:0:0:0:
250,253,26873,1,2,0:0:0:0:
260,253,26970,1,2,0:0:0:0:
270,253,27066,1,0,0:0:0:0:
361,243,27260,2,0,L|371:162,1,72,0|2,0:0|0:0,0:0:0:0:
427,100,27647,1,2,0:0:0:0:
437,100,27744,1,2,0:0:0:0:
447,100,27840,2,0,B|514:72|514:72|450:21,1,144,0|2,0:0|0:0,0:0:0:0:
369,171,28421,2,0,L|333:317,1,144
440,218,29002,2,0,P|463:228|477:188,1,72,2|0,0:0|0:0,0:0:0:0:
369,171,29389,5,4,0:1:0:0:
244,114,29582,1,0,0:0:0:0:
354,22,29776,1,2,0:0:0:0:
346,93,29970,1,2,0:0:0:0:
335,95,30066,1,2,0:0:0:0:
324,97,30163,1,0,0:0:0:0:
165,75,30357,1,0,0:0:0:0:
226,223,30550,1,2,0:0:0:0:
300,171,30744,1,2,0:0:0:0:
289,173,30840,1,2,0:0:0:0:
278,175,30937,5,0,0:0:0:0:
226,223,31131,1,0,0:0:0:0:
109,285,31324,1,2,0:0:0:0:
203,312,31518,1,2,0:0:0:0:
213,314,31615,1,2,0:0:0:0:
223,316,31711,1,0,0:0:0:0:
233,318,31808,1,0,0:0:0:0:
243,320,31905,2,0,L|294:329,1,36,0|0,0:0|3:0,0:0:0:0:
226,223,32099,2,0,L|190:216,1,36,2|0,0:0|3:0,0:0:0:0:
125,124,32292,2,0,L|160:130,1,36,2|0,0:0|3:0,0:0:0:0:
1,82,32486,5,4,0:0:0:0:
57,164,32679,2,0,B|63:184|63:184|51:250,1,72,0|2,0:0|0:0,0:0:0:0:
125,124,33066,1,0,0:0:0:0:
265,96,33260,1,0,0:0:0:0:
346,65,33453,2,0,P|377:70|389:35,1,72,0|2,0:0|0:0,0:0:0:0:
498,8,33840,1,2,0:0:0:0:
496,18,33937,1,2,0:0:0:0:
494,28,34034,1,0,0:0:0:0:
401,82,34228,2,0,P|353:81|348:47,1,72,0|2,0:0|0:0,0:0:0:0:
268,57,34615,2,0,P|324:15|405:60,1,144
335,160,35195,2,0,P|302:163|277:128,1,72,2|2,0:0|0:0,0:0:0:0:
278,135,35486,1,2,0:0:0:0:
278,135,35583,5,4,0:1:0:0:
410,193,35776,1,0,0:0:0:0:
307,269,35970,2,0,B|304:285|304:285|302:354,1,72,2|2,0:0|0:0,0:0:0:0:
302,340,36260,1,2,0:0:0:0:
302,340,36357,1,0,0:0:0:0:
380,306,36550,1,0,0:0:0:0:
467,304,36744,2,0,L|481:384,1,72,2|0,0:0|0:0,0:0:0:0:
380,306,37131,5,0,0:0:0:0:
235,271,37324,1,0,0:0:0:0:
294,199,37518,1,2,0:0:0:0:
189,192,37711,1,2,0:0:0:0:
175,193,37808,1,2,0:0:0:0:
161,194,37905,2,0,L|117:192,1,36,8|0,0:0|3:0,0:0:0:0:
255,132,38099,2,0,L|211:130,1,36,0|0,0:0|3:0,0:0:0:0:
339,69,38292,2,0,L|295:67,1,36,2|0,0:0|3:0,0:0:0:0:
412,8,38486,1,2,0:0:0:0:
411,123,38679,5,6,0:0:0:0:
457,177,38873,2,0,B|460:194|460:194|451:223,1,45,2|0,0:3|3:0,0:0:0:0:
355,185,39066,2,0,B|332:184|332:184|362:168,1,45,2|0,1:3|3:0,0:0:0:0:
411,123,39260,1,2,0:0:0:0:
499,65,39453,1,0,0:0:0:0:
499,65,39647,1,2,0:0:0:0:
451,220,39840,2,0,L|427:317,1,90,2|0,1:3|0:0,0:0:0:0:
255,269,40228,5,2,0:0:0:0:
168,324,40421,2,0,B|155:306|155:306|185:293,1,45,2|0,0:3|3:0,0:0:0:0:
251,341,40615,2,0,B|257:352|257:352|257:388,1,45,2|0,1:3|3:0,0:0:0:0:
255,269,40808,1,2,0:0:0:0:
123,241,41002,1,0,0:0:0:0:
123,241,41195,1,2,0:0:0:0:
23,187,41389,2,0,P|38:135|15:93,1,90,2|0,1:3|0:0,0:0:0:0:
5,19,41776,5,2,0:0:0:0:
104,69,41970,2,0,P|124:82|107:55,1,90,2|2,0:3|1:3,0:0:0:0:
242,77,42357,2,0,B|298:88|332:45|332:45|288:35,1,135,2|0,0:0|3:0,0:0:0:0:
291,38,42744,2,0,L|275:84,1,45,2|0,0:3|3:0,0:0:0:0:
292,205,42937,2,0,L|277:162,1,45,2|0,1:3|3:0,0:0:0:0:
188,127,43131,2,0,L|138:127,1,45,2|0,0:0|3:0,0:0:0:0:
76,192,43324,6,0,L|0:192,1,53.9999983520508,2|0,0:0|3:0,0:0:0:0:
132,249,43518,2,0,B|142:262|142:262|132:321,1,53.9999983520508,2|0,0:3|3:0,0:0:0:0:
224,268,43711,2,0,P|246:281|244:265,1,53.9999983520508,2|0,0:3|3:0,0:0:0:0:
362,265,43905,2,0,L|367:202,1,53.9999983520508,2|0,0:3|3:0,0:0:0:0:
456,201,44099,6,0,L|447:302,1,67.5000025749208,2|0,0:3|3:0,0:0:0:0:
365,136,44292,2,0,L|286:137,1,67.5000025749208,2|0,0:3|3:0,0:0:0:0:
453,72,44486,2,0,B|470:45|470:45|409:72,1,67.5000025749208,2|0,1:3|3:0,0:0:0:0:
297,136,44679,2,0,L|364:124,1,67.5000025749208,2|0,0:0|3:0,0:0:0:0:
434,136,44873,5,2,0:0:0:0:
456,201,45066,2,0,P|487:208|492:184,1,45,2|0,0:3|3:0,0:0:0:0:
489,71,45260,2,0,P|470:59|452:71,1,45,2|0,1:3|3:0,0:0:0:0:
434,136,45453,1,2,0:0:0:0:
230,138,45647,1,0,0:0:0:0:
230,138,45840,1,2,0:0:0:0:
149,50,46034,2,0,P|100:67|79:22,1,90,2|0,1:3|0:0,0:0:0:0:
216,66,46421,5,2,0:0:0:0:
260,123,46615,2,0,P|247:143|226:122,1,45,2|0,0:3|3:0,0:0:0:0:
255,4,46808,2,0,P|275:0|285:18,1,45,2|0,1:3|3:0,0:0:0:0:
216,66,47002,1,2,0:0:0:0:
18,68,47195,1,0,0:0:0:0:
18,68,47389,1,2,0:0:0:0:
64,181,47582,2,0,L|64:287,1,90,2|0,1:3|0:0,0:0:0:0:
12,139,47970,5,2,0:0:0:0:
154,181,48163,2,0,B|187:157|187:157|134:141,1,90,2|2,0:3|1:3,0:0:0:0:
251,203,48550,2,0,B|242:227|242:227|226:338,1,135,2|0,0:0|3:0,0:0:0:0:
211,339,48937,2,0,L|211:279,1,45,2|0,0:0|3:0,0:0:0:0:
342,310,49131,2,0,P|374:328|435:269,1,135,2|0,1:3|0:3,0:0:0:0:
423,260,49518,6,0,P|397:263|410:279,1,53.9999983520508,2|0,0:0|3:0,0:0:0:0:
340,318,49711,2,0,P|314:334|275:325,1,53.9999983520508,2|0,0:3|3:0,0:0:0:0:
191,281,49905,2,0,P|202:305|210:294,1,53.9999983520508,2|0,1:3|3:0,0:0:0:0:
96,236,50099,2,0,L|29:236,1,53.9999983520508,2|0,0:0|3:0,0:0:0:0:
170,181,50292,6,0,B|185:153|185:153|146:163,1,67.5000025749208,2|0,0:3|3:0,0:0:0:0:
262,124,50486,2,0,L|337:124,1,67.5000025749208,2|0,0:3|3:0,0:0:0:0:
411,68,50679,2,0,B|442:52|442:52|406:42,1,67.5000025749208,2|0,1:3|3:0,0:0:0:0:
262,124,50873,2,0,L|338:115,1,67.5000025749208,2|0,0:3|3:0,0:0:0:0:
412,165,51066,6,0,P|428:197|405:275,1,90,6|0,0:0|0:0,0:0:0:0:
286,237,51453,1,2,1:3:0:0:
355,237,51647,1,0,0:0:0:0:
213,237,51840,1,2,0:3:0:0:
144,237,52034,1,2,0:0:0:0:
232,318,52228,2,0,B|240:327|240:327|281:301|258:243,1,90,2|0,1:3|0:0,0:0:0:0:
175,177,52615,2,0,B|167:168|167:168|126:194|149:252,1,90,2|0,0:3|0:0,0:0:0:0:
78,147,53002,1,2,1:3:0:0:
6,163,53195,1,0,0:0:0:0:
69,54,53389,2,0,P|110:69|143:19,1,90,2|2,0:3|0:0,0:0:0:0:
253,69,53776,1,2,1:3:0:0:
325,53,53969,1,0,0:0:0:0:
500,13,54163,5,2,0:3:0:0:
458,178,54357,1,0,0:0:0:0:
401,72,54550,1,2,1:3:0:0:
463,106,54744,1,0,0:0:0:0:
463,278,54937,1,2,0:3:0:0:
401,312,55131,1,2,0:0:0:0:
458,178,55324,1,2,1:3:0:0:
310,177,55518,1,0,0:0:0:0:
356,228,55711,6,0,P|381:235|389:219,1,45,2|0,1:3|1:0,0:0:0:0:
310,177,55905,2,0,L|248:173,1,45,2|0,1:2|1:0,0:0:0:0:
204,137,56099,2,0,L|142:133,1,45,2|0,1:3|1:0,0:0:0:0:
96,103,56292,2,0,L|34:99,1,45,2|0,1:2|1:0,0:0:0:0:
160,59,56486,2,0,L|209:59,1,45,2|0,1:3|1:0,0:0:0:0:
273,34,56679,2,0,L|322:34,1,45,2|0,1:2|1:0,0:0:0:0:
391,16,56873,6,0,L|447:16,7,33.7500012874604,2|0|0|0|2|0|0|0,1:3|1:0|1:0|1:0|1:2|1:0|1:0|1:0,0:0:0:0:
452,16,57260,5,0,1:0:0:0:
509,102,57453,1,2,1:2:0:0:
324,105,57647,1,2,1:3:0:0:
394,89,57840,1,2,1:2:0:0:
202,92,58034,1,0,1:0:0:0:
271,229,58228,1,2,1:2:0:0:
272,154,58421,1,2,1:3:0:0:
82,155,58615,1,2,1:2:0:0:
160,158,58808,5,0,1:0:0:0:
6,119,59002,1,2,1:2:0:0:
63,265,59195,1,2,1:3:0:0:
82,155,59389,1,2,1:2:0:0:
21,190,59582,1,0,1:0:0:0:
156,77,59776,1,2,1:2:0:0:
158,297,59970,1,2,1:3:0:0:
82,155,60163,1,2,1:2:0:0:
200,193,60357,5,2,1:3:0:0:
216,192,60453,1,0,1:0:0:0:
232,191,60550,1,0,1:0:0:0:
248,191,60647,1,0,1:0:0:0:
264,191,60744,1,2,1:3:0:0:
280,191,60840,1,0,1:0:0:0:
296,191,60937,1,0,1:0:0:0:
312,191,61034,1,0,1:0:0:0:
328,191,61131,1,2,1:3:0:0:
344,191,61228,1,0,1:0:0:0:
360,191,61324,1,0,1:0:0:0:
376,191,61421,1,0,1:0:0:0:
392,191,61518,1,2,1:3:0:0:
408,191,61615,1,0,1:0:0:0:
424,191,61711,1,0,1:0:0:0:
440,191,61808,1,0,1:0:0:0:
490,191,61905,5,4,1:3:0:0:
403,120,62099,1,2,0:0:0:0:
405,263,62292,2,0,B|419:281|419:281|405:381,1,108,2|0,0:0|3:0,0:0:0:0:
392,364,62679,2,0,P|375:370|370:342,1,36,2|0,0:0|3:0,0:0:0:0:
393,254,62873,2,0,P|449:244|490:328,1,144,2|0,0:0|0:0,0:0:0:0:
255,283,63453,5,6,0:0:0:0:
306,220,63647,1,4,1:3:0:0:
196,238,63840,2,0,L|87:238,1,107.999996704102,8|4,0:0|1:3,0:0:0:0:
88,238,64131,1,0,1:0:0:0:
88,238,64228,1,2,0:0:0:0:
229,58,64421,2,0,P|254:90|212:158,1,107.999996704102,4|8,1:3|0:0,0:0:0:0:
157,90,64808,2,0,P|132:58|174:-10,1,107.999996704102,4|2,1:3|0:0,0:0:0:0:
229,58,65195,1,4,1:3:0:0:
371,57,65389,2,0,L|371:183,1,107.999996704102,8|4,0:0|1:3,0:0:0:0:
371,165,65679,1,2,1:2:0:0:
371,165,65776,1,2,0:0:0:0:
503,128,65970,2,0,B|495:74|495:74|425:98,1,107.999996704102,4|8,1:3|0:0,0:0:0:0:
313,223,66357,6,0,B|321:277|321:277|391:253,1,107.999996704102,4|2,1:3|0:0,0:0:0:0:
371,165,66744,1,8,1:3:0:0:
154,165,66937,2,0,L|135:282,1,107.999996704102,8|8,0:0|1:3,0:0:0:0:
136,271,67228,1,0,1:0:0:0:
136,271,67324,1,2,0:0:0:0:
313,223,67518,2,0,L|313:335,1,107.999996704102,8|8,1:3|0:0,0:0:0:0:
439,298,67905,1,8,1:3:0:0:
447,186,68099,1,2,0:0:0:0:
313,223,68292,1,12,1:3:0:0:
301,343,68486,1,8,0:0:0:0:
372,289,68679,1,12,1:3:0:0:
372,289,68776,1,2,1:2:0:0:
372,289,68873,2,0,L|382:233,1,53.9999983520508,2|0,0:0|3:0,0:0:0:0:
455,192,69066,2,0,L|465:136,1,53.9999983520508,2|0,1:2|3:0,0:0:0:0:
512,65,69260,1,8,0:0:0:0:
512,65,69453,6,0,B|501:12|501:12|427:38,1,107.999996704102,8|6,1:3|0:0,0:0:0:0:
315,76,69840,1,4,1:3:0:0:
208,39,70034,2,0,B|186:35|186:35|194:146,1,107.999996704102,8|4,0:0|1:3,0:0:0:0:
192,120,70324,1,0,1:0:0:0:
192,120,70421,1,2,0:0:0:0:
315,76,70615,2,0,B|357:60|357:60|289:44,1,107.999996704102,4|8,1:3|0:0,0:0:0:0:
279,160,71002,2,0,B|332:174|332:174|394:161,1,107.999996704102,4|2,1:3|0:0,0:0:0:0:
315,76,71389,1,4,1:3:0:0:
119,90,71582,2,0,L|-2:90,1,107.999996704102,8|4,0:0|1:3,0:0:0:0:
11,90,71873,1,0,1:0:0:0:
11,90,71970,1,2,0:0:0:0:
121,227,72163,2,0,P|175:237|199:188,1,107.999996704102,4|8,1:3|0:0,0:0:0:0:
384,163,72550,6,0,L|395:44,1,107.999996704102,4|2,1:3|0:0,0:0:0:0:
279,160,72937,1,8,1:3:0:0:
396,267,73131,2,0,L|516:267,1,107.999996704102,8|8,0:0|1:3,0:0:0:0:
504,267,73421,1,0,1:0:0:0:
504,267,73518,1,2,0:0:0:0:
321,271,73711,2,0,B|333:289|333:289|326:394,1,107.999996704102,8|8,1:3|0:0,0:0:0:0:
258,313,74099,1,8,1:3:0:0:
396,267,74292,5,2,0:0:0:0:
202,207,74486,1,12,1:3:0:0:
239,384,74679,1,8,0:0:0:0:
321,271,74873,1,12,1:3:0:0:
321,271,74970,1,2,1:2:0:0:
321,271,75066,2,0,L|258:279,1,53.9999983520508,2|0,0:0|3:0,0:0:0:0:
202,207,75260,2,0,L|139:215,1,53.9999983520508,2|0,1:2|3:0,0:0:0:0:
53,177,75453,1,8,0:0:0:0:
20,133,75550,1,10,0:0:0:0:
14,78,75647,1,8,0:0:0:0:
27,22,75744,1,10,0:0:0:0:
72,47,75840,6,0,L|132:141,1,107.999996704102,6|4,0:1|1:3,0:0:0:0:
372,122,76228,1,8,0:0:0:0:
255,57,76421,1,4,1:3:0:0:
255,57,76518,1,0,1:0:0:0:
255,57,76615,1,2,0:1:0:0:
343,194,76808,2,0,L|403:288,1,107.999996704102,4|8,1:3|0:0,0:0:0:0:
343,194,77195,1,4,1:3:0:0:
414,364,77389,2,0,B|471:371|471:371|475:300,1,107.999996704102,2|4,0:1|1:3,0:0:0:0:
429,152,77776,1,8,0:0:0:0:
287,242,77970,1,4,1:3:0:0:
287,242,78066,1,2,1:2:0:0:
287,242,78163,1,2,0:1:0:0:
429,152,78357,2,0,B|372:145|372:145|368:216,1,107.999996704102,4|8,1:3|0:0,0:0:0:0:
512,120,78744,1,4,1:3:0:0:
377,46,78937,6,0,L|238:28,1,107.999996704102,2|8,0:1|1:3,0:0:0:0:
451,11,79324,1,8,0:0:0:0:
304,114,79518,1,8,1:3:0:0:
304,114,79615,1,0,1:0:0:0:
304,114,79711,1,2,0:1:0:0:
187,0,79905,1,8,1:3:0:0:
269,32,80099,1,8,0:0:0:0:
245,196,80292,1,8,1:3:0:0:
163,164,80486,2,0,L|43:146,1,107.999996704102,2|8,0:1|1:3,0:0:0:0:
245,196,80873,1,8,0:0:0:0:
225,118,81066,1,8,1:3:0:0:
225,118,81163,1,2,1:2:0:0:
225,118,81260,1,2,0:1:0:0:
311,231,81453,2,0,B|321:246|321:246|308:314,1,53.9999983520508,2|0,1:2|3:0,0:0:0:0:
403,246,81647,2,0,L|472:227,1,53.9999983520508,10|0,0:0|3:0,0:0:0:0:
311,231,81840,1,8,1:3:0:0:
223,292,82034,6,0,L|97:325,1,107.999996704102,6|4,0:0|1:3,0:0:0:0:
0,242,82421,1,8,0:0:0:0:
32,375,82615,1,4,1:3:0:0:
32,375,82711,1,0,1:0:0:0:
32,375,82808,1,2,0:1:0:0:
109,237,83002,2,0,B|112:216|112:216|129:257|118:305,1,107.999996704102,4|8,1:3|0:0,0:0:0:0:
82,140,83389,1,4,1:3:0:0:
19,108,83582,2,0,L|-1:-20,1,107.999996704102,2|8,0:1|1:3,0:0:0:0:
82,140,83970,1,8,0:0:0:0:
234,146,84163,1,8,1:3:0:0:
234,146,84260,1,0,1:0:0:0:
234,146,84357,1,2,0:1:0:0:
333,110,84550,2,0,B|349:108|349:108|349:229,1,107.999996704102,8|8,1:3|0:0,0:0:0:0:
423,70,84937,1,8,1:3:0:0:
472,116,85131,5,2,1:1:0:0:
483,104,85228,1,0,1:3:0:0:
490,90,85324,1,8,1:3:0:0:
493,74,85421,1,0,1:3:0:0:
476,34,85518,1,8,1:2:0:0:
439,9,85615,1,0,1:3:0:0:
396,9,85711,1,8,1:3:0:0:
366,39,85808,1,0,1:3:0:0:
358,81,85905,1,2,1:1:0:0:
379,119,86002,1,0,1:0:0:0:
399,157,86099,1,8,1:3:0:0:
394,199,86195,1,0,1:0:0:0:
367,233,86292,1,8,1:2:0:0:
324,241,86389,1,0,1:0:0:0:
285,221,86486,1,8,1:3:0:0:
267,182,86582,1,0,1:0:0:0:
282,149,86679,6,0,L|336:149,1,45,2|0,0:3|3:0,0:0:0:0:
212,226,86873,1,8,0:1:0:0:
212,226,87066,2,0,L|161:226,1,45,0|0,1:0|3:0,0:0:0:0:
71,156,87260,1,8,0:1:0:0:
71,156,87453,2,0,P|93:159|108:139,1,45,0|0,0:0|3:0,0:0:0:0:
119,45,87647,1,8,0:1:0:0:
119,45,87840,2,0,L|175:45,1,45,0|0,1:0|3:0,0:0:0:0:
255,13,88034,1,8,0:1:0:0:
255,13,88228,6,0,L|255:124,1,107.999996704102,4|0,0:1|0:0,0:0:0:0:
255,121,88808,1,8,0:1:0:0:
258,258,89002,1,0,0:0:0:0:
342,245,89195,2,0,L|342:184,1,53.9999983520508,8|0,0:1|0:0,0:0:0:0:
183,274,89582,2,0,L|183:388,1,107.999996704102,8|0,0:1|0:0,0:0:0:0:
258,258,90163,1,8,0:1:0:0:
494,191,90550,1,0,0:0:0:0:
439,246,90744,2,0,L|439:310,1,53.9999983520508,8|0,0:1|0:0,0:0:0:0:
417,167,91131,6,0,B|330:157|330:157|358:151,1,107.999996704102,8|0,0:1|0:0,0:0:0:0:
494,191,91711,2,0,L|494:129,1,53.9999983520508,8|0,0:1|0:0,0:0:0:0:
417,167,92099,1,8,0:1:0:0:
261,148,92292,2,0,L|200:148,1,53.9999983520508,8|0,0:1|0:0,0:0:0:0:
133,104,92679,1,8,0:1:0:0:
199,57,92873,2,0,L|256:52,1,53.9999983520508
261,148,93260,1,8,0:1:0:0:
305,1,93453,1,0,0:0:0:0:
252,52,93647,2,0,L|219:50,1,26.9999991760254,8|0,0:1|3:0,0:0:0:0:
133,104,93840,2,0,L|17:97,1,107.999996704102,8|8,0:1|0:1,0:0:0:0:
31,170,94421,6,0,L|31:214,1,26.9999991760254,4|0,0:1|3:0,0:0:0:0:
481,170,94808,2,0,L|481:214,1,26.9999991760254,0|0,0:0|3:0,0:0:0:0:
481,170,95002,1,8,0:1:0:0:
362,168,95195,1,0,0:0:0:0:
269,194,95389,2,0,B|234:182|234:182|255:178,1,53.9999983520508,8|0,0:1|0:0,0:0:0:0:
329,242,95776,2,0,L|344:349,1,107.999996704102,8|0,0:1|0:0,0:0:0:0:
258,273,96357,1,8,0:1:0:0:
258,273,96550,2,0,L|213:273,1,26.9999991760254,8|0,0:1|3:0,0:0:0:0:
140,229,96744,1,0,0:0:0:0:
140,229,96937,2,0,L|150:266,1,26.9999991760254,8|0,0:1|3:0,0:0:0:0:
163,357,97131,1,0,0:0:0:0:
163,357,97324,2,0,L|181:325,1,26.9999991760254,8|0,0:1|3:0,0:0:0:0:
49,344,97518,6,0,P|14:345|5:326,1,53.9999983520508,0|8,0:0|0:1,0:0:0:0:
63,242,97905,2,0,B|67:234|67:234|64:168,1,53.9999983520508,0|8,0:0|0:1,0:0:0:0:
162,78,98292,1,8,0:1:0:0:
88,111,98486,2,0,B|42:139|42:139|75:212,1,107.999996704102,8|0,0:1|0:0,0:0:0:0:
162,78,99066,2,0,B|167:65|167:65|167:17,1,53.9999983520508,0|8,0:0|0:1,0:0:0:0:
255,118,99453,2,0,L|313:118,1,53.9999983520508,0|8,0:0|0:1,0:0:0:0:
393,81,99840,1,8,0:1:0:0:
500,68,100034,2,0,L|377:82,1,107.999996704102,8|8,0:1|0:1,0:0:0:0:
389,173,100615,6,0,L|452:180,1,36,2|0,0:3|0:0,0:0:0:0:
389,173,100808,1,8,0:1:0:0:
324,224,101002,1,2,0:3:0:0:
253,194,101195,1,8,0:1:0:0:
253,194,101292,1,8,0:1:0:0:
253,194,101389,1,2,0:3:0:0:
163,204,101582,2,0,L|79:204,1,72,8|2,0:1|0:3,0:0:0:0:
22,189,101970,1,8,0:1:0:0:
48,262,102163,6,0,L|48:302,1,36,2|0,0:3|0:0,0:0:0:0:
48,262,102357,1,8,0:1:0:0:
22,189,102550,1,2,0:3:0:0:
53,122,102744,1,8,0:1:0:0:
53,122,102840,1,8,0:1:0:0:
53,122,102937,1,2,0:3:0:0:
145,113,103131,2,0,B|159:99|159:99|158:40,1,72,8|2,0:1|0:3,0:0:0:0:
279,55,103518,2,0,L|354:55,1,72,8|2,0:1|0:3,0:0:0:0:
279,55,103905,5,8,0:1:0:0:
439,24,104099,1,2,0:3:0:0:
393,126,104292,1,8,0:1:0:0:
393,126,104389,1,8,0:1:0:0:
393,126,104486,1,2,0:3:0:0:
331,230,104679,2,0,L|318:329,1,72,8|2,0:1|0:3,0:0:0:0:
404,210,105066,1,8,0:1:0:0:
252,227,105260,6,0,L|201:227,3,36,2|0|8|0,1:3|1:0|1:0|1:0,0:0:0:0:
152,277,105647,2,0,L|105:277,1,36,2|0,1:3|1:0,0:0:0:0:
48,317,105840,2,0,L|1:317,1,36,8|0,1:0|1:0,0:0:0:0:
116,358,106034,2,0,L|166:358,1,36,2|0,1:3|1:0,0:0:0:0:
223,384,106228,2,0,L|273:384,1,36,8|0,1:0|1:0,0:0:0:0:
337,329,106421,6,0,P|351:317|342:305,7,33.7500012874604,2|0|0|0|8|0|0|0,1:3|1:0|1:0|1:0|1:0|1:0|1:0|1:0,0:0:0:0:
305,293,106808,6,0,L|245:293,1,45,2|0,1:3|1:0,0:0:0:0:
379,239,107002,2,0,L|389:177,1,45,8|0,1:0|1:0,0:0:0:0:
460,281,107195,2,0,P|479:279|475:254,1,45,2|0,1:3|1:0,0:0:0:0:
381,192,107389,2,0,L|332:192,1,45,8|0,1:0|1:0,0:0:0:0:
448,134,107582,2,0,L|458:72,1,45,2|0,1:3|1:0,0:0:0:0:
365,23,107776,2,0,B|379:20|379:20|379:74,1,45,8|0,1:0|1:0,0:0:0:0:
305,81,107970,2,0,L|257:81,1,45,2|0,1:3|1:0,0:0:0:0:
176,47,108163,2,0,L|118:47,1,45,8|0,1:0|1:0,0:0:0:0:
47,16,108357,6,0,L|-5:16,1,45,2|0,1:3|0:0,0:0:0:0:
128,51,108550,2,0,P|156:59|162:35,1,45,0|0,1:0|1:0,0:0:0:0:
257,87,108744,2,0,P|285:95|291:71,1,45,2|0,1:3|1:0,0:0:0:0:
210,163,108937,2,0,L|203:226,1,45,8|0,1:0|1:0,0:0:0:0:
122,283,109131,2,0,L|67:293,1,45,2|0,1:3|1:0,0:0:0:0:
199,317,109324,2,0,B|223:326|223:326|226:295,1,45,8|0,1:0|1:0,0:0:0:0:
77,291,109518,2,0,L|122:283,1,45,2|0,1:3|1:0,0:0:0:0:
235,309,109711,2,0,L|279:300,1,45,8|0,1:0|1:0,0:0:0:0:
395,315,109905,5,2,1:3:0:0:
419,279,110002,1,0,1:0:0:0:
429,236,110099,1,0,1:0:0:0:
423,193,110195,1,0,1:0:0:0:
403,154,110292,1,2,1:3:0:0:
368,127,110389,1,0,1:0:0:0:
325,117,110486,1,0,1:0:0:0:
282,121,110582,1,0,1:0:0:0:
243,140,110679,1,2,1:3:0:0:
200,146,110776,1,0,1:0:0:0:
159,131,110873,1,0,1:0:0:0:
133,96,110970,1,0,1:0:0:0:
126,53,111066,1,2,1:3:0:0:
146,14,111163,1,0,1:0:0:0:
188,20,111260,1,0,1:0:0:0:
207,47,111357,1,0,1:0:0:0:
187,86,111453,6,0,B|210:88|230:117|230:117|259:23|145:-44|75:32|75:32|116:35|143:71,1,360,4|2,0:3|0:0,0:0:0:0:
73,107,112421,1,2,0:0:0:0:
5,83,112615,1,0,0:0:0:0:
58,37,112808,1,2,0:0:0:0:
125,52,113002,5,4,0:3:0:0:
160,144,113195,2,0,L|167:231,1,72,0|2,0:0|0:0,0:0:0:0:
254,210,113582,1,2,0:0:0:0:
264,210,113679,1,2,0:0:0:0:
274,210,113776,1,0,0:0:0:0:
325,272,113970,1,0,0:0:0:0:
416,245,114163,2,0,B|434:238|434:238|381:227,1,72,2|0,0:0|0:0,0:0:0:0:
325,272,114550,2,0,L|174:294,1,144,0|2,0:0|0:0,0:0:0:0:
85,345,115131,2,0,B|23:379|23:379|46:307,1,144
182,292,115711,2,0,L|259:304,1,72,2|0,0:0|0:0,0:0:0:0:
110,253,116099,5,4,0:1:0:0:
168,200,116292,1,0,0:0:0:0:
0,139,116486,1,2,0:0:0:0:
83,181,116679,1,2,0:0:0:0:
93,179,116776,1,2,0:0:0:0:
103,177,116873,1,0,0:0:0:0:
271,149,117066,1,0,0:0:0:0:
341,9,117260,1,2,0:0:0:0:
282,79,117453,1,2,0:0:0:0:
292,77,117550,1,2,0:0:0:0:
302,75,117647,5,0,0:0:0:0:
341,9,117840,1,0,0:0:0:0:
187,102,118034,1,2,0:0:0:0:
271,149,118228,1,2,0:0:0:0:
281,151,118324,1,2,0:0:0:0:
291,153,118421,1,0,0:0:0:0:
301,155,118518,1,0,0:0:0:0:
311,157,118615,2,0,L|361:165,1,36,0|0,0:0|3:0,0:0:0:0:
433,217,118808,2,0,L|398:212,1,36,2|0,0:0|3:0,0:0:0:0:
477,275,119002,2,0,L|527:283,1,36,2|0,0:0|3:0,0:0:0:0:
340,260,119195,5,0,0:0:0:0:
388,314,119389,2,0,B|393:329|393:329|384:389,1,72,0|2,0:0|0:0,0:0:0:0:
265,273,119776,1,2,0:0:0:0:
254,274,119873,1,2,0:0:0:0:
243,275,119970,1,0,0:0:0:0:
149,287,120163,2,0,P|136:267|157:215,1,72,0|2,0:0|0:0,0:0:0:0:
213,173,120550,1,2,0:0:0:0:
223,174,120647,1,2,0:0:0:0:
233,175,120744,1,0,0:0:0:0:
149,287,120937,2,0,L|228:301,1,72,0|2,0:0|0:0,0:0:0:0:
145,187,121324,2,0,L|-8:160,1,144
203,149,121905,2,0,B|242:137|242:137|209:128,1,72,2|2,0:0|0:0,0:0:0:0:
211,128,122195,1,2,0:0:0:0:
211,128,122292,5,4,0:1:0:0:
323,106,122486,1,0,0:0:0:0:
432,80,122679,2,0,L|501:32,1,72,2|2,0:0|0:0,0:0:0:0:
491,38,122970,1,2,0:0:0:0:
491,38,123066,1,0,0:0:0:0:
323,106,123260,1,0,0:0:0:0:
203,149,123453,2,0,L|143:190,1,72,2|0,0:0|0:0,0:0:0:0:
21,268,123840,5,0,0:0:0:0:
90,136,124034,1,0,0:0:0:0:
10,104,124228,1,2,0:0:0:0:
95,306,124421,1,2,0:0:0:0:
95,306,124518,1,2,0:0:0:0:
95,306,124615,2,0,L|136:338,1,36,8|0,0:0|3:0,0:0:0:0:
230,239,124808,2,0,L|201:261,1,36,0|0,0:0|3:0,0:0:0:0:
329,286,125002,2,0,L|377:286,1,36,2|0,0:0|3:0,0:0:0:0:
257,322,125195,1,2,0:0:0:0:
394,221,125389,5,6,0:0:0:0:
466,245,125582,2,0,B|492:253|492:253|476:232,1,45,2|0,0:3|3:0,0:0:0:0:
330,180,125776,2,0,L|268:207,1,45,2|0,0:3|3:0,0:0:0:0:
394,221,125970,1,2,0:0:0:0:
219,141,126163,1,0,0:0:0:0:
219,141,126357,1,2,0:0:0:0:
154,82,126550,2,0,L|36:107,1,90,2|0,0:3|0:0,0:0:0:0:
229,43,126937,5,2,0:0:0:0:
310,78,127131,2,0,B|334:69|334:69|306:46,1,45,2|0,0:3|3:0,0:0:0:0:
154,82,127324,2,0,L|93:112,1,45,2|0,0:3|3:0,0:0:0:0:
229,43,127518,1,2,0:0:0:0:
408,113,127711,1,0,0:0:0:0:
408,113,127905,1,2,0:0:0:0:
487,73,128099,2,0,P|510:51|478:-10,1,90,2|0,0:3|0:0,0:0:0:0:
350,167,128486,5,2,0:0:0:0:
314,254,128679,2,0,L|295:354,1,90,2|2,0:3|0:3,0:0:0:0:
114,320,129066,2,0,B|58:328|25:292|25:292|74:275,1,135,2|0,0:0|3:0,0:0:0:0:
79,266,129453,2,0,L|142:276,1,45,2|0,0:3|3:0,0:0:0:0:
205,383,129647,2,0,L|190:335,1,45,2|0,0:3|3:0,0:0:0:0:
250,206,129840,2,0,L|209:251,1,45,2|0,0:0|3:0,0:0:0:0:
167,141,130034,6,0,P|151:138|173:125,1,53.9999983520508,2|0,0:0|3:0,0:0:0:0:
106,60,130228,2,0,L|26:51,1,53.9999983520508,2|0,0:3|3:0,0:0:0:0:
173,127,130421,2,0,L|226:133,1,53.9999983520508,2|0,0:3|3:0,0:0:0:0:
323,88,130615,2,0,B|354:73|354:73|318:63,1,53.9999983520508,2|0,0:0|3:0,0:0:0:0:
447,66,130808,6,0,L|467:-15,1,67.5000025749208,2|0,0:3|3:0,0:0:0:0:
447,147,131002,2,0,L|467:228,1,67.5000025749208,2|0,0:3|3:0,0:0:0:0:
348,236,131195,2,0,B|361:203|361:203|312:213,1,67.5000025749208,2|0,0:3|3:0,0:0:0:0:
463,212,131389,2,0,L|468:142,1,67.5000025749208,2|0,0:0|3:0,0:0:0:0:
455,329,131582,5,2,0:0:0:0:
385,353,131776,2,0,P|368:356|357:395,1,45,2|0,0:3|3:0,0:0:0:0:
453,254,131970,2,0,P|464:233|450:194,1,45,2|0,0:3|3:0,0:0:0:0:
455,329,132163,1,2,0:0:0:0:
256,288,132357,1,0,0:0:0:0:
256,288,132550,1,2,0:0:0:0:
170,257,132744,2,0,B|154:257|154:257|159:355,1,90,2|0,0:3|0:0,0:0:0:0:
61,208,133131,5,2,0:0:0:0:
138,226,133324,2,0,P|158:237|170:256,1,45,2|0,0:3|3:0,0:0:0:0:
104,138,133518,2,0,P|99:116|107:95,1,45,2|0,0:3|3:0,0:0:0:0:
61,208,133711,1,2,0:0:0:0:
0,47,133905,1,0,0:0:0:0:
0,47,134099,1,2,0:0:0:0:
193,92,134292,2,0,L|287:92,1,90,2|0,0:3|0:0,0:0:0:0:
392,72,134679,5,2,0:0:0:0:
511,31,134873,2,0,B|441:18|441:18|483:10,1,90,2|2,0:3|0:3,0:0:0:0:
283,92,135260,2,0,L|130:109,1,135,2|0,0:0|3:0,0:0:0:0:
121,101,135647,2,0,B|100:92|100:92|126:82,1,45,2|0,0:3|3:0,0:0:0:0:
243,189,135840,2,0,L|247:329,1,135,2|0,0:3|3:0,0:0:0:0:
219,345,136228,6,0,P|208:354|167:325,1,53.9999983520508,2|0,0:0|3:0,0:0:0:0:
168,233,136421,2,0,P|151:245|146:217,1,53.9999983520508,2|0,0:3|3:0,0:0:0:0:
314,252,136615,2,0,L|383:252,1,53.9999983520508,2|0,0:3|3:0,0:0:0:0:
452,277,136808,2,0,B|463:290|463:290|453:340,1,53.9999983520508,2|0,0:0|3:0,0:0:0:0:
469,198,137002,6,0,B|446:188|446:188|505:172,1,67.5000025749208,2|0,0:3|3:0,0:0:0:0:
376,126,137195,2,0,L|296:116,1,67.5000025749208,2|0,0:3|3:0,0:0:0:0:
225,81,137389,2,0,B|191:86|191:86|218:50,1,67.5000025749208,2|0,0:3|3:0,0:0:0:0:
376,126,137582,2,0,L|300:104,1,67.5000025749208,2|0,0:3|3:0,0:0:0:0:
111,165,137776,6,0,L|11:176,1,90,6|0,0:0|0:0,0:0:0:0:
180,205,138163,1,2,0:3:0:0:
254,187,138357,1,0,0:0:0:0:
315,246,138550,1,2,0:3:0:0:
241,264,138744,1,2,0:0:0:0:
360,308,138937,2,0,B|385:308|385:308|379:398,1,90,2|0,0:3|0:0,0:0:0:0:
471,272,139324,2,0,B|507:262|507:262|448:243,1,90,2|0,0:3|0:0,0:0:0:0:
360,308,139711,1,2,0:3:0:0:
210,317,139905,1,0,0:0:0:0:
126,291,140099,2,0,P|120:315|114:282,1,90,2|2,0:3|0:0,0:0:0:0:
69,213,140486,1,2,0:3:0:0:
10,98,140679,1,0,0:0:0:0:
187,95,140873,5,2,0:3:0:0:
115,142,141066,1,0,0:0:0:0:
66,37,141260,1,2,0:3:0:0:
269,33,141453,1,0,0:0:0:0:
318,138,141647,1,2,0:3:0:0:
260,103,141840,1,2,0:0:0:0:
470,93,142034,1,2,0:3:0:0:
395,289,142228,1,0,0:0:0:0:
434,223,142421,6,0,L|499:213,1,45,2|0,1:3|1:0,0:0:0:0:
395,289,142615,2,0,L|350:295,1,45,2|0,1:2|1:0,0:0:0:0:
256,366,142808,2,0,L|321:356,1,45,2|0,1:3|1:0,0:0:0:0:
256,366,143002,2,0,L|191:356,1,45,2|0,1:2|1:0,0:0:0:0:
117,289,143195,2,0,L|161:295,1,45,2|0,1:3|1:0,0:0:0:0:
78,223,143389,2,0,L|13:213,1,45,2|0,1:2|1:0,0:0:0:0:
0,141,143582,6,0,L|35:141,7,33.7500012874604,2|0|0|0|2|0|0|0,1:3|1:0|1:0|1:0|1:2|1:0|1:0|1:0,0:0:0:0:
55,141,143970,6,0,B|77:139|77:139|136:83|136:83|65:94,1,161.999995056153,2|2,1:3|1:2,0:0:0:0:
78,91,144357,1,2,1:3:0:0:
273,115,144550,1,2,1:2:0:0:
305,115,144647,1,2,1:2:0:0:
337,115,144744,1,2,1:3:0:0:
369,115,144840,1,2,1:2:0:0:
401,116,144937,1,2,1:2:0:0:
253,181,145131,1,2,1:3:0:0:
221,180,145228,1,2,1:2:0:0:
189,180,145324,1,2,1:2:0:0:
157,180,145421,1,2,1:2:0:0:
125,180,145518,5,2,1:3:0:0:
322,202,145711,1,2,1:2:0:0:
408,202,145905,1,2,1:3:0:0:
482,159,146099,2,0,B|490:131|490:131|518:204|479:287,1,161.999995056153,2|0,1:2|3:0,0:0:0:0:
465,274,146486,2,0,L|437:361,1,53.9999983520508,0|0,1:0|3:0,0:0:0:0:
354,318,146679,2,0,L|326:405,1,53.9999983520508,2|0,1:3|3:0,0:0:0:0:
240,333,146873,2,0,L|212:420,1,53.9999983520508,0|0,1:0|3:0,0:0:0:0:
129,331,147066,5,2,1:3:0:0:
90,312,147163,1,0,1:0:0:0:
68,274,147260,1,0,1:0:0:0:
64,230,147357,1,0,1:0:0:0:
75,188,147453,1,2,1:3:0:0:
110,162,147550,1,0,1:0:0:0:
151,150,147647,1,0,1:0:0:0:
193,158,147744,1,0,1:0:0:0:
228,182,147840,1,2,1:3:0:0:
267,199,147937,1,0,1:0:0:0:
310,196,148034,1,0,1:0:0:0:
350,179,148131,1,0,1:0:0:0:
378,146,148228,1,2,1:3:0:0:
386,104,148324,1,0,1:0:0:0:
376,61,148421,1,0,1:0:0:0:
350,25,148518,1,0,1:0:0:0:
307,10,148615,5,4,0:3:0:0:
201,49,148808,1,2,0:0:0:0:
84,74,149002,2,0,B|35:79|3:46|3:46|31:50,1,108,2|0,0:0|3:0,0:0:0:0:
84,74,149389,2,0,L|138:90,1,36,2|0,0:0|3:0,0:0:0:0:
201,49,149582,2,0,L|367:93,1,144,2|0,0:0|0:0,0:0:0:0:
323,191,150163,5,6,0:0:0:0:
486,173,150357,1,4,1:3:0:0:
452,260,150550,2,0,B|457:275|457:275|446:393,1,107.999996704102,8|4,0:0|1:3,0:0:0:0:
448,366,150840,1,0,1:0:0:0:
448,366,150937,1,2,0:0:0:0:
285,293,151131,2,0,B|214:298|214:298|251:320,1,107.999996704102,4|8,1:3|0:0,0:0:0:0:
144,277,151518,2,0,L|31:263,1,107.999996704102,4|2,1:3|0:0,0:0:0:0:
285,293,151905,1,4,1:3:0:0:
164,116,152099,2,0,L|277:100,1,107.999996704102,8|4,0:0|1:3,0:0:0:0:
270,100,152389,1,2,1:2:0:0:
270,100,152486,1,2,0:0:0:0:
413,63,152679,2,0,B|443:20|443:20|361:17,1,107.999996704102,4|8,1:3|0:0,0:0:0:0:
420,172,153066,2,0,L|348:268,1,107.999996704102,4|2,1:3|0:0,0:0:0:0:
413,63,153453,5,8,1:3:0:0:
270,100,153647,2,0,P|214:93|219:29,1,107.999996704102,8|8,0:0|1:3,0:0:0:0:
204,49,153937,1,0,1:0:0:0:
204,49,154034,1,2,0:0:0:0:
62,18,154228,2,0,L|62:132,1,107.999996704102,8|8,1:3|0:0,0:0:0:0:
132,267,154615,1,8,1:3:0:0:
197,201,154808,1,2,0:0:0:0:
0,261,155002,1,12,1:3:0:0:
114,368,155195,1,8,0:0:0:0:
132,267,155389,1,12,1:3:0:0:
117,275,155486,1,2,1:2:0:0:
103,283,155582,2,0,L|128:220,1,53.9999983520508,2|0,0:0|3:0,0:0:0:0:
197,201,155776,2,0,B|232:191|232:191|201:183,1,53.9999983520508,2|0,1:2|3:0,0:0:0:0:
114,147,155970,1,8,0:0:0:0:
62,18,156163,2,0,L|183:18,1,107.999996704102,2|6,1:2|0:0,0:0:0:0:
321,16,156550,5,4,1:3:0:0:
417,105,156744,2,0,P|445:115|482:51,1,107.999996704102,8|4,0:0|1:3,0:0:0:0:
485,61,157034,1,0,1:0:0:0:
485,61,157131,1,2,0:0:0:0:
339,165,157324,2,0,L|210:174,1,107.999996704102,4|8,1:3|0:0,0:0:0:0:
139,262,157711,2,0,L|10:271,1,107.999996704102,4|2,1:3|0:0,0:0:0:0:
224,312,158099,1,4,1:3:0:0:
294,366,158292,2,0,P|335:375|365:313,1,107.999996704102,8|4,0:0|1:3,0:0:0:0:
368,326,158582,1,2,1:2:0:0:
368,326,158679,1,2,0:0:0:0:
464,235,158873,2,0,P|495:262|474:224,1,107.999996704102,4|8,1:3|0:0,0:0:0:0:
339,165,159260,2,0,L|339:34,1,107.999996704102,4|2,1:3|0:0,0:0:0:0:
163,61,159647,5,4,1:3:0:0:
91,117,159840,2,0,B|45:125|12:89|12:89|58:97,1,107.999996704102,8|4,0:0|1:3,0:0:0:0:
31,92,160131,1,0,1:0:0:0:
31,92,160228,1,2,0:0:0:0:
133,178,160421,2,0,L|258:195,1,107.999996704102,4|8,1:3|0:0,0:0:0:0:
308,317,160808,1,4,1:3:0:0:
386,197,161002,5,2,0:0:0:0:
209,295,161196,1,12,1:3:0:0:
388,384,161389,1,8,0:0:0:0:
308,317,161582,1,12,1:3:0:0:
291,315,161679,1,2,1:2:0:0:
274,314,161776,2,0,L|347:304,1,53.9999983520508,2|0,0:0|3:0,0:0:0:0:
403,270,161970,2,0,L|476:260,1,53.9999983520508,2|0,1:2|3:0,0:0:0:0:
504,170,162163,1,8,0:0:0:0:
512,116,162260,1,10,0:0:0:0:
500,63,162357,1,8,0:0:0:0:
468,19,162453,1,10,0:0:0:0:
437,60,162550,6,0,L|346:182,1,107.999996704102,6|4,0:1|1:3,0:0:0:0:
144,90,162937,1,8,0:0:0:0:
252,57,163131,1,4,1:3:0:0:
252,57,163228,1,0,1:0:0:0:
252,57,163324,1,2,0:1:0:0:
147,173,163518,2,0,L|56:295,1,107.999996704102,4|8,1:3|0:0,0:0:0:0:
0,165,163905,1,4,1:3:0:0:
144,90,164099,2,0,B|118:54|118:54|215:79,1,107.999996704102,2|4,0:1|1:3,0:0:0:0:
251,198,164486,1,8,0:0:0:0:
199,267,164679,1,4,1:3:0:0:
199,267,164776,1,2,1:2:0:0:
199,267,164873,1,2,0:1:0:0:
340,247,165066,2,0,B|455:267,1,107.999996704102,4|8,1:3|0:0,0:0:0:0:
340,247,165453,1,4,1:3:0:0:
271,324,165647,6,0,B|275:302|275:302|298:340|289:414,1,107.999996704102,2|8,0:1|1:3,0:0:0:0:
133,346,166034,1,8,0:0:0:0:
0,327,166228,1,8,1:3:0:0:
0,327,166324,1,0,1:0:0:0:
0,327,166421,1,2,0:1:0:0:
95,272,166615,1,8,1:3:0:0:
0,57,166808,1,8,0:0:0:0:
95,112,167002,1,8,1:3:0:0:
206,88,167195,5,2,0:1:0:0:
206,296,167389,1,8,1:3:0:0:
149,192,167582,1,8,0:0:0:0:
326,198,167776,1,8,1:3:0:0:
326,198,167873,1,2,1:2:0:0:
326,198,167970,1,2,0:1:0:0:
413,162,168163,2,0,B|448:150|448:150|392:146,1,53.9999983520508,2|0,1:2|3:0,0:0:0:0:
373,77,168357,2,0,L|304:70,1,53.9999983520508,8|0,0:0|3:0,0:0:0:0:
413,162,168550,1,2,1:2:0:0:
404,257,168744,6,0,L|536:273,1,107.999996704102,6|4,0:0|1:3,0:0:0:0:
269,333,169131,1,8,0:0:0:0:
206,296,169324,1,4,1:3:0:0:
206,296,169421,1,0,1:0:0:0:
206,296,169518,1,2,0:1:0:0:
97,288,169711,2,0,P|46:301|12:250,1,107.999996704102,4|8,1:3|0:0,0:0:0:0:
140,190,170099,1,4,1:3:0:0:
236,162,170292,2,0,L|249:43,1,107.999996704102,2|8,0:1|1:3,0:0:0:0:
420,24,170679,1,8,0:0:0:0:
384,109,170873,1,8,1:3:0:0:
384,109,170970,1,2,1:2:0:0:
384,109,171066,1,2,0:1:0:0:
372,258,171260,2,0,L|360:365,1,107.999996704102,8|8,1:3|0:0,0:0:0:0:
504,159,171647,1,8,1:3:0:0:
370,117,171840,5,2,1:0:0:0:
356,126,171937,1,0,1:0:0:0:
344,136,172034,1,8,1:3:0:0:
334,149,172131,1,0,1:0:0:0:
316,188,172228,1,8,1:2:0:0:
314,231,172324,1,0,1:0:0:0:
327,273,172421,1,8,1:3:0:0:
372,258,172518,1,0,1:0:0:0:
408,225,172615,1,2,1:1:0:0:
430,180,172711,1,0,1:0:0:0:
432,128,172808,1,8,1:3:0:0:
411,80,172905,1,0,1:0:0:0:
363,98,173002,1,8,1:2:0:0:
325,136,173099,1,0,1:0:0:0:
301,184,173195,1,8,1:3:0:0:
295,237,173292,1,0,1:0:0:0:
307,288,173389,6,0,L|380:210,1,90,2|0,0:0|0:0,0:0:0:0:
67,183,173776,2,0,L|5:248,1,90,2|0,0:3|0:0,0:0:0:0:
142,150,174163,1,2,0:0:0:0:
211,118,174357,2,0,B|251:113|251:113|221:94,1,72
329,26,174744,6,0,B|370:31|370:31|403:17|451:27,1,107.999996704102,4|0,0:3|0:0,0:0:0:0:
467,100,175324,1,0,0:0:0:0:
395,123,175518,1,2,0:0:0:0:
421,190,175711,1,0,0:0:0:0:
397,258,175905,2,0,L|458:273,1,53.9999983520508,2|8,0:0|0:0,0:0:0:0:
255,319,176292,2,0,B|214:314|214:314|181:328|133:318,1,107.999996704102,4|0,0:0|0:0,0:0:0:0:
68,303,176873,2,0,L|13:296,1,53.9999983520508
127,236,177260,2,0,B|162:221|162:221|134:214,1,53.9999983520508,0|2,0:0|0:0,0:0:0:0:
216,168,177647,1,0,0:0:0:0:
286,158,177840,6,0,B|360:176|313:136|408:157,1,107.999996704102,4|2,0:0|0:0,0:0:0:0:
240,97,178421,1,0,0:0:0:0:
274,32,178615,1,2,0:0:0:0:
200,35,178808,1,0,0:0:0:0:
171,101,179002,2,0,L|122:130,1,53.9999983520508,2|8,0:0|0:0,0:0:0:0:
142,307,179389,2,0,L|49:374,1,107.999996704102,4|0,0:0|0:0,0:0:0:0:
212,353,179970,2,0,P|250:371|264:351,1,53.9999983520508
212,353,180357,1,0,0:0:0:0:
349,369,180550,2,0,L|467:355,1,107.999996704102,2|0,0:0|0:0,0:0:0:0:
503,279,181131,6,0,P|475:288|453:260,1,53.9999983520508,4|0,0:3|0:0,0:0:0:0:
510,212,181518,2,0,P|482:197|443:200,1,53.9999983520508,0|2,0:0|0:0,0:0:0:0:
386,199,181905,1,0,0:0:0:0:
315,189,182099,2,0,L|255:181,1,53.9999983520508,2|8,0:0|0:0,0:0:0:0:
106,84,182486,2,0,B|70:76|70:76|33:88|-5:78,1,107.999996704102,6|0,0:0|0:0,0:0:0:0:
173,44,183066,1,0,0:0:0:0:
226,96,183260,1,2,0:0:0:0:
196,159,183453,1,0,0:0:0:0:
123,153,183647,1,2,0:0:0:0:
91,225,183840,1,0,0:0:0:0:
147,282,184034,1,2,0:0:0:0:
218,242,184228,6,0,L|271:248,1,53.9999983520508,4|2,0:0|0:0,0:0:0:0:
397,180,184615,2,0,B|435:175|435:175|409:167,1,53.9999983520508,0|2,0:0|0:0,0:0:0:0:
397,180,185002,1,0,0:0:0:0:
505,91,185195,2,0,L|447:107,1,53.9999983520508,2|8,0:0|0:0,0:0:0:0:
317,152,185582,1,2,0:0:0:0:
352,241,185776,2,0,B|356:258|356:258|352:315,1,53.9999983520508,4|0,0:0|0:0,0:0:0:0:
255,336,186163,1,0,0:0:0:0:
188,301,186357,1,2,0:0:0:0:
109,307,186550,2,0,L|52:314,1,53.9999983520508,4|0,0:1|0:0,0:0:0:0:
109,307,186937,1,0,0:0:0:0:
216,230,187131,1,2,0:0:0:0:
278,155,187324,6,0,B|314:147|314:147|360:156|402:130,1,107.999996704102,4|0,0:3|0:0,0:0:0:0:
470,98,187905,1,2,0:0:0:0:
493,18,188099,1,0,0:0:0:0:
413,43,188292,1,10,0:0:0:0:
99,341,188679,1,2,0:0:0:0:
33,312,188873,2,0,B|4:319|4:319|22:291,1,53.9999983520508,4|0,0:0|0:0,0:0:0:0:
99,341,189260,2,0,L|163:337,1,53.9999983520508,0|2,0:0|0:0,0:0:0:0:
62,237,189647,1,0,0:0:0:0:
50,164,189840,2,0,L|79:111,1,53.9999983520508
256,84,190228,6,0,B|256:65|256:65|283:110|264:176,1,107.999996704102,4|0,0:0|0:0,0:0:0:0:
182,79,190808,1,0,0:0:0:0:
202,9,191002,1,2,0:0:0:0:
380,64,191195,1,0,0:0:0:0:
327,198,191389,1,2,0:0:0:0:
256,84,191582,1,8,0:0:0:0:
269,151,191776,2,0,L|227:257,1,107.999996704102,4|0,0:0|0:0,0:0:0:0:
448,210,192357,2,0,P|468:215|489:188,1,53.9999983520508,0|2,0:0|0:0,0:0:0:0:
484,126,192744,1,0,0:0:0:0:
390,113,192937,2,0,P|410:87|432:88,1,53.9999983520508,2|0,0:0|0:0,0:0:0:0:
484,126,193324,1,0,0:0:0:0:
448,210,193518,6,0,L|448:324,1,107.999996704102,4|0,0:3|0:0,0:0:0:0:
298,349,194099,1,2,0:0:0:0:
231,318,194292,1,0,0:0:0:0:
291,275,194486,2,0,B|320:269|320:269|298:260,1,53.9999983520508,2|8,0:0|0:0,0:0:0:0:
140,226,194873,2,0,B|99:223|99:223|62:237|22:226,1,107.999996704102,4|0,0:0|0:0,0:0:0:0:
179,151,195453,1,0,0:0:0:0:
250,111,195647,1,2,0:0:0:0:
288,42,195840,1,0,0:0:0:0:
206,48,196034,2,0,L|137:70,1,53.9999983520508
310,152,196421,1,2,0:0:0:0:
382,171,196615,6,0,P|409:171|414:146,1,53.9999983520508,4|0,0:0|0:0,0:0:0:0:
310,152,197002,1,0,0:0:0:0:
297,224,197195,1,2,0:0:0:0:
253,280,197389,1,0,0:0:0:0:
184,296,197582,2,0,L|130:313,1,53.9999983520508,2|0,0:0|0:0,0:0:0:0:
253,280,197970,1,4,0:0:0:0:
256,192,198066,12,0,199518,3:0:0:0:
147,219,199711,6,0,P|104:233|78:184,1,90,6|8,0:0|0:1,0:0:0:0:
246,269,200099,2,0,L|344:277,1,90,0|8,1:0|0:1,0:0:0:0:
335,276,200389,1,8,0:1:0:0:
335,276,200486,1,2,0:0:0:0:
467,328,200679,2,0,P|489:349|478:306,1,90,8|0,0:1|1:0,0:0:0:0:
420,168,201066,2,0,B|423:149|423:149|440:189|426:240,1,90,8|2,0:1|0:0,0:0:0:0:
356,128,201453,1,8,0:1:0:0:
406,7,201647,2,0,B|408:-7|408:-7|428:37|406:93,1,90,0|8,1:0|0:1,0:0:0:0:
410,71,201937,1,8,0:1:0:0:
406,75,202034,1,2,0:0:0:0:
255,101,202228,2,0,L|255:4,1,90,8|0,0:1|1:0,0:0:0:0:
87,43,202615,2,0,P|27:42|26:1,1,90,8|2,0:1|0:0,0:0:0:0:
146,132,203002,5,8,0:1:0:0:
109,195,203195,2,0,B|120:216|120:216|108:321,1,90,0|8,1:0|0:1,0:0:0:0:
112,281,203486,1,8,0:1:0:0:
112,281,203582,1,2,0:0:0:0:
17,171,203776,2,0,B|-6:165|-6:165|66:141,1,90,8|0,0:1|1:0,0:0:0:0:
146,132,204163,1,8,0:1:0:0:
256,61,204357,5,2,0:0:0:0:
256,197,204550,1,8,0:1:0:0:
366,126,204744,1,0,1:0:0:0:
217,135,204937,1,8,0:1:0:0:
217,135,205034,1,8,0:1:0:0:
217,135,205131,1,2,0:0:0:0:
256,197,205324,2,0,B|261:178|261:178|274:217|257:260,1,90,8|0,0:1|1:0,0:0:0:0:
233,317,205711,1,8,0:1:0:0:
148,366,205905,6,0,L|53:382,1,90,2|8,0:0|0:1,0:0:0:0:
233,317,206292,2,0,L|321:302,1,90,0|8,1:0|0:1,0:0:0:0:
321,302,206582,1,8,0:1:0:0:
321,302,206679,1,2,0:0:0:0:
466,240,206873,2,0,B|507:224|507:224|454:201,1,90,8|0,0:1|1:0,0:0:0:0:
312,114,207260,2,0,L|195:100,1,90,8|2,0:1|0:0,0:0:0:0:
392,69,207647,1,8,0:1:0:0:
377,164,207840,2,0,P|386:200|365:266,1,90,0|8,1:0|0:1,0:0:0:0:
369,253,208131,1,8,0:1:0:0:
363,255,208228,1,2,0:0:0:0:
222,103,208421,2,0,B|227:86|227:86|250:130|217:180,1,90,8|0,0:1|1:0,0:0:0:0:
4,103,208808,2,0,L|4:1,1,90,8|2,0:1|0:0,0:0:0:0:
122,60,209195,5,8,0:1:0:0:
68,199,209389,2,0,B|80:214|80:214|103:290,1,90,0|8,1:0|0:1,0:0:0:0:
100,281,209679,1,8,0:1:0:0:
100,281,209776,1,2,0:0:0:0:
225,229,209970,2,0,B|246:214|246:214|173:210,1,90,8|0,0:1|1:0,0:0:0:0:
68,199,210357,1,8,0:1:0:0:
115,367,210550,5,2,0:0:0:0:
321,217,210744,1,8,0:1:0:0:
225,229,210937,1,0,1:0:0:0:
287,300,211131,1,2,0:0:0:0:
287,300,211228,1,2,0:0:0:0:
287,300,211324,2,0,L|344:305,1,45,2|0,0:0|3:0,0:0:0:0:
403,274,211518,2,0,L|460:279,1,45,2|0,0:0|3:0,0:0:0:0:
512,243,211711,1,2,0:0:0:0:
392,141,211905,1,0,1:0:0:0:
287,63,212099,6,0,L|181:40,1,107.999996704102,6|4,0:0|1:3,0:0:0:0:
0,93,212486,1,8,0:0:0:0:
68,124,212679,1,4,1:3:0:0:
77,110,212776,1,0,1:0:0:0:
78,93,212873,1,2,0:0:0:0:
124,194,213066,2,0,L|93:351,1,107.999996704102,4|8,1:3|0:0,0:0:0:0:
202,180,213453,1,4,1:3:0:0:
297,149,213647,6,0,B|375:136|375:136|346:115,1,107.999996704102,2|4,0:0|1:3,0:0:0:0:
275,253,214034,1,8,0:0:0:0:
230,318,214228,1,4,1:3:0:0:
217,307,214324,1,0,1:0:0:0:
211,291,214421,1,2,0:0:0:0:
435,286,214615,2,0,L|448:176,1,107.999996704102,4|8,1:3|0:0,0:0:0:0:
512,339,215002,1,4,1:3:0:0:
360,308,215195,6,0,B|290:339|290:339|326:358,1,107.999996704102,2|4,0:0|1:3,0:0:0:0:
447,178,215582,1,8,0:0:0:0:
511,124,215776,1,4,1:3:0:0:
496,117,215873,1,0,1:0:0:0:
479,115,215970,1,2,0:0:0:0:
373,50,216163,2,0,L|247:78,1,107.999996704102,4|8,1:3|0:0,0:0:0:0:
126,6,216550,1,4,1:3:0:0:
141,151,216744,5,2,0:0:0:0:
180,88,216937,1,4,1:3:0:0:
266,249,217131,1,8,0:0:0:0:
78,236,217324,1,4,1:3:0:0:
70,221,217421,1,0,1:0:0:0:
73,205,217518,1,2,0:0:0:0:
157,232,217711,2,0,L|170:288,1,53.9999983520508,4|0,1:3|3:0,0:0:0:0:
54,129,217905,2,0,L|-16:129,1,53.9999983520508,8|0,0:0|3:0,0:0:0:0:
141,151,218099,1,4,1:3:0:0:
248,52,218292,5,6,0:0:0:0:
312,89,218486,1,8,0:1:0:0:
386,90,218679,2,0,L|492:123,1,107.999996704102,2|8,0:3|0:1,0:0:0:0:
489,122,218970,1,8,0:1:0:0:
489,122,219066,1,0,0:0:0:0:
253,283,219260,2,0,P|208:297|184:233,1,107.999996704102,8|2,0:1|0:3,0:0:0:0:
385,252,219647,1,8,0:1:0:0:
455,275,219840,6,0,B|470:269|470:269|470:375,1,107.999996704102,2|8,0:0|0:1,0:0:0:0:
385,252,220228,1,2,0:3:0:0:
320,188,220421,1,8,0:1:0:0:
303,190,220518,1,8,0:1:0:0:
287,184,220615,1,0,0:0:0:0:
354,123,220808,1,8,0:1:0:0:
212,142,221002,2,0,L|75:172,1,107.999996704102,2|8,0:3|0:1,0:0:0:0:
0,45,221389,5,2,0:0:0:0:
136,86,221582,1,0,1:0:0:0:
139,271,221776,1,2,0:3:0:0:
3,230,221970,1,0,1:0:0:0:
3,230,222066,1,0,1:0:0:0:
3,230,222163,1,2,0:0:0:0:
106,165,222357,1,0,1:0:0:0:
212,142,222550,2,0,B|320:121|320:121|270:100,1,161.999995056153,2|2,0:3|0:0,0:0:0:0:
248,83,222937,6,0,L|153:61,1,53.9999983520508,2|0,0:0|3:0,0:0:0:0:
384,51,223131,2,0,L|429:5,1,53.9999983520508,2|0,0:0|3:0,0:0:0:0:
350,189,223324,2,0,L|354:257,1,53.9999983520508,2|0,0:0|3:0,0:0:0:0:
361,120,223518,1,2,0:0:0:0:
361,120,223615,1,2,0:0:0:0:
361,120,223711,2,0,L|431:138,1,53.9999983520508,2|0,0:3|3:0,0:0:0:0:
379,259,223905,6,0,B|434:276|434:276|475:311|526:308,1,144,2|0,0:0|0:0,0:0:0:0:
487,212,224486,5,6,0:1:0:0:
266,209,224679,1,4,1:3:0:0:
346,341,224873,1,8,0:0:0:0:
277,298,225066,1,4,1:3:0:0:
277,298,225163,1,0,1:0:0:0:
277,298,225260,1,2,0:1:0:0:
196,322,225453,2,0,L|83:354,1,107.999996704102,4|8,1:3|0:0,0:0:0:0:
266,209,225840,1,4,1:3:0:0:
334,120,226034,6,0,B|400:90|400:90|346:66,1,107.999996704102,2|4,0:1|1:3,0:0:0:0:
512,86,226421,1,8,0:0:0:0:
413,13,226615,1,4,1:3:0:0:
413,13,226711,1,2,1:0:0:0:
413,13,226808,1,2,0:1:0:0:
286,50,227002,2,0,L|168:35,1,107.999996704102,4|8,1:3|0:0,0:0:0:0:
286,50,227389,1,4,1:3:0:0:
334,120,227582,6,0,B|343:99|343:99|350:156|323:222,1,107.999996704102,2|4,0:1|1:3,0:0:0:0:
133,187,227970,1,8,0:0:0:0:
183,279,228163,1,4,1:3:0:0:
183,279,228260,1,0,1:0:0:0:
183,279,228357,1,2,0:1:0:0:
87,315,228550,2,0,B|96:294|96:294|103:351|76:417,1,107.999996704102,4|8,1:3|0:0,0:0:0:0:
10,348,228937,1,4,1:3:0:0:
61,235,229131,5,2,0:1:0:0:
87,315,229324,1,8,1:3:0:0:
0,139,229518,1,8,0:0:0:0:
212,175,229711,1,8,1:3:0:0:
212,175,229808,1,2,1:0:0:0:
212,175,229905,1,2,0:1:0:0:
106,97,230099,2,0,B|86:87|86:87|53:40|53:40|98:62,1,107.999996704102,2|8,1:2|0:0,0:0:0:0:
285,156,230486,1,2,1:2:0:0:
389,157,230679,6,0,L|512:136,1,107.999996704102,6|4,0:0|1:3,0:0:0:0:
512,60,231066,1,8,0:0:0:0:
485,237,231260,1,4,1:3:0:0:
485,237,231357,1,0,1:0:0:0:
485,237,231453,1,2,0:1:0:0:
419,279,231647,2,0,B|410:301|410:301|396:386,1,107.999996704102,4|8,1:3|0:0,0:0:0:0:
290,271,232034,1,4,1:3:0:0:
206,271,232228,6,0,P|180:293|145:238,1,107.999996704102,2|4,0:1|1:3,0:0:0:0:
348,222,232615,1,8,0:0:0:0:
290,271,232808,1,4,1:3:0:0:
290,271,232905,1,2,1:0:0:0:
290,271,233002,1,2,0:1:0:0:
373,141,233195,2,0,L|399:15,1,107.999996704102,4|8,1:3|0:0,0:0:0:0:
180,23,233582,1,4,1:3:0:0:
90,53,233776,6,0,P|51:68|24:16,1,107.999996704102,2|8,0:1|1:3,0:0:0:0:
157,107,234163,1,8,0:0:0:0:
109,169,234357,1,8,1:3:0:0:
109,169,234453,1,0,1:0:0:0:
109,169,234550,1,2,0:1:0:0:
71,279,234744,2,0,L|37:412,1,107.999996704102,8|8,1:3|0:0,0:0:0:0:
207,245,235131,1,8,1:3:0:0:
296,152,235324,5,2,0:1:0:0:
137,234,235518,1,12,1:3:0:0:
288,344,235711,1,8,0:0:0:0:
283,271,235905,1,12,1:3:0:0:
299,272,236002,1,2,1:0:0:0:
315,273,236099,2,0,B|335:264|335:264|311:239,1,53.9999983520508,2|0,0:1|3:0,0:0:0:0:
219,312,236292,2,0,L|154:328,1,53.9999983520508,2|0,1:0|3:0,0:0:0:0:
288,344,236486,1,2,1:0:0:0:
455,299,236679,1,8,0:0:0:0:
481,293,236776,1,8,0:0:0:0:
507,287,236873,6,0,L|387:252,1,107.999996704102,6|8,0:0|0:0,0:0:0:0:
246,126,237260,1,2,1:3:0:0:
369,88,237453,1,8,0:0:0:0:
342,82,237550,1,10,0:0:0:0:
315,76,237647,2,0,L|386:60,1,53.9999983520508,2|0,0:0|3:0,0:0:0:0:
183,59,237840,2,0,L|254:43,1,53.9999983520508,10|0,0:0|3:0,0:0:0:0:
93,37,238034,1,2,1:3:0:0:
246,126,238228,1,10,0:0:0:0:
234,215,238421,6,0,B|234:192|234:192|253:239|230:304,1,107.999996704102,2|8,0:0|0:0,0:0:0:0:
330,227,238808,1,2,1:3:0:0:
130,227,239002,1,8,0:0:0:0:
103,222,239099,1,10,0:0:0:0:
76,218,239195,2,0,L|1:205,1,53.9999983520508,2|0,0:0|3:0,0:0:0:0:
168,309,239389,2,0,L|93:296,1,53.9999983520508,10|0,0:0|3:0,0:0:0:0:
235,367,239582,1,2,1:3:0:0:
344,309,239776,1,10,0:0:0:0:
428,294,239970,6,0,B|464:322|508:311|508:311|487:274,1,107.999996704102,2|8,0:0|0:0,0:0:0:0:
344,309,240357,1,2,1:3:0:0:
461,185,240550,1,8,0:0:0:0:
436,197,240647,1,10,0:0:0:0:
412,210,240744,2,0,L|498:227,1,53.9999983520508,2|0,0:0|3:0,0:0:0:0:
331,123,240937,2,0,L|417:140,1,53.9999983520508,10|0,0:0|3:0,0:0:0:0:
261,68,241131,1,2,1:3:0:0:
469,37,241324,1,10,0:0:0:0:
344,199,241518,6,0,L|333:317,1,107.999996704102,2|8,0:0|0:0,0:0:0:0:
139,200,241905,1,2,1:3:0:0:
204,255,242099,1,8,0:0:0:0:
204,255,242195,1,10,0:0:0:0:
204,255,242292,2,0,L|207:316,1,53.9999983520508,2|0,0:0|3:0,0:0:0:0:
139,200,242486,2,0,L|61:200,1,53.9999983520508,10|0,0:0|3:0,0:0:0:0:
191,137,242679,2,0,B|207:117|207:117|162:131,1,53.9999983520508,2|0,1:2|3:0,0:0:0:0:
259,57,242873,2,0,L|259:-8,1,53.9999983520508,10|0,0:0|3:0,0:0:0:0:
259,57,243066,5,6,0:0:0:0:
372,32,243260,1,8,0:1:0:0:
140,32,243453,1,2,0:3:0:0:
257,193,243647,1,8,0:1:0:0:
257,193,243744,1,8,0:1:0:0:
257,193,243840,1,0,0:0:0:0:
335,192,244034,2,0,B|353:188|353:188|348:293,1,107.999996704102,8|2,0:1|0:3,0:0:0:0:
434,173,244421,2,0,B|487:159|487:159|429:142,1,107.999996704102,8|2,0:1|0:0,0:0:0:0:
335,192,244808,5,8,0:1:0:0:
164,214,245002,1,2,0:3:0:0:
77,188,245195,1,8,0:1:0:0:
77,188,245292,1,8,0:1:0:0:
77,188,245389,1,0,0:0:0:0:
115,287,245582,2,0,B|115:263|115:263|136:312|110:375,1,107.999996704102,8|2,0:1|0:3,0:0:0:0:
164,214,245970,1,8,0:1:0:0:
0,157,246163,5,2,0:1:0:0:
248,147,246357,1,8,0:1:0:0:
192,279,246550,1,2,0:3:0:0:
320,102,246744,1,8,0:1:0:0:
141,70,246937,1,2,0:1:0:0:
316,182,247131,1,8,0:1:0:0:
445,23,247324,1,2,0:3:0:0:
385,64,247518,1,2,0:0:0:0:
385,64,247615,1,2,0:0:0:0:
385,64,247711,2,0,L|398:135,1,53.9999983520508,2|0,0:0|3:0,0:0:0:0:
510,193,247905,2,0,L|430:193,1,53.9999983520508,2|0,0:0|3:0,0:0:0:0:
353,248,248099,2,0,P|368:259|369:230,1,53.9999983520508,2|0,0:0|3:0,0:0:0:0:
299,327,248292,2,0,L|312:398,1,53.9999983520508,2|0,0:0|3:0,0:0:0:0:
225,271,248486,1,2,0:3:0:0:
138,262,248679,6,0,L|18:246,1,107.999996704102,2|0,0:0|0:0,0:0:0:0:
225,271,249260,1,4,0:0:0:0:
256,192,249357,12,0,257002,3:0:0:0:
