osu file format v14

[General]
AudioFilename: audio.mp3
AudioLeadIn: 0
PreviewTime: 297836
Countdown: 0
SampleSet: Soft
StackLeniency: 0.7
Mode: 1
LetterboxInBreaks: 0
WidescreenStoryboard: 1

[Editor]
Bookmarks: 32745,45836,54563,72018,80745,89472,98200,106927
DistanceSpacing: 0.5
BeatDivisor: 4
GridSize: 32
TimelineZoom: 2.5

[Metadata]
Title:Setsugen tirunangu (Off vocal)
TitleUnicode:雪幻ティルナノーグ (オフボーカル)
Artist:Yonder Voice
ArtistUnicode:Yonder Voice
Creator:Bedwyr Aorta
Version:Snow
Source:東方Vocal
Tags:touhou off vocal c89 himmel orchestral oriental
BeatmapID:1589577
BeatmapSetID:755123

[Difficulty]
HPDrainRate:6
CircleSize:3
OverallDifficulty:5
ApproachRate:5
SliderMultiplier:1.4
SliderTickRate:1

[Events]
//Background and Video events
0,0,"54303872_p0.png",0,0
//Break Periods
//Storyboard Layer 0 (Background)
//Storyboard Layer 1 (Fail)
//Storyboard Layer 2 (Pass)
//Storyboard Layer 3 (Foreground)
//Storyboard Sound Samples

[TimingPoints]
2200,363.636363636364,4,2,0,60,1,8
2200,-100,4,2,0,60,0,8
45836,-98.0392156862745,4,2,0,70,0,1
48018,-96.1538461538461,4,2,0,70,0,1
50200,-97.0873786407767,4,2,0,70,0,1
52381,-98.0392156862745,4,2,0,70,0,1
53472,-99.009900990099,4,2,0,70,0,1
54563,-100,4,2,0,60,0,0
72018,-99.009900990099,4,2,0,65,0,0
80745,-98.0392156862745,4,2,0,65,0,0
89472,-99.009900990099,4,2,0,60,0,0
106927,-100,4,2,0,55,0,0

[HitObjects]
256,192,2200,5,8,0:0:0:0:
256,192,3290,1,0,0:0:0:0:
256,192,4018,1,0,0:0:0:0:
256,192,4200,1,0,0:0:0:0:
256,192,4381,1,8,0:0:0:0:
256,192,5109,1,8,0:0:0:0:
256,192,5472,1,8,0:0:0:0:
256,192,5654,1,8,0:0:0:0:
256,192,5836,1,0,0:0:0:0:
256,192,6200,1,0,0:0:0:0:
256,192,6381,1,8,0:0:0:0:
256,192,6563,1,0,0:0:0:0:
256,192,7109,1,0,0:0:0:0:
256,192,7290,1,8,0:0:0:0:
256,192,7654,1,8,0:0:0:0:
256,192,7836,1,0,0:0:0:0:
256,192,8018,1,8,0:0:0:0:
256,192,8381,1,8,0:0:0:0:
256,192,8563,1,0,0:0:0:0:
256,192,8745,1,8,0:0:0:0:
256,192,9290,1,8,0:0:0:0:
256,192,9472,1,0,0:0:0:0:
256,192,9836,5,8,0:0:0:0:
256,192,10018,1,8,0:0:0:0:
256,192,10200,1,8,0:0:0:0:
256,192,10563,1,0,0:0:0:0:
256,192,10926,1,4,0:0:0:0:
256,192,11290,1,0,0:0:0:0:
256,192,11472,1,0,0:0:0:0:
256,192,11654,1,8,0:0:0:0:
256,192,12018,1,0,0:0:0:0:
256,192,12745,1,0,0:0:0:0:
256,192,12927,1,0,0:0:0:0:
256,192,13109,1,8,0:0:0:0:
256,192,13836,1,8,0:0:0:0:
256,192,14200,1,8,0:0:0:0:
256,192,14381,1,8,0:0:0:0:
256,192,14563,1,0,0:0:0:0:
256,192,14927,1,0,0:0:0:0:
256,192,15109,1,8,0:0:0:0:
256,192,15290,1,0,0:0:0:0:
256,192,15654,1,0,0:0:0:0:
256,192,16018,1,0,0:0:0:0:
256,192,16381,1,8,0:0:0:0:
256,192,16563,1,0,0:0:0:0:
256,192,16745,1,8,0:0:0:0:
256,192,17109,1,8,0:0:0:0:
256,192,17290,1,0,0:0:0:0:
256,192,17472,1,8,0:0:0:0:
256,192,18018,1,0,0:0:0:0:
256,192,18200,1,8,0:0:0:0:
256,192,18563,1,8,0:0:0:0:
256,192,18927,1,0,0:0:0:0:
256,192,19109,1,0,0:0:0:0:
256,192,19290,1,8,0:0:0:0:
256,192,19654,1,4,0:0:0:0:
256,192,20200,1,0,0:0:0:0:
256,192,20563,1,8,0:0:0:0:
256,192,20745,1,0,0:0:0:0:
256,192,21472,1,0,0:0:0:0:
256,192,21654,1,0,0:0:0:0:
256,192,21836,1,8,0:0:0:0:
256,192,22563,1,8,0:0:0:0:
256,192,22927,1,8,0:0:0:0:
256,192,23109,1,8,0:0:0:0:
256,192,23290,1,0,0:0:0:0:
256,192,23654,1,0,0:0:0:0:
256,192,23836,1,8,0:0:0:0:
256,192,24018,1,8,0:0:0:0:
256,192,24381,1,0,0:0:0:0:
256,192,24563,1,0,0:0:0:0:
256,192,24745,1,0,0:0:0:0:
256,192,25109,1,8,0:0:0:0:
256,192,25472,1,8,0:0:0:0:
256,192,25836,1,0,0:0:0:0:
256,192,26200,1,0,0:0:0:0:
256,192,26563,1,0,0:0:0:0:
256,192,26745,1,0,0:0:0:0:
256,192,26927,1,0,0:0:0:0:
256,192,27290,1,8,0:0:0:0:
256,192,27654,1,0,0:0:0:0:
256,192,27836,1,0,0:0:0:0:
256,192,28018,1,8,0:0:0:0:
256,192,28381,1,4,0:0:0:0:
256,192,28745,1,0,0:0:0:0:
256,192,29109,1,0,0:0:0:0:
256,192,29472,1,0,0:0:0:0:
256,192,29836,1,0,0:0:0:0:
256,192,30200,1,0,0:0:0:0:
256,192,30381,1,0,0:0:0:0:
256,192,30563,1,8,0:0:0:0:
256,192,30927,1,0,0:0:0:0:
256,192,31290,1,8,0:0:0:0:
256,192,31654,1,8,0:0:0:0:
256,192,32018,1,8,0:0:0:0:
256,192,32381,1,8,0:0:0:0:
256,192,32745,1,12,0:0:0:0:
256,192,32927,1,0,0:0:0:0:
256,192,33109,1,0,0:0:0:0:
256,192,33290,1,8,0:0:0:0:
256,192,33472,1,8,0:0:0:0:
256,192,33836,1,0,0:0:0:0:
256,192,34018,1,0,0:0:0:0:
256,192,34200,1,8,0:0:0:0:
256,192,34381,1,8,0:1:0:0:
256,192,34563,1,0,0:0:0:0:
256,192,34927,1,0,0:0:0:0:
256,192,35018,1,0,0:0:0:0:
256,192,35109,1,0,0:0:0:0:
256,192,35200,1,0,0:0:0:0:
256,192,35290,1,8,0:0:0:0:
256,192,35381,1,8,0:0:0:0:
256,192,35472,1,8,0:0:0:0:
256,192,35563,1,8,0:0:0:0:
256,192,35654,1,0,0:0:0:0:
256,192,35745,1,0,0:0:0:0:
256,192,35836,1,0,0:0:0:0:
256,192,35927,1,0,0:0:0:0:
256,192,36018,12,0,36927,0:0:0:0:
256,192,37109,5,8,0:0:0:0:
256,192,37472,1,0,0:0:0:0:
256,192,37836,1,0,0:0:0:0:
256,192,38200,1,8,0:0:0:0:
256,192,38927,1,8,0:0:0:0:
256,192,39290,1,8,0:0:0:0:
256,192,40018,1,0,0:0:0:0:
256,192,40381,1,8,0:0:0:0:
256,192,41109,1,0,0:0:0:0:
256,192,41472,1,8,0:0:0:0:
256,192,42200,1,8,0:0:0:0:
256,192,42563,1,8,0:0:0:0:
256,192,43654,1,8,0:0:0:0:
256,192,44381,1,0,0:0:0:0:
256,192,44745,1,8,0:0:0:0:
256,192,45109,1,0,0:0:0:0:
256,192,45472,1,0,0:0:0:0:
256,192,45836,1,4,0:0:0:0:
256,192,46018,1,8,0:0:0:0:
256,192,46200,1,8,0:0:0:0:
256,192,46381,1,0,0:0:0:0:
256,192,46472,1,0,0:0:0:0:
256,192,46563,1,8,0:0:0:0:
256,192,46745,1,0,0:0:0:0:
256,192,46927,1,0,0:0:0:0:
256,192,47109,1,8,0:0:0:0:
256,192,47290,1,0,0:0:0:0:
256,192,47472,1,8,0:0:0:0:
256,192,47563,1,8,0:0:0:0:
256,192,47654,1,0,0:0:0:0:
256,192,47836,1,0,0:0:0:0:
256,192,48018,1,12,0:0:0:0:
256,192,48200,1,0,0:0:0:0:
256,192,48381,1,8,0:0:0:0:
256,192,48563,1,0,0:0:0:0:
256,192,48654,1,0,0:0:0:0:
256,192,48745,1,8,0:0:0:0:
256,192,48927,1,0,0:0:0:0:
256,192,49109,1,8,0:0:0:0:
256,192,49290,1,8,0:0:0:0:
256,192,49472,1,0,0:0:0:0:
256,192,49654,1,0,0:0:0:0:
256,192,49836,1,0,0:0:0:0:
256,192,50200,1,12,0:0:0:0:
256,192,50381,1,0,0:0:0:0:
256,192,50563,1,0,0:0:0:0:
256,192,50745,1,0,0:0:0:0:
256,192,50836,1,0,0:0:0:0:
256,192,50927,1,8,0:0:0:0:
256,192,51109,1,8,0:0:0:0:
256,192,51290,1,0,0:0:0:0:
256,192,51472,1,8,0:0:0:0:
256,192,51563,1,8,0:0:0:0:
256,192,51654,1,8,0:0:0:0:
256,192,51836,1,0,0:0:0:0:
256,192,52018,1,8,0:0:0:0:
256,192,52109,1,8,0:0:0:0:
256,192,52200,1,0,0:0:0:0:
256,192,52290,1,0,0:0:0:0:
256,192,52381,1,8,0:0:0:0:
256,192,52563,1,0,0:0:0:0:
256,192,52745,1,8,0:0:0:0:
256,192,52927,1,8,0:0:0:0:
256,192,53018,1,8,0:0:0:0:
256,192,53109,1,0,0:0:0:0:
256,192,53290,1,0,0:0:0:0:
256,192,53472,1,8,0:0:0:0:
256,192,53836,1,8,0:0:0:0:
256,192,54200,5,0,0:0:0:0:
256,192,54563,1,8,0:0:0:0:
256,192,55109,1,0,0:0:0:0:
256,192,55290,1,0,0:0:0:0:
256,192,55654,1,8,0:0:0:0:
256,192,56200,1,8,0:0:0:0:
256,192,56381,1,8,0:0:0:0:
256,192,56745,1,0,0:0:0:0:
256,192,57109,1,0,0:0:0:0:
256,192,57472,1,8,0:0:0:0:
256,192,57836,1,0,0:0:0:0:
256,192,58200,1,0,0:0:0:0:
256,192,58381,1,8,0:0:0:0:
256,192,58563,1,8,0:0:0:0:
256,192,58927,1,8,0:0:0:0:
256,192,59290,1,0,0:0:0:0:
256,192,59654,1,8,0:0:0:0:
256,192,60018,1,0,0:0:0:0:
256,192,60381,1,8,0:0:0:0:
256,192,60563,1,8,0:0:0:0:
256,192,60745,1,8,0:0:0:0:
256,192,61109,1,0,0:0:0:0:
256,192,62200,1,8,0:0:0:0:
256,192,62563,1,0,0:0:0:0:
256,192,62745,1,0,0:0:0:0:
256,192,62927,1,8,0:0:0:0:
256,192,63290,1,0,0:0:0:0:
256,192,63836,1,8,0:0:0:0:
256,192,64018,1,0,0:0:0:0:
256,192,64381,1,0,0:0:0:0:
256,192,64927,1,8,0:0:0:0:
256,192,65109,1,8,0:0:0:0:
256,192,65472,1,8,0:0:0:0:
256,192,65836,1,0,0:0:0:0:
256,192,66018,1,0,0:0:0:0:
256,192,66200,1,8,0:0:0:0:
256,192,66381,1,0,0:0:0:0:
256,192,66563,1,8,0:0:0:0:
256,192,66927,1,0,0:0:0:0:
256,192,67018,1,8,0:0:0:0:
256,192,67109,1,0,0:0:0:0:
256,192,67290,1,0,0:0:0:0:
256,192,67654,1,0,0:0:0:0:
256,192,68018,1,8,0:0:0:0:
256,192,68200,1,8,0:0:0:0:
256,192,68381,1,0,0:0:0:0:
256,192,68745,1,0,0:0:0:0:
256,192,69109,1,8,0:0:0:0:
256,192,69290,1,8,0:0:0:0:
256,192,69472,1,0,0:0:0:0:
256,192,69836,1,0,0:0:0:0:
256,192,70563,1,8,0:0:0:0:
256,192,70745,1,0,0:0:0:0:
256,192,70927,1,0,0:0:0:0:
256,192,71109,1,8,0:0:0:0:
256,192,71290,1,8,0:0:0:0:
256,192,71654,1,8,0:0:0:0:
256,192,72018,1,4,0:0:0:0:
256,192,72381,1,0,0:0:0:0:
256,192,72745,5,8,0:0:0:0:
256,192,72927,1,0,0:0:0:0:
256,192,73109,1,8,0:0:0:0:
256,192,73472,1,0,0:0:0:0:
256,192,73836,1,0,0:0:0:0:
256,192,74200,1,8,0:0:0:0:
256,192,74381,1,8,0:0:0:0:
256,192,74563,1,0,0:0:0:0:
256,192,74927,1,8,0:0:0:0:
256,192,75290,1,0,0:0:0:0:
256,192,75654,1,0,0:0:0:0:
256,192,75836,1,8,0:0:0:0:
256,192,76018,1,0,0:0:0:0:
256,192,76381,1,0,0:0:0:0:
256,192,76563,1,0,0:0:0:0:
256,192,76745,1,8,0:0:0:0:
256,192,76927,1,0,0:0:0:0:
256,192,77109,1,8,0:0:0:0:
256,192,77290,1,8,0:0:0:0:
256,192,77472,1,0,0:0:0:0:
256,192,77836,1,0,0:0:0:0:
256,192,78018,1,8,0:0:0:0:
256,192,78200,1,0,0:0:0:0:
256,192,78563,1,8,0:0:0:0:
256,192,78927,1,0,0:0:0:0:
256,192,79290,1,0,0:0:0:0:
256,192,79472,1,0,0:0:0:0:
256,192,79654,1,8,0:0:0:0:
256,192,80018,1,0,0:0:0:0:
256,192,80381,1,8,0:0:0:0:
256,192,80745,1,12,0:0:0:0:
256,192,81109,1,0,0:0:0:0:
256,192,81472,1,8,0:0:0:0:
256,192,81654,1,0,0:0:0:0:
256,192,81836,1,8,0:0:0:0:
256,192,82200,1,8,0:0:0:0:
256,192,82563,1,0,0:0:0:0:
256,192,82927,1,8,0:0:0:0:
256,192,83109,1,8,0:0:0:0:
256,192,83290,1,0,0:0:0:0:
256,192,83472,1,0,0:0:0:0:
256,192,83654,1,8,0:0:0:0:
256,192,84018,1,8,0:0:0:0:
256,192,84200,1,0,0:0:0:0:
256,192,84381,1,0,0:0:0:0:
256,192,84745,1,0,0:0:0:0:
256,192,85109,1,0,0:0:0:0:
256,192,85290,1,0,0:0:0:0:
256,192,85472,1,8,0:0:0:0:
256,192,85654,1,0,0:0:0:0:
256,192,85836,1,8,0:0:0:0:
256,192,86018,1,0,0:0:0:0:
256,192,86200,1,0,0:0:0:0:
256,192,86563,1,8,0:0:0:0:
256,192,86745,1,0,0:0:0:0:
256,192,86927,1,8,0:0:0:0:
256,192,87109,1,8,0:0:0:0:
256,192,87290,1,8,0:0:0:0:
256,192,87654,1,0,0:0:0:0:
256,192,88018,1,0,0:0:0:0:
256,192,88200,1,0,0:0:0:0:
256,192,88381,1,8,0:0:0:0:
256,192,88745,1,0,0:0:0:0:
256,192,88927,1,0,0:0:0:0:
256,192,89109,1,0,0:0:0:0:
256,192,89472,1,12,0:0:0:0:
256,192,90018,1,8,0:0:0:0:
256,192,90200,1,8,0:0:0:0:
256,192,90563,1,0,0:0:0:0:
256,192,90927,1,0,0:0:0:0:
256,192,91109,1,8,0:0:0:0:
256,192,91290,1,8,0:0:0:0:
256,192,91654,1,0,0:0:0:0:
256,192,92200,1,8,0:0:0:0:
256,192,92381,1,8,0:0:0:0:
256,192,92745,1,0,0:0:0:0:
256,192,93109,1,0,0:0:0:0:
256,192,93290,1,8,0:0:0:0:
256,192,93472,1,8,0:0:0:0:
256,192,93654,1,8,0:0:0:0:
256,192,93836,1,0,0:0:0:0:
256,192,94200,1,0,0:0:0:0:
256,192,94381,1,0,0:0:0:0:
256,192,94563,1,8,0:0:0:0:
256,192,94927,1,0,0:0:0:0:
256,192,95290,1,0,0:0:0:0:
256,192,95472,1,8,0:0:0:0:
256,192,95654,1,8,0:0:0:0:
256,192,95836,1,0,0:0:0:0:
256,192,95927,1,0,0:0:0:0:
256,192,96018,1,8,0:0:0:0:
256,192,96563,1,8,0:0:0:0:
256,192,96745,1,8,0:0:0:0:
256,192,97109,1,8,0:0:0:0:
256,192,97290,1,0,0:0:0:0:
256,192,97472,1,0,0:0:0:0:
256,192,97654,1,0,0:0:0:0:
256,192,97836,1,0,0:0:0:0:
256,192,98018,1,0,0:0:0:0:
256,192,98200,1,12,0:0:0:0:
256,192,98745,1,0,0:0:0:0:
256,192,98927,1,8,0:0:0:0:
256,192,99290,1,8,0:0:0:0:
256,192,99654,1,8,0:0:0:0:
256,192,99836,1,0,0:0:0:0:
256,192,100018,1,0,0:0:0:0:
256,192,100381,1,8,0:0:0:0:
256,192,100927,1,8,0:0:0:0:
256,192,101109,1,0,0:0:0:0:
256,192,101472,1,0,0:0:0:0:
256,192,101836,1,0,0:0:0:0:
256,192,102018,1,8,0:0:0:0:
256,192,102200,1,8,0:0:0:0:
256,192,102381,1,0,0:0:0:0:
256,192,102563,1,8,0:0:0:0:
256,192,103109,1,0,0:0:0:0:
256,192,103290,1,8,0:0:0:0:
256,192,103654,1,0,0:0:0:0:
256,192,104018,1,0,0:0:0:0:
256,192,104200,1,0,0:0:0:0:
256,192,104381,1,8,0:0:0:0:
256,192,104563,1,0,0:0:0:0:
256,192,104654,1,0,0:0:0:0:
256,192,104745,1,8,0:0:0:0:
256,192,105290,1,8,0:0:0:0:
256,192,105472,1,8,0:0:0:0:
256,192,105836,1,0,0:0:0:0:
256,192,106018,1,0,0:0:0:0:
256,192,106200,1,8,0:0:0:0:
256,192,106381,1,8,0:0:0:0:
256,192,106472,1,8,0:0:0:0:
256,192,106563,1,0,0:0:0:0:
256,192,106927,1,12,0:0:0:0:
