osu file format v14

[General]
AudioFilename: Himmel - (Off vocal).mp3
AudioLeadIn: 0
PreviewTime: 72163
Countdown: 0
SampleSet: Soft
StackLeniency: 0.7
Mode: 0
LetterboxInBreaks: 1
WidescreenStoryboard: 1

[Editor]
Bookmarks: 11072,19799,28526,37254,45981,54708,72163,89617,107072,124526,176890,194345,246708,264163,316526
DistanceSpacing: 2.3
BeatDivisor: 8
GridSize: 4
TimelineZoom: 1.3

[Metadata]
Title:Setsugen Tir na nOg off vocal
TitleUnicode:雪幻ティルナノーグ off vocal
Artist:Yonder Voice
ArtistUnicode:Yonder Voice
Creator:Akareh
Version:Niamh
Source:東方紅魔郷 ~ the Embodiment of Scarlet Devil.
Tags:LEMiao Himmel tengoku おてんば恋娘 Beloved Tomboyish Girl Tír nÓg Touhou Project 東方Project ZUN comiket 89 c89 ethnic celtic world
BeatmapID:1012384
BeatmapSetID:473862

[Difficulty]
HPDrainRate:6.5
CircleSize:4
OverallDifficulty:7.5
ApproachRate:9
SliderMultiplier:1.5
SliderTickRate:1

[Events]
//Background and Video events
0,0,"BG.jpg",0,0
//Break Periods
2,142181,150108
//Storyboard Layer 0 (Background)
//Storyboard Layer 1 (Fail)
//Storyboard Layer 2 (Pass)
//Storyboard Layer 3 (Foreground)
//Storyboard Sound Samples

[TimingPoints]
2345,363.636363636364,3,2,1,20,1,0
2345,-133.333333333333,3,2,1,20,0,0
28526,-133.333333333333,3,2,1,25,0,0
31981,-133.333333333333,3,2,1,10,0,0
32163,-117.647058823529,3,2,1,30,0,0
32345,-117.647058823529,3,2,1,10,0,0
32526,-105.263157894737,3,2,1,30,0,0
32708,-105.263157894737,3,2,1,10,0,0
32890,-90.9090909090909,3,2,1,20,0,0
35617,-90.9090909090909,3,2,1,15,0,0
36163,-90.9090909090909,3,2,1,10,0,0
37254,-133.333333333333,3,2,1,20,0,0
45981,-100,3,1,1,30,0,1
53617,-117.647058823529,3,1,1,40,0,0
53981,-133.333333333333,3,1,1,30,0,0
54345,-153.846153846153,3,1,1,20,0,0
54708,-181.818181818181,3,1,1,15,0,0
71072,-133.333333333333,3,1,1,30,0,0
72163,-100,3,1,1,40,0,1
80890,-100,3,1,1,60,0,1
80981,-100,3,1,1,40,0,1
89617,-133.333333333333,3,3,1,40,0,0
107072,-133.333333333333,3,3,1,30,0,0
123435,-133.333333333333,3,1,1,30,0,0
124163,-100,3,1,1,35,0,0
124526,-100,3,1,1,40,0,1
141981,-100,3,1,1,40,0,0
150708,-181.818181818181,3,2,1,20,0,0
158345,-133.333333333333,3,3,1,40,0,0
159435,-100,3,1,1,40,0,1
168163,-100,3,1,1,60,0,1
168345,-100,3,1,1,40,0,1
176890,-133.333333333333,3,3,1,40,0,0
194345,-133.333333333333,3,3,1,30,0,0
210708,-133.333333333333,3,1,1,30,0,0
211799,-100,3,1,1,40,0,1
229254,-133.333333333333,3,2,1,40,0,0
246708,-133.333333333333,3,2,1,45,0,0
280526,-100,3,3,1,40,0,0
281617,-133.333333333333,3,3,1,30,0,0
297981,-133.333333333333,3,1,1,40,0,0
298708,-100,3,1,1,40,0,0
299072,-100,3,1,1,40,0,1
316526,-200,3,2,1,20,0,0
322890,-200,3,2,1,10,0,0
322981,-200,3,2,1,5,0,0

[Colours]
Combo1 : 224,97,83
Combo2 : 74,100,166
Combo3 : 255,227,172
Combo4 : 92,48,63

[HitObjects]
184,192,2345,6,0,P|160:160|156:80,1,112.500004291535,2|0,0:0|0:0,0:0:0:0:
360,168,3435,2,0,P|364:207|328:278,1,112.500004291535,2|0,0:0|0:0,0:0:0:0:
196,304,4163,2,0,L|124:296,1,56.2500021457673,0|0,0:0|0:0,0:0:0:0:
298,225,4526,6,0,P|402:241|434:129,1,225.000008583069,2|0,0:0|0:0,0:0:0:0:
308,44,5617,2,0,L|232:36,1,56.2500021457673,2|0,0:0|0:0,0:0:0:0:
120,96,5981,2,0,P|176:96|224:152,1,112.500004291535,2|0,0:0|0:0,0:0:0:0:
204,216,6526,1,0,0:0:0:0:
56,152,6708,6,0,P|36:96|68:32,1,112.500004291535,4|0,0:0|0:0,0:0:0:0:
196,56,7254,1,0,0:0:0:0:
204,216,7435,2,0,P|196:264|180:288,1,56.2500021457673,8|0,0:0|0:0,0:0:0:0:
60,304,7799,1,2,3:0:0:0:
62,281,7890,1,2,3:0:0:0:
70,260,7981,1,6,3:0:0:0:
84,243,8072,1,10,3:0:0:0:
103,231,8163,1,4,3:0:0:0:
348,124,8526,1,2,3:0:0:0:
334,141,8617,1,2,3:0:0:0:
316,155,8708,1,6,3:0:0:0:
296,164,8799,1,10,3:0:0:0:
272,164,8890,6,0,P|324:212|328:268,1,112.500004291535,4|0,0:0|0:0,0:0:0:0:
272,328,9435,1,0,0:0:0:0:
192,276,9617,2,0,P|224:248|256:240,1,56.2500021457673,8|0,0:0|0:0,0:0:0:0:
152,356,9981,5,2,3:0:0:0:
132,344,10072,1,2,3:0:0:0:
116,328,10163,1,6,3:0:0:0:
104,308,10254,1,10,3:0:0:0:
96,288,10345,2,0,L|88:220,1,56.2500021457673,4|0,0:0|0:0,0:0:0:0:
196,64,10708,2,0,L|188:140,1,56.2500021457673,2|6,3:0|3:0,3:3:0:0:
200,140,10981,1,10,3:0:0:0:
200,140,11072,6,0,P|248:132|304:164,1,112.500004291535,4|0,0:0|0:0,0:0:0:0:
360,248,11617,1,4,0:0:0:0:
236,224,11799,1,2,0:0:0:0:
236,224,11981,1,4,0:0:0:0:
400,151,12163,2,0,P|399:197|350:252,1,112.500004291535,4|0,0:0|0:0,0:0:0:0:
280,304,12708,1,0,0:0:0:0:
251,146,12890,2,0,L|319:166,1,56.2500021457673,2|0,0:0|0:0,0:0:0:0:
168,200,13254,6,0,P|152:132|180:84,1,112.500004291535,8|0,0:0|0:0,0:0:0:0:
256,52,13799,1,0,0:0:0:0:
352,176,13981,2,0,L|336:240,1,56.2500021457673
272,312,14345,1,2,0:0:0:0:
260,156,14526,1,0,0:0:0:0:
420,240,14708,2,0,P|440:172|428:120,1,112.500004291535,2|0,0:0|0:0,0:0:0:0:
368,52,15254,1,0,0:0:0:0:
292,228,15435,6,0,L|172:212,1,112.500004291535,4|0,0:0|0:0,0:0:0:0:
104,160,15981,1,4,0:0:0:0:
196,292,16163,1,10,0:0:0:0:
284,136,16345,1,4,0:0:0:0:
412,260,16526,1,4,0:0:0:0:
389,260,16617,1,2,0:3:0:0:
367,266,16708,1,2,0:3:0:0:
348,277,16799,1,2,0:3:0:0:
332,293,16890,1,2,0:3:0:0:
112,317,17254,1,2,3:0:0:0:
135,317,17345,1,2,3:0:0:0:
157,311,17435,1,2,3:0:0:0:
176,300,17526,1,2,3:0:0:0:
192,284,17617,6,0,P|208:232|160:128,1,168.750006437302,2|0,0:0|0:0,0:0:0:0:
40,224,18345,2,0,L|116:224,1,56.2500021457673,8|0,0:0|0:0,0:0:0:0:
64,128,18708,2,0,L|-4:124,1,56.2500021457673,2|0,0:0|0:0,0:0:0:0:
84,320,19072,2,0,L|152:316,1,56.2500021457673,2|0,0:0|0:0,0:0:0:0:
140,316,19345,1,0,0:0:0:0:
140,316,19435,1,4,0:0:0:0:
232,360,19617,1,8,0:0:0:0:
440,276,19799,6,0,P|384:272|324:300,1,112.500004291535,4|0,0:0|0:0,0:0:0:0:
352,180,20345,2,0,P|376:136|352:64,1,112.500004291535,0|12,0:0|0:0,0:0:0:0:
184,128,20890,2,0,L|308:120,1,112.500004291535,4|0,0:0|0:0,0:0:0:0:
232,40,21435,1,0,0:0:0:0:
176,212,21617,2,0,L|192:272,1,56.2500021457673,2|0,0:0|0:0,0:0:0:0:
356,340,21981,6,0,P|360:292|284:196,1,168.750006437302,2|0,0:0|0:0,0:0:0:0:
200,148,22708,2,0,P|136:152|88:100,1,112.500004291535,2|0,0:0|0:0,0:0:0:0:
88,24,23254,1,0,0:0:0:0:
164,76,23435,2,0,L|132:196,1,112.500004291535,2|0,0:0|0:0,0:0:0:0:
104,264,23981,1,0,0:0:0:0:
296,96,24163,6,0,P|344:92|376:96,1,56.2500021457673,4|0,0:0|0:0,0:0:0:0:
448,144,24526,1,0,0:0:0:0:
336,232,24708,1,0,0:0:0:0:
224,132,24890,2,0,P|216:84|228:56,1,56.2500021457673,4|0,0:0|0:0,0:0:0:0:
336,232,25254,2,0,P|336:280|328:312,1,56.2500021457673,4|0,0:0|0:0,0:0:0:0:
228,348,25617,2,0,P|224:296|228:268,1,56.2500021457673
119,96,25981,6,0,P|91:96|64:99,1,56.2500021457673,0|2,0:0|0:0,0:0:0:0:
104,203,26345,2,0,P|136:208|208:160,1,112.500004291535,2|0,0:0|0:0,0:0:0:0:
304,88,26890,1,0,0:0:0:0:
392,184,27072,2,0,P|392:232|380:256,1,56.2500021457673,2|0,0:0|0:0,0:0:0:0:
268,332,27435,2,0,P|256:280|260:256,1,56.2500021457673,0|2,0:0|0:0,0:0:0:0:
468,272,27799,2,0,L|420:332,1,56.2500021457673,4|8,0:0|0:0,0:0:0:0:
240,176,28163,2,0,L|304:160,1,56.2500021457673,4|0,0:0|0:0,0:0:0:0:
490,193,28526,6,0,P|447:227|392:228,1,112.500004291535,4|0,0:0|0:0,0:0:0:0:
240,176,29254,1,0,0:0:0:0:
84,236,29617,2,0,P|83:291|116:335,1,112.500004291535,4|0,0:0|0:0,0:0:0:0:
284,356,30345,1,0,0:0:0:0:
392,228,30708,6,0,P|392:163|347:116,1,112.500004291535,4|0,0:0|0:0,0:0:0:0:
204,72,31435,1,0,0:0:0:0:
124,224,31799,6,0,L|228:240,1,84.3750032186509,4|0,0:0|0:0,0:0:0:0:
216,268,32163,6,0,L|316:220,1,95.6250018239022
336,256,32526,6,0,L|368:136,1,106.87499714613
308,88,32890,5,4,0:0:0:0:
442,169,33072,1,0,0:0:0:0:
381,25,33254,1,8,0:0:0:0:
346,177,33435,1,0,0:0:0:0:
464,75,33617,1,8,0:0:0:0:
308,88,33799,1,8,0:0:0:0:
384,266,33981,5,4,0:0:0:0:
250,185,34163,1,0,0:0:0:0:
311,329,34345,1,8,0:0:0:0:
346,177,34526,1,0,0:0:0:0:
228,279,34708,1,8,0:0:0:0:
384,266,34890,1,8,0:0:0:0:
250,185,35072,6,0,L|202:201,5,41.2500012588501,4|0|0|0|0|0,0:0|0:0|0:0|0:0|0:0|0:0,0:0:0:0:
132,250,35617,2,0,L|95:220,5,41.2500012588501,4|0|0|0|0|0,0:0|0:0|0:0|0:0|0:0|0:0,0:0:0:0:
160,84,37254,6,0,L|88:72,1,56.2500021457673
40,32,37617,2,0,P|28:72|36:104,1,56.2500021457673,2|0,0:0|0:0,0:0:0:0:
80,148,37981,2,0,L|72:216,1,56.2500021457673,0|0,0:0|0:0,0:0:0:0:
16,260,38345,2,0,P|60:284|132:256,1,112.500004291535,2|0,0:0|0:0,0:0:0:0:
256,208,39072,1,2,0:0:0:0:
496,260,39435,6,0,P|452:284|380:256,1,112.500004291535,0|2,0:0|0:0,0:0:0:0:
440,204,39981,1,0,0:0:0:0:
440,204,40163,2,0,L|428:144,1,56.2500021457673,2|0,0:0|0:0,0:0:0:0:
384,80,40526,2,0,P|428:68|496:100,2,112.500004291535,2|0|0,0:0|0:0|0:0,0:0:0:0:
224,164,41617,6,0,P|160:144|136:96,1,112.500004291535,0|2,0:0|0:0,0:0:0:0:
176,36,42163,1,0,0:0:0:0:
176,36,42345,2,0,L|232:36,1,56.2500021457673
288,92,42708,2,0,P|316:136|312:204,1,112.500004291535,2|0,0:0|0:0,0:0:0:0:
252,244,43254,1,0,0:0:0:0:
176,256,43435,2,0,L|104:244,1,56.2500021457673,2|0,0:0|0:0,0:0:0:0:
88,320,43799,2,0,L|216:340,1,112.500004291535,0|2,0:0|0:0,0:0:0:0:
352,296,44526,6,0,P|372:248|372:220,1,56.2500021457673,2|0,0:0|0:0,0:0:0:0:
348,168,44890,2,0,L|336:36,1,112.500004291535,2|0,0:0|0:0,0:0:0:0:
416,64,45435,1,0,0:0:0:0:
416,64,45617,2,0,L|424:128,1,56.2500021457673
280,212,45981,5,6,0:0:0:0:
168,56,46163,1,0,0:0:0:0:
164,76,46254,1,0,0:0:0:0:
160,96,46345,1,2,0:0:0:0:
156,116,46435,1,0,0:0:0:0:
152,136,46526,1,0,0:0:0:0:
76,44,46708,1,8,0:0:0:0:
248,120,46890,1,0,0:0:0:0:
104,208,47072,6,0,P|72:160|72:124,1,75,6|0,0:0|0:0,0:0:0:0:
70,144,47345,1,0,0:0:0:0:
70,144,47435,1,0,0:0:0:0:
280,212,47617,1,0,0:0:0:0:
104,208,47799,1,8,0:0:0:0:
308,128,47981,1,8,0:0:0:0:
192,328,48163,5,6,0:0:0:0:
176,88,48345,1,0,0:0:0:0:
180,108,48435,1,0,0:0:0:0:
184,128,48526,1,2,0:0:0:0:
188,148,48617,1,0,0:0:0:0:
192,168,48708,1,0,0:0:0:0:
272,92,48890,1,10,0:0:0:0:
84,144,49072,1,2,0:0:0:0:
72,340,49254,6,0,L|164:312,1,75,6|0,0:0|0:0,0:0:0:0:
304,252,49617,2,0,L|208:228,1,75,8|0,0:0|0:0,0:0:0:0:
84,144,49981,2,0,L|104:244,1,75,6|10,0:0|0:0,0:0:0:0:
264,340,50344,5,6,0:0:0:0:
436,212,50526,1,0,0:0:0:0:
416,208,50617,1,0,0:0:0:0:
396,204,50708,1,2,0:0:0:0:
376,200,50799,1,0,0:0:0:0:
356,196,50889,1,0,0:0:0:0:
452,304,51071,1,8,0:0:0:0:
432,112,51253,1,0,0:0:0:0:
281,229,51435,6,0,L|288:304,1,75,6|0,0:0|0:0,0:0:0:0:
288,304,51708,1,0,0:0:0:0:
288,304,51799,1,6,0:0:0:0:
184,228,51981,1,0,0:0:0:0:
380,276,52163,1,2,0:0:0:0:
208,352,52345,1,0,0:0:0:0:
408,152,52526,6,0,L|312:145,1,75,4|0,0:0|0:0,0:0:0:0:
208,48,52890,2,0,L|224:144,1,75,2|0,0:0|0:0,0:0:0:0:
109,231,53254,2,0,L|201:227,1,75,10|0,0:0|0:0,0:0:0:0:
336,256,53617,6,0,P|332:308|320:332,1,63.7500012159348,2|0,0:0|0:0,0:0:0:0:
244,352,53981,6,0,L|184:356,1,56.2500021457673,2|0,0:0|0:0,0:0:0:0:
120,296,54345,6,0,L|64:308,1,48.7499977684022,2|0,0:0|0:0,0:0:0:0:
4,360,54708,6,0,P|-12:324|0:268,1,82.5000025177003,4|0,0:0|0:0,0:0:0:0:
48,216,55254,1,0,0:0:0:0:
96,144,55435,2,0,L|64:96,1,41.2500012588501,0|0,0:0|0:0,0:0:0:0:
180,112,55799,2,0,P|188:160|172:200,1,82.5000025177003,8|0,0:0|0:0,0:0:0:0:
144,268,56345,1,0,0:0:0:0:
144,268,56435,1,0,0:0:0:0:
144,268,56526,1,2,0:0:0:0:
248,244,56708,1,0,0:0:0:0:
340,292,56890,6,0,P|352:248|344:208,1,82.5000025177003,8|0,0:0|0:0,0:0:0:0:
316,128,57435,1,0,0:0:0:0:
372,60,57617,2,0,L|424:56,1,41.2500012588501,0|0,0:0|0:0,0:0:0:0:
496,32,57981,2,0,P|500:68|476:116,1,82.5000025177003,8|0,0:0|0:0,0:0:0:0:
452,192,58526,2,0,L|464:244,1,41.2500012588501,0|0,0:0|0:0,0:0:0:0:
428,316,58890,1,0,0:0:0:0:
348,280,59072,6,0,P|304:272|256:288,1,82.5000025177003,8|0,0:0|0:0,0:0:0:0:
208,344,59617,1,0,0:0:0:0:
208,344,59799,2,0,P|184:316|176:296,1,41.2500012588501,0|0,0:0|0:0,0:0:0:0:
164,228,60163,2,0,P|176:172|172:128,1,82.5000025177003,8|0,0:0|0:0,0:0:0:0:
132,72,60708,1,2,0:3:0:0:
132,72,60799,1,0,0:3:0:0:
132,72,60890,1,2,0:3:0:0:
216,32,61072,1,0,0:0:0:0:
272,108,61254,6,0,L|364:96,1,82.5000025177003,8|0,0:0|0:0,0:0:0:0:
432,48,61799,1,0,0:0:0:0:
476,128,61981,2,0,L|464:176,1,41.2500012588501,0|0,0:0|0:0,0:0:0:0:
416,236,62345,2,0,P|368:236|336:256,1,82.5000025177003,8|0,0:0|0:0,0:0:0:0:
272,312,62890,1,0,0:0:0:0:
208,260,63072,1,2,0:0:0:0:
128,280,63254,1,0,0:0:0:0:
88,208,63435,6,0,P|72:152|80:124,1,82.5000025177003,4|0,0:0|0:0,0:0:0:0:
128,64,63981,1,0,0:0:0:0:
196,108,64163,2,0,L|252:96,1,41.2500012588501
308,52,64526,2,0,P|324:92|316:136,1,82.5000025177003,8|0,0:0|0:0,0:0:0:0:
276,208,65072,1,2,0:3:0:0:
276,208,65163,1,0,0:3:0:0:
276,208,65254,2,0,L|288:256,1,41.2500012588501,2|4,0:3|0:3,0:0:0:0:
348,312,65617,6,0,P|316:332|268:336,1,82.5000025177003,4|0,0:3|0:0,0:0:0:0:
200,280,66163,1,0,0:0:0:0:
124,328,66345,2,0,L|72:336,1,41.2500012588501
40,248,66708,1,8,0:0:0:0:
104,176,66890,1,0,0:0:0:0:
40,92,67072,1,0,3:0:0:0:
44,80,67163,1,0,3:0:0:0:
48,68,67254,1,2,0:0:0:0:
52,56,67345,1,0,0:0:0:0:
56,44,67435,1,6,0:0:0:0:
152,20,67617,1,4,3:0:0:0:
224,72,67799,6,0,P|260:68|296:28,1,82.5000025177003,4|0,0:3|0:0,0:0:0:0:
380,40,68345,1,0,0:0:0:0:
444,96,68526,2,0,L|492:84,1,41.2500012588501,2|0,0:0|0:0,0:0:0:0:
452,180,68890,2,0,P|408:188|376:228,1,82.5000025177003,8|0,0:0|0:0,0:0:0:0:
348,300,69435,1,2,3:0:0:0:
348,300,69526,1,0,3:0:0:0:
348,300,69617,2,0,L|296:312,1,41.2500012588501,2|4,3:0|3:0,0:0:0:0:
240,364,69981,6,0,P|224:328|232:276,1,82.5000025177003,4|0,0:3|0:0,0:0:0:0:
208,200,70526,1,0,0:0:0:0:
264,136,70708,2,0,P|268:104|264:80,1,41.2500012588501,0|0,0:0|0:0,0:0:0:0:
112,152,71072,6,0,P|104:188|104:216,1,56.2500021457673,4|0,0:0|0:0,0:0:0:0:
108,228,71345,1,0,0:0:0:0:
116,248,71435,1,6,0:0:0:0:
208,316,71617,1,0,0:0:0:0:
320,256,71799,1,6,0:0:0:0:
436,332,71981,1,4,0:0:0:0:
224,232,72163,6,0,P|212:176|244:112,1,112.5,4|0,0:0|0:0,0:0:0:0:
304,84,72526,2,0,P|344:96|392:92,1,75
492,220,72890,2,0,P|452:208|404:212,1,75
288,316,73254,2,0,B|240:328|240:328|192:316|192:316|132:332,1,150,4|8,0:0|0:0,0:0:0:0:
56,268,73799,1,0,0:0:0:0:
141,328,73981,1,8,0:0:0:0:
48,372,74163,1,0,0:0:0:0:
40,168,74345,6,0,P|104:176|140:208,1,112.5,4|0,0:0|0:0,0:0:0:0:
228,232,74708,2,0,P|224:188|236:156,1,75
400,92,75072,2,0,P|408:160|396:188,1,75
312,264,75435,2,0,P|368:264|432:336,1,150,4|8,0:0|0:0,0:0:0:0:
280,352,75981,1,0,0:0:0:0:
156,248,76163,2,0,P|140:184|164:132,1,112.5,8|0,0:0|0:0,0:0:0:0:
248,104,76526,6,0,L|348:96,1,75,4|8,0:0|0:0,0:0:0:0:
256,256,76890,2,0,L|199:173,1,75,8|0,0:0|0:0,0:0:0:0:
384,180,77254,2,0,L|340:270,1,75,8|0,0:0|0:0,0:0:0:0:
268,329,77617,2,0,L|251:230,1,75,4|8,0:0|0:0,0:0:0:0:
112,356,77981,2,0,L|205:391,1,75,8|0,0:0|0:0,0:0:0:0:
164,212,78345,2,0,L|86:275,1,75,8|0,0:0|0:0,0:0:0:0:
320,376,78708,5,4,0:0:0:0:
448,344,78890,1,0,0:0:0:0:
448,344,78981,1,0,0:0:0:0:
448,344,79072,2,0,P|473:311|480:270,1,75
392,172,79435,2,0,L|416:88,1,75
291,35,79799,2,0,B|239:39|239:39|191:63|191:63|131:67,1,150,4|8,0:0|0:0,0:0:0:0:
36,24,80345,1,0,0:0:0:0:
36,24,80435,1,0,0:0:0:0:
36,24,80526,1,8,0:0:0:0:
146,65,80708,1,4,0:0:0:0:
84,240,80890,6,0,P|72:180|104:112,1,112.5,4|0,0:0|0:0,0:0:0:0:
146,65,81254,1,0,0:0:0:0:
276,128,81435,1,0,0:0:0:0:
276,128,81526,1,0,0:0:0:0:
276,128,81617,2,0,P|280:192|268:224,1,75,0|0,0:0|0:0,0:0:0:0:
172,296,81981,2,0,P|248:284|300:312,1,112.5,4|0,0:0|0:0,0:0:0:0:
344,344,82345,1,8,0:0:0:0:
440,248,82526,1,0,0:0:0:0:
440,248,82617,1,0,0:0:0:0:
440,248,82708,2,0,L|444:144,1,75,8|0,0:0|0:0,0:0:0:0:
348,76,83072,6,0,L|352:192,1,112.5,4|0,0:0|0:0,0:0:0:0:
264,240,83435,2,0,L|264:156,1,75
160,60,83799,2,0,L|160:144,1,75,0|0,0:0|0:0,0:0:0:0:
196,300,84163,2,0,P|264:332|320:308,1,112.5,4|0,0:0|0:0,0:0:0:0:
364,264,84526,2,0,L|440:276,1,75,8|0,0:0|0:0,0:0:0:0:
438,275,84799,1,0,0:0:0:0:
438,275,84890,1,8,0:0:0:0:
320,170,85072,1,0,0:0:0:0:
196,300,85253,6,0,L|98:323,1,75,4|8,0:0|0:0,0:0:0:0:
164,151,85617,2,0,L|233:223,1,75,8|0,0:0|0:0,0:0:0:0:
49,246,85981,2,0,L|77:149,1,75,8|0,0:0|0:0,0:0:0:0:
141,80,86344,2,0,L|172:175,1,75,4|8,0:0|0:0,0:0:0:0:
290,29,86708,2,0,L|191:8,1,75,8|0,0:0|0:0,0:0:0:0:
262,180,87072,2,0,L|328:104,1,75,8|0,0:0|0:0,0:0:0:0:
108,40,87435,5,4,0:0:0:0:
48,116,87617,1,0,0:0:0:0:
48,116,87708,1,0,0:0:0:0:
48,116,87799,2,0,P|22:80|17:37,1,75
152,144,88163,2,0,L|136:240,1,75
196,348,88526,2,0,L|316:336,1,112.5,4|0,0:0|0:0,0:0:0:0:
376,292,88890,2,0,L|388:196,1,75,4|0,0:0|0:0,0:0:0:0:
368,48,89254,2,0,L|360:136,1,75,0|4,0:0|0:0,0:0:0:0:
312,200,89617,6,0,L|200:180,1,112.500004291535,4|0,0:0|0:0,0:0:0:0:
124,132,90163,1,0,0:0:0:0:
116,220,90345,2,0,L|96:292,1,56.2500021457673,2|0,0:0|0:0,0:0:0:0:
28,308,90708,2,0,P|64:348|136:348,1,112.500004291535,4|2,0:0|0:0,0:0:0:0:
212,296,91254,1,4,0:0:0:0:
372,352,91435,1,6,0:0:0:0:
372,352,91799,6,0,L|328:224,1,112.500004291535,4|0,0:0|0:0,0:0:0:0:
408,176,92345,1,0,0:0:0:0:
328,120,92526,2,0,L|340:56,1,56.2500021457673,2|0,0:0|0:0,0:0:0:0:
264,16,92890,2,0,L|240:132,1,112.500004291535,4|4,0:0|0:0,0:0:0:0:
184,204,93435,1,4,0:0:0:0:
328,120,93617,1,6,0:0:0:0:
272,320,93799,1,12,0:0:0:0:
456,276,93981,6,0,L|340:260,1,112.500004291535,4|0,0:0|0:0,0:0:0:0:
272,320,94526,1,0,0:0:0:0:
204,264,94708,2,0,L|188:208,1,56.2500021457673,0|0,0:0|0:0,0:0:0:0:
95,235,95072,2,0,L|111:107,1,112.500004291535,4|0,0:0|0:0,0:0:0:0:
180,40,95617,1,4,0:0:0:0:
192,176,95799,1,4,0:0:0:0:
109,124,95981,6,0,L|157:116,1,28.1250010728836
268,136,96163,6,0,P|276:200|248:248,1,112.500004291535,4|0,0:0|0:0,0:0:0:0:
168,264,96708,1,0,0:0:0:0:
240,320,96890,2,0,L|308:312,1,56.2500021457673,0|0,0:0|0:0,0:0:0:0:
408,336,97254,1,4,0:0:0:0:
464,264,97435,1,0,0:0:0:0:
464,264,97526,1,0,0:0:0:0:
464,264,97617,2,0,L|452:196,1,56.2500021457673,4|0,0:0|0:0,0:0:0:0:
372,124,97981,2,0,L|376:44,1,56.2500021457673,4|0,0:0|0:0,0:0:0:0:
280,240,98345,6,0,L|264:112,1,112.500004291535,4|0,0:0|0:0,0:0:0:0:
200,64,98890,1,0,0:0:0:0:
148,128,99072,2,0,P|140:172|144:188,1,56.2500021457673,2|0,0:0|0:0,0:0:0:0:
188,260,99435,2,0,P|204:308|152:364,1,112.500004291535,4|2,0:0|0:0,0:0:0:0:
80,372,99981,1,4,0:0:0:0:
96,208,100163,1,6,0:0:0:0:
96,208,100526,6,0,B|104:172|104:172|124:140|124:140|136:80,1,112.500004291535,4|0,0:0|0:0,0:0:0:0:
192,40,101072,1,0,0:0:0:0:
264,96,101254,2,0,L|336:84,1,56.2500021457673,2|0,0:0|0:0,0:0:0:0:
376,176,101617,2,0,L|312:172,1,56.2500021457673,4|0,0:0|0:0,0:0:0:0:
180,236,101981,1,4,0:0:0:0:
319,172,102163,1,4,0:0:0:0:
276,316,102345,1,6,0:0:0:0:
420,356,102526,1,12,0:0:0:0:
456,212,102708,6,0,P|460:156|420:104,1,112.500004291535,4|0,0:0|0:0,0:0:0:0:
372,40,103254,1,0,0:0:0:0:
284,20,103435,2,0,L|216:24,1,56.2500021457673,0|0,0:0|0:0,0:0:0:0:
160,84,103799,2,0,P|140:132|164:208,1,112.500004291535,4|0,0:0|0:0,0:0:0:0:
220,248,104345,1,0,0:0:0:0:
224,144,104526,1,0,0:0:0:0:
128,296,104708,6,0,L|168:312,1,28.1250010728836,4|0,0:0|0:0,0:0:0:0:
244,328,104890,6,0,P|320:332|356:360,1,112.500004291535,4|0,0:0|0:0,0:0:0:0:
444,324,105435,1,0,0:0:0:0:
388,252,105617,2,0,L|404:184,1,56.2500021457673
368,100,105981,5,4,0:0:0:0:
232,148,106163,1,0,0:0:0:0:
232,148,106254,1,0,0:0:0:0:
232,148,106345,1,8,0:0:0:0:
116,64,106526,6,0,L|112:40,4,14.0625005364418,2|0|0|0|0,0:0|0:0|0:0|0:0|0:0,0:0:0:0:
56,188,107072,6,0,L|72:308,1,112.500004291535,4|0,0:0|0:0,0:0:0:0:
152,352,107617,1,0,0:0:0:0:
216,280,107799,2,0,L|276:272,1,56.2500021457673,2|0,0:0|0:0,0:0:0:0:
352,328,108163,2,0,L|392:216,1,112.500004291535,12|0,0:0|0:0,0:0:0:0:
356,132,108708,1,0,0:0:0:0:
440,88,108890,2,0,L|420:20,1,56.2500021457673,2|0,0:0|0:0,0:0:0:0:
328,48,109254,6,0,L|208:52,1,112.500004291535,2|0,0:0|0:0,0:0:0:0:
128,12,109799,1,0,0:0:0:0:
116,108,109981,2,0,L|48:148,1,56.2500021457673,2|0,0:0|0:0,0:0:0:0:
132,208,110345,2,0,L|200:248,1,56.2500021457673,2|0,0:0|0:0,0:0:0:0:
184,332,110708,2,0,L|252:312,1,56.2500021457673,2|0,0:0|0:0,0:0:0:0:
308,252,111072,2,0,L|336:312,1,56.2500021457673,2|8,0:0|0:0,0:0:0:0:
212,140,111435,6,0,L|348:132,1,112.500004291535,4|0,0:0|0:0,0:0:0:0:
392,204,111981,1,0,0:0:0:0:
460,140,112163,2,0,L|424:80,1,56.2500021457673,2|8,0:0|0:0,0:0:0:0:
504,296,112526,2,0,L|376:284,1,112.500004291535,4|0,0:0|0:0,0:0:0:0:
312,340,113072,1,0,0:0:0:0:
240,280,113254,2,0,L|184:300,1,56.2500021457673,2|0,0:0|0:0,0:0:0:0:
100,336,113617,6,0,L|108:216,1,112.500004291535,2|0,0:0|0:0,0:0:0:0:
56,144,114163,1,0,0:0:0:0:
108,64,114345,2,0,L|164:92,1,56.2500021457673,2|0,0:0|0:0,0:0:0:0:
228,24,114708,2,0,L|288:16,1,56.2500021457673,2|0,0:0|0:0,0:0:0:0:
312,108,115072,1,2,0:0:0:0:
395,50,115254,2,0,L|400:64,4,14.0625005364418,2|0|0|0|0,0:0|0:0|0:0|0:0|0:0,0:0:0:0:
492,100,115617,1,0,0:0:0:0:
508,208,115799,6,0,L|392:192,1,112.500004291535,8|0,0:0|0:0,0:0:0:0:
320,248,116345,1,0,0:0:0:0:
260,172,116526,2,0,L|192:188,1,56.2500021457673,2|0,0:0|0:0,0:0:0:0:
136,252,116890,2,0,L|80:136,1,112.500004291535,8|0,0:0|0:0,0:0:0:0:
128,64,117435,1,0,0:0:0:0:
192,136,117617,2,0,L|232:88,1,56.2500021457673,2|0,0:0|0:0,0:0:0:0:
264,180,117981,6,0,L|280:304,1,112.500004291535,8|0,0:0|0:0,0:0:0:0:
340,352,118526,1,0,0:0:0:0:
376,264,118708,2,0,L|364:196,1,56.2500021457673,2|0,0:0|0:0,0:0:0:0:
264,180,119072,2,0,L|256:308,1,112.500004291535,8|0,0:0|0:0,0:0:0:0:
180,352,119617,1,0,0:0:0:0:
144,264,119799,2,0,L|156:196,1,56.2500021457673,2|0,0:0|0:0,0:0:0:0:
120,120,120163,5,8,0:0:0:0:
188,52,120345,1,0,0:0:0:0:
260,112,120526,2,0,L|392:88,1,112.500004291535,2|8,0:0|0:0,0:0:0:0:
432,16,121072,1,8,0:0:0:0:
496,88,121254,1,8,0:0:0:0:
436,160,121435,1,0,0:0:0:0:
484,244,121617,2,0,L|348:256,1,112.500004291535,2|8,0:0|0:0,0:0:0:0:
296,312,122163,1,0,0:0:0:0:
232,240,122345,6,0,P|164:232|100:320,1,168.750006437302,10|0,0:0|0:0,0:0:0:0:
44,220,123072,2,0,P|52:168|48:144,1,56.2500021457673,2|0,0:0|0:0,0:0:0:0:
8,92,123435,6,0,P|4:48|16:20,1,56.2500021457673,4|0,0:0|0:0,0:0:0:0:
7,37,123708,1,0,0:0:0:0:
7,37,123799,1,8,0:0:0:0:
124,184,123981,2,0,L|108:188,2,14.0625005364418
152,168,124163,2,0,P|164:124|160:80,1,75,2|0,0:0|0:0,0:0:0:0:
244,280,124526,6,0,P|232:220|252:152,1,112.5,6|0,0:0|0:0,0:0:0:0:
304,108,124890,2,0,L|404:92,1,75,8|0,0:0|0:0,0:0:0:0:
384,248,125254,2,0,L|457:262,1,75,8|0,0:0|0:0,0:0:0:0:
244,280,125617,2,0,L|124:272,1,112.5,6|0,0:0|0:0,0:0:0:0:
64,212,125981,2,0,P|28:176|16:140,1,75,8|0,0:0|0:0,0:0:0:0:
136,100,126345,2,0,P|144:56|184:24,1,75,8|0,0:0|0:0,0:0:0:0:
248,196,126708,6,0,L|236:308,1,112.5,6|0,0:0|0:0,0:0:0:0:
164,360,127072,2,0,P|144:312|148:284,1,75,8|0,0:0|0:0,0:0:0:0:
336,192,127435,2,0,L|328:272,1,75,8|0,0:0|0:0,0:0:0:0:
328,266,127708,1,0,0:0:0:0:
328,266,127799,1,2,0:0:0:0:
456,180,127981,1,0,0:0:0:0:
308,100,128163,1,2,0:0:0:0:
436,280,128345,1,0,0:0:0:0:
224,160,128526,2,0,L|128:148,1,75,2|0,0:0|0:0,0:0:0:0:
32,236,128890,6,0,L|144:236,1,112.5,6|0,0:0|0:0,0:0:0:0:
213,288,129254,2,0,L|193:368,1,75,8|0,0:0|0:0,0:0:0:0:
316,196,129617,2,0,L|336:288,1,75,8|0,0:0|0:0,0:0:0:0:
376,108,129981,2,0,P|320:88|256:112,1,112.5,6|0,0:0|0:0,0:0:0:0:
192,136,130345,2,0,P|132:124|108:104,1,75,8|0,0:0|0:0,0:0:0:0:
252,220,130708,2,0,P|212:236|168:236,1,75,8|0,0:0|0:0,0:0:0:0:
176,52,131072,6,0,L|300:36,1,112.5,6|0,0:0|0:0,0:0:0:0:
352,96,131435,2,0,L|336:188,1,75,8|0,0:0|0:0,0:0:0:0:
452,124,131799,1,8,0:0:0:0:
224,144,131981,1,0,0:0:0:0:
224,144,132072,1,0,0:0:0:0:
224,144,132163,2,0,L|232:240,1,75,6|0,0:0|0:0,0:0:0:0:
356,344,132526,2,0,L|348:248,1,75,10|0,0:0|0:0,0:0:0:0:
352,96,132890,1,2,0:0:0:0:
348,116,132981,1,0,0:0:0:0:
344,140,133072,1,0,0:0:0:0:
340,164,133163,1,0,0:0:0:0:
336,188,133254,6,0,L|452:180,1,112.5,6|0,0:0|0:0,0:0:0:0:
504,100,133617,2,0,L|424:92,1,75,8|0,0:0|0:0,0:0:0:0:
400,276,133981,2,0,L|480:268,1,75,8|0,0:0|0:0,0:0:0:0:
256,152,134345,2,0,P|244:196|276:264,1,112.5,6|0,0:0|0:0,0:0:0:0:
304,336,134708,2,0,L|228:336,1,75,8|0,0:0|0:0,0:0:0:0:
340,196,135072,2,0,L|436:200,1,75,8|0,0:0|0:0,0:0:0:0:
216,248,135435,6,0,P|160:240|88:272,1,112.5,6|0,0:0|0:0,0:0:0:0:
28,288,135799,2,0,P|59:327|93:337,1,75,8|0,0:0|0:0,0:0:0:0:
252,324,136163,2,0,P|304:320|340:332,1,75,8|0,0:0|0:0,0:0:0:0:
444,348,136526,2,0,L|404:216,1,112.5,6|0,0:0|0:0,0:0:0:0:
356,172,136890,2,0,P|404:152|440:160,1,75,8|0,0:0|0:0,0:0:0:0:
312,72,137254,2,0,P|248:72|224:60,1,75,8|0,0:0|0:0,0:0:0:0:
96,152,137617,6,0,P|156:132|220:172,1,112.5,6|0,0:0|0:0,0:0:0:0:
244,220,137981,2,0,L|232:308,1,75,8|0,0:0|0:0,0:0:0:0:
112,360,138345,2,0,L|96:252,1,75,8|0,0:0|0:0,0:0:0:0:
160,220,138617,1,0,0:0:0:0:
160,220,138708,2,0,L|292:204,1,112.5,6|0,0:0|0:0,0:0:0:0:
344,256,139072,2,0,P|356:208|348:168,1,75,8|0,0:0|0:0,0:0:0:0:
444,56,139435,2,0,P|440:104|456:148,1,75,8|0,0:0|0:0,0:0:0:0:
492,240,139799,6,0,P|484:296|416:348,1,112.5,6|0,0:0|0:0,0:0:0:0:
364,344,140163,2,0,L|284:296,1,75,8|0,0:0|0:0,0:0:0:0:
172,320,140526,2,0,L|208:224,1,75,8|0,0:0|0:0,0:0:0:0:
80,168,140890,2,0,L|208:160,1,112.5,2|0,0:0|0:0,0:0:0:0:
272,108,141254,5,0,0:0:0:0:
356,188,141435,1,0,0:0:0:0:
376,184,141526,1,0,0:0:0:0:
392,176,141617,1,6,0:0:0:0:
408,164,141708,1,0,0:0:0:0:
420,148,141799,1,2,0:0:0:0:
364,44,141981,5,4,0:0:0:0:
136,152,150708,6,0,B|196:140|196:140|240:152|240:152|300:140,1,165.000005035401,2|0,0:0|0:0,0:0:0:0:
396,104,151799,2,0,P|400:172|336:240,1,165.000005035401,2|0,0:0|0:0,0:0:0:0:
232,224,152890,2,0,P|232:276|276:332,1,123.75000377655,2|0,0:0|0:0,0:0:0:0:
337,239,153617,2,0,L|329:191,1,41.2500012588501
260,116,153981,2,0,P|212:112|172:132,1,82.5000025177003,2|0,0:0|0:0,0:0:0:0:
181,125,154435,1,0,0:0:0:0:
181,125,154526,1,0,0:0:0:0:
108,76,154708,2,0,L|56:68,1,41.2500012588501,2|0,0:0|0:0,0:0:0:0:
80,160,155072,6,0,L|96:248,1,82.5000025177003,2|0,0:0|0:0,0:0:0:0:
48,328,155617,1,0,0:0:0:0:
24,236,155799,2,0,L|80:224,1,41.2500012588501,0|0,0:0|0:0,0:0:0:0:
184,224,156163,2,0,L|172:324,1,82.5000025177003,2|0,0:0|0:0,0:0:0:0:
96,264,156708,1,0,0:0:0:0:
264,176,156890,2,0,L|252:136,1,41.2500012588501,0|0,0:0|0:0,0:0:0:0:
260,288,157254,2,0,P|352:272|400:328,1,165.000005035401,2|0,0:0|0:0,0:0:0:0:
480,264,158163,1,0,0:0:0:0:
424,176,158345,6,0,P|424:144|440:112,1,56.2500021457673,4|0,0:0|0:0,0:0:0:0:
436,100,158617,1,0,0:0:0:0:
408,104,158708,1,6,0:0:0:0:
380,96,158799,1,0,0:0:0:0:
356,80,158890,1,8,0:0:0:0:
256,36,159072,1,4,0:0:0:0:
228,36,159163,1,0,0:0:0:0:
204,48,159254,1,12,0:0:0:0:
124,112,159435,6,0,P|132:172|104:240,1,112.5,4|0,0:0|0:0,0:0:0:0:
72,292,159799,2,0,P|80:348|108:376,1,75
264,264,160163,2,0,P|264:212|244:172,1,75
240,348,160526,2,0,P|302:345|348:282,1,112.5,4|0,0:0|0:0,0:0:0:0:
416,280,160890,2,0,B|456:284|456:284|492:316,1,75,8|0,0:0|0:0,0:0:0:0:
344,224,161254,2,0,P|340:168|356:136,1,75,8|0,0:0|0:0,0:0:0:0:
486,103,161617,6,0,B|465:159|465:159|418:191,1,112.5,4|0,0:0|0:0,0:0:0:0:
344,224,161981,2,0,L|240:204,1,75
416,280,162345,2,0,L|428:356,1,75
422,189,162708,2,0,L|408:77,1,112.5,4|0,0:0|0:0,0:0:0:0:
336,124,163072,2,0,P|292:132|232:124,1,75,8|0,0:0|0:0,0:0:0:0:
104,40,163435,2,0,P|176:32|204:40,1,75,8|0,0:0|0:0,0:0:0:0:
336,124,163799,6,0,L|356:222,1,75,4|8,0:0|0:0,0:0:0:0:
185,149,164163,2,0,L|260:82,1,75,8|0,0:0|0:0,0:0:0:0:
276,268,164527,2,0,L|180:236,1,75,8|0,0:0|0:0,0:0:0:0:
114,170,164890,2,0,L|210:141,1,75,4|8,0:0|0:0,0:0:0:0:
67,19,165254,2,0,L|48:100,1,75,8|0,0:0|0:0,0:0:0:0:
218,53,165618,2,0,L|160:-12,1,75,8|0,0:0|0:0,0:0:0:0:
68,244,165981,5,4,0:0:0:0:
280,220,166163,1,0,0:0:0:0:
280,220,166254,1,0,0:0:0:0:
280,220,166345,2,0,P|282:257|269:292,1,75
216,144,166708,2,0,P|264:124|304:128,1,75
174,237,167072,5,4,0:0:0:0:
84,136,167254,1,0,0:0:0:0:
84,136,167345,1,0,0:0:0:0:
84,136,167435,1,8,0:0:0:0:
280,220,167617,1,0,0:0:0:0:
72,252,167799,1,8,0:0:0:0:
244,112,167981,1,0,0:0:0:0:
200,324,168163,6,0,L|316:316,1,112.5,4|0,0:0|0:0,0:0:0:0:
388,356,168526,1,0,0:0:0:0:
456,208,168708,1,0,0:0:0:0:
456,208,168799,1,0,0:0:0:0:
456,208,168890,2,0,P|461:171|454:134,1,75,0|0,0:0|0:0,0:0:0:0:
328,60,169254,2,0,P|272:72|200:44,1,112.5,4|0,0:0|0:0,0:0:0:0:
140,20,169617,1,8,0:0:0:0:
48,156,169799,1,0,0:0:0:0:
48,156,169890,1,0,0:0:0:0:
48,156,169981,2,0,L|52:260,1,75,8|0,0:0|0:0,0:0:0:0:
128,304,170345,6,0,L|264:288,1,112.5,4|0,0:0|0:0,0:0:0:0:
316,332,170708,2,0,P|324:276|308:244,1,75
448,192,171072,2,0,P|440:248|456:280,1,75
512,140,171435,2,0,P|444:108|388:132,1,112.5,4|0,0:0|0:0,0:0:0:0:
344,172,171799,2,0,L|264:156,1,75,8|0,0:0|0:0,0:0:0:0:
270,157,172072,1,0,0:0:0:0:
270,157,172163,1,8,0:0:0:0:
324,292,172345,1,0,0:0:0:0:
128,228,172526,6,0,L|102:325,1,75,4|8,0:0|0:0,0:0:0:0:
276,262,172890,2,0,L|204:191,1,75,8|0,0:0|0:0,0:0:0:0:
179,375,173254,2,0,L|275:348,1,75,8|0,0:0|0:0,0:0:0:0:
346,286,173617,2,0,L|251:252,1,75,4|8,0:0|0:0,0:0:0:0:
399,137,173981,2,0,L|417:235,1,75,8|0,0:0|0:0,0:0:0:0:
248,164,174345,2,0,L|324:98,1,75,8|0,0:0|0:0,0:0:0:0:
312,360,174708,5,4,0:0:0:0:
168,368,174890,1,0,0:0:0:0:
168,368,174981,1,0,0:0:0:0:
168,368,175072,2,0,P|164:320|196:280,1,75,8|0,0:0|0:0,0:0:0:0:
240,140,175435,2,0,P|248:96|224:44,1,75,8|0,0:0|0:0,0:0:0:0:
144,224,175799,2,0,L|280:216,1,112.5,4|0,0:0|0:0,0:0:0:0:
344,240,176163,1,4,0:0:0:0:
240,140,176345,1,0,0:0:0:0:
288,304,176526,2,0,P|328:324|384:312,1,75,0|4,0:0|0:0,0:0:0:0:
436,256,176890,6,0,L|428:124,1,112.500004291535,4|0,0:0|0:0,0:0:0:0:
368,80,177436,1,0,0:0:0:0:
296,140,177618,2,0,L|228:140,1,56.2500021457673,2|0,0:0|0:0,0:0:0:0:
96,240,177981,2,0,P|132:204|212:212,1,112.500004291535,4|2,0:0|0:0,0:0:0:0:
244,276,178527,1,4,0:0:0:0:
344,136,178708,1,6,0:0:0:0:
344,136,179072,6,0,L|360:256,1,112.500004291535,4|0,0:0|0:0,0:0:0:0:
400,340,179618,1,0,0:0:0:0:
452,256,179799,2,0,L|464:192,1,56.2500021457673,2|0,0:0|0:0,0:0:0:0:
452,112,180163,2,0,L|328:92,1,112.500004291535,4|4,0:0|0:0,0:0:0:0:
208,132,180708,1,4,0:0:0:0:
340,94,180890,1,6,0:0:0:0:
164,44,181072,1,12,0:0:0:0:
160,228,181254,6,0,L|276:212,1,112.500004291535,4|0,0:0|0:0,0:0:0:0:
336,276,181799,1,0,0:0:0:0:
376,196,181981,2,0,L|360:140,1,56.2500021457673,2|0,0:0|0:0,0:0:0:0:
468,164,182345,2,0,L|456:296,1,112.500004291535,4|0,0:0|0:0,0:0:0:0:
384,360,182890,1,4,0:0:0:0:
376,196,183072,1,4,0:0:0:0:
296,288,183254,6,0,L|344:280,1,28.1250010728836,4|0,0:0|0:0,0:0:0:0:
236,340,183436,6,0,P|172:348|124:312,1,112.500004291535,4|0,0:0|0:0,0:0:0:0:
196,256,183981,1,0,0:0:0:0:
148,180,184163,2,0,L|208:136,1,56.2500021457673,2|0,0:0|0:0,0:0:0:0:
248,72,184527,1,4,0:0:0:0:
324,120,184708,1,0,0:0:0:0:
324,120,184799,1,0,0:0:0:0:
324,120,184890,2,0,P|332:160|324:188,1,56.2500021457673,4|0,0:0|0:0,0:0:0:0:
200,256,185254,2,0,P|192:208|200:184,1,56.2500021457673,4|4,0:0|0:0,0:0:0:0:
324,120,185618,6,0,L|310:231,1,112.500004291535,4|0,0:0|0:0,0:0:0:0:
352,316,186163,1,0,0:0:0:0:
352,316,186345,2,0,P|387:289|395:274,1,56.2500021457673,2|0,0:0|0:0,0:0:0:0:
224,184,186708,2,0,L|236:296,1,112.500004291535,4|2,0:0|0:0,0:0:0:0:
172,360,187254,1,4,0:0:0:0:
76,224,187436,1,6,0:0:0:0:
76,224,187799,6,0,P|68:160|92:108,1,112.500004291535,4|0,0:0|0:0,0:0:0:0:
148,44,188345,1,0,0:0:0:0:
232,92,188527,2,0,L|308:80,1,56.2500021457673,2|0,0:0|0:0,0:0:0:0:
380,112,188890,2,0,P|392:148|388:176,1,56.2500021457673,4|0,0:0|0:0,0:0:0:0:
372,272,189254,1,6,0:0:0:0:
256,192,189435,1,4,0:0:0:0:
390,165,189617,1,12,0:0:0:0:
276,284,189799,1,4,0:0:0:0:
124,220,189981,6,0,L|108:100,1,112.500004291535,4|0,0:0|0:0,0:0:0:0:
184,44,190527,1,0,0:0:0:0:
272,88,190708,2,0,L|324:52,1,56.2500021457673,2|0,0:0|0:0,0:0:0:0:
404,80,191072,2,0,P|424:128|400:204,1,112.500004291535,4|0,0:0|0:0,0:0:0:0:
320,276,191618,1,4,0:0:0:0:
336,144,191799,1,4,0:0:0:0:
244,212,191981,6,0,L|208:204,1,28.1250010728836,4|0,0:0|0:0,0:0:0:0:
140,308,192163,6,0,B|200:300|200:300|272:316,1,112.500004291535,4|0,0:0|0:0,0:0:0:0:
356,356,192708,1,2,0:0:0:0:
428,264,192890,2,0,L|388:200,1,56.2500021457673,8|0,0:0|0:0,0:0:0:0:
336,120,193254,5,4,0:0:0:0:
232,180,193436,1,0,0:0:0:0:
232,180,193527,1,0,0:0:0:0:
232,180,193618,1,8,0:0:0:0:
228,60,193799,6,0,L|204:48,4,14.0625005364418
104,116,194345,6,0,L|124:230,1,112.500004291535,4|0,0:0|0:0,0:0:0:0:
96,320,194890,1,0,0:0:0:0:
184,356,195072,2,0,L|244:344,1,56.2500021457673,2|0,0:0|0:0,0:0:0:0:
332,368,195435,2,0,L|304:236,1,112.500004291535,12|0,0:0|0:0,0:0:0:0:
340,168,195981,1,0,0:0:0:0:
432,200,196163,2,0,L|480:160,1,56.2500021457673,2|0,0:0|0:0,0:0:0:0:
396,92,196526,6,0,L|276:56,1,112.500004291535,2|0,0:0|0:0,0:0:0:0:
208,116,197072,1,0,0:0:0:0:
156,36,197254,2,0,L|88:48,1,56.2500021457673,2|0,0:0|0:0,0:0:0:0:
40,120,197617,2,0,L|96:168,1,56.2500021457673,2|0,0:0|0:0,0:0:0:0:
108,248,197981,2,0,L|176:204,1,56.2500021457673,2|0,0:0|0:0,0:0:0:0:
204,300,198345,2,0,L|196:360,1,56.2500021457673,2|8,0:0|0:0,0:0:0:0:
252,164,198708,6,0,L|120:172,1,112.500004291535,4|0,0:0|0:0,0:0:0:0:
160,84,199254,1,2,0:0:0:0:
248,88,199435,2,0,L|220:28,1,56.2500021457673,0|12,0:0|0:0,0:0:0:0:
200,284,199799,2,0,L|332:276,1,112.500004291535,4|0,0:0|0:0,0:0:0:0:
292,364,200345,1,0,0:0:0:0:
204,372,200526,2,0,L|140:348,1,56.2500021457673,2|0,0:0|0:0,0:0:0:0:
56,352,200890,6,0,L|88:224,1,112.500004291535,2|0,0:0|0:0,0:0:0:0:
64,148,201435,1,0,0:0:0:0:
128,76,201617,2,0,L|192:64,1,56.2500021457673,2|0,0:0|0:0,0:0:0:0:
256,128,201981,2,0,L|296:84,1,56.2500021457673,2|0,0:0|0:0,0:0:0:0:
368,24,202345,1,2,0:0:0:0:
440,84,202526,2,0,L|456:76,4,14.0625005364418,2|0|0|0|0,0:0|0:0|0:0|0:0|0:0,0:0:0:0:
400,172,202890,1,0,0:0:0:0:
304,196,203072,6,0,L|188:180,1,112.500004291535,8|0,0:0|0:0,0:0:0:0:
124,112,203618,1,0,0:0:0:0:
72,192,203799,2,0,L|-4:180,1,56.2500021457673,2|0,0:0|0:0,0:0:0:0:
80,280,204163,2,0,L|204:248,1,112.500004291535,8|0,0:0|0:0,0:0:0:0:
268,304,204708,1,0,0:0:0:0:
284,212,204890,2,0,L|276:148,1,56.2500021457673,2|0,0:0|0:0,0:0:0:0:
360,120,205254,6,0,L|376:244,1,112.500004291535,8|0,0:0|0:0,0:0:0:0:
432,308,205799,1,0,0:0:0:0:
456,216,205981,2,0,L|444:148,1,56.2500021457673,2|0,0:0|0:0,0:0:0:0:
360,120,206345,2,0,L|352:248,1,112.500004291535,8|0,0:0|0:0,0:0:0:0:
276,288,206890,1,0,0:0:0:0:
200,228,207072,2,0,L|124:244,1,56.2500021457673,2|0,0:0|0:0,0:0:0:0:
56,280,207436,5,8,0:0:0:0:
0,204,207618,1,0,0:0:0:0:
80,152,207799,2,0,L|212:128,1,112.500004291535,2|8,0:0|0:0,0:0:0:0:
268,72,208345,1,8,0:0:0:0:
336,140,208527,1,8,0:0:0:0:
416,84,208708,1,0,0:0:0:0:
456,172,208890,2,0,L|420:280,1,112.500004291535,2|8,0:0|0:0,0:0:0:0:
328,312,209436,1,0,0:0:0:0:
236,284,209617,6,0,B|188:288|168:332|168:332|128:308|80:324,1,168.750006437302,10|0,0:0|0:0,0:0:0:0:
8,364,210345,2,0,P|0:312|4:288,1,56.2500021457673,2|0,0:0|0:0,0:0:0:0:
47,223,210708,6,0,L|35:159,1,56.2500021457673,4|0,0:0|0:0,0:0:0:0:
37,168,210981,1,0,0:0:0:0:
37,168,211072,1,8,0:0:0:0:
72,32,211254,2,0,L|56:28,2,14.0625005364418
100,48,211436,2,0,P|116:88|112:120,1,56.2500021457673,2|0,0:0|0:0,0:0:0:0:
164,176,211799,6,0,L|296:168,1,112.5,6|0,0:0|0:0,0:0:0:0:
364,156,212163,2,0,P|356:212|328:240,1,75,8|0,0:0|0:0,0:0:0:0:
336,72,212526,2,0,P|396:76|432:100,1,75,8|0,0:0|0:0,0:0:0:0:
256,92,212890,2,0,L|136:84,1,112.5,6|0,0:0|0:0,0:0:0:0:
72,140,213254,2,0,P|48:176|48:224,1,75,8|0,0:0|0:0,0:0:0:0:
136,364,213617,2,0,P|160:328|160:280,1,75,8|0,0:0|0:0,0:0:0:0:
236,188,213981,6,0,B|296:176|296:176|360:192,1,112.5,6|0,0:0|0:0,0:0:0:0:
408,248,214345,2,0,L|400:328,1,75,8|0,0:0|0:0,0:0:0:0:
280,368,214708,2,0,L|288:288,1,75,8|0,0:0|0:0,0:0:0:0:
287,293,214981,1,0,0:0:0:0:
287,293,215072,1,2,0:0:0:0:
248,148,215254,1,0,0:0:0:0:
160,316,215436,1,2,0:0:0:0:
360,192,215618,1,0,0:0:0:0:
144,104,215799,2,0,L|160:204,1,75,2|0,0:0|0:0,0:0:0:0:
287,293,216163,6,0,L|399:293,1,112.5,6|0,0:0|0:0,0:0:0:0:
468,372,216527,2,0,L|380:372,1,75,8|0,0:0|0:0,0:0:0:0:
296,208,216890,2,0,L|376:208,1,75,8|0,0:0|0:0,0:0:0:0:
224,312,217254,2,0,P|164:312|116:352,1,112.5,6|0,0:0|0:0,0:0:0:0:
48,384,217617,2,0,L|40:296,1,75,8|0,0:0|0:0,0:0:0:0:
64,136,217981,1,8,0:0:0:0:
180,220,218163,1,0,0:0:0:0:
180,220,218254,1,0,0:0:0:0:
180,220,218345,6,0,L|304:204,1,112.5,6|0,0:0|0:0,0:0:0:0:
352,100,218708,2,0,L|260:96,1,75,8|0,0:0|0:0,0:0:0:0:
180,220,219072,1,8,0:0:0:0:
44,144,219254,1,0,0:0:0:0:
44,144,219345,1,0,0:0:0:0:
44,144,219435,2,0,L|132:132,1,75,8|0,0:0|0:0,0:0:0:0:
324,224,219799,2,0,P|312:184|304:148,1,75,8|0,0:0|0:0,0:0:0:0:
212,32,220163,1,2,0:0:0:0:
208,56,220254,1,0,0:0:0:0:
204,80,220345,1,0,0:0:0:0:
200,104,220436,1,0,0:0:0:0:
196,128,220526,6,0,L|216:252,1,112.5,6|0,0:0|0:0,0:0:0:0:
280,300,220890,2,0,L|368:292,1,75,8|0,0:0|0:0,0:0:0:0:
168,336,221254,2,0,L|88:328,1,75,8|0,0:0|0:0,0:0:0:0:
296,216,221617,2,0,P|352:168|356:112,1,112.5,6|0,0:0|0:0,0:0:0:0:
308,64,221981,2,0,L|232:64,1,75,8|0,0:0|0:0,0:0:0:0:
296,216,222345,2,0,L|392:220,1,75,8|0,0:0|0:0,0:0:0:0:
196,148,222708,6,0,P|140:140|68:172,1,112.5,6|0,0:0|0:0,0:0:0:0:
44,228,223072,2,0,P|88:240|136:224,1,75,8|0,0:0|0:0,0:0:0:0:
297,205,223435,2,0,P|342:205|384:234,1,75,8|0,0:0|0:0,0:0:0:0:
272,312,223799,2,0,L|152:324,1,112.5,6|0,0:0|0:0,0:0:0:0:
68,364,224163,2,0,P|56:320|68:284,1,75,8|0,0:0|0:0,0:0:0:0:
160,120,224526,2,0,P|168:172|152:208,1,75,8|0,0:0|0:0,0:0:0:0:
88,48,224890,6,0,P|132:24|208:32,1,112.5,6|0,0:0|0:0,0:0:0:0:
252,92,225254,2,0,L|332:104,1,75,8|0,0:0|0:0,0:0:0:0:
88,176,225617,1,8,0:0:0:0:
232,300,225799,1,0,0:0:0:0:
232,300,225890,1,0,0:0:0:0:
232,300,225981,2,0,L|364:284,1,112.5,2|0,0:0|0:0,0:0:0:0:
416,336,226345,2,0,P|432:292|424:256,1,75,8|0,0:0|0:0,0:0:0:0:
328,120,226708,2,0,P|324:168|340:212,1,75,8|0,0:0|0:0,0:0:0:0:
396,60,227072,6,0,P|332:28|284:44,1,112.5,6|0,0:0|0:0,0:0:0:0:
244,120,227435,2,0,L|256:228,1,75,8|0,0:0|0:0,0:0:0:0:
336,140,227799,1,8,0:0:0:0:
140,76,227981,1,0,0:0:0:0:
140,76,228072,1,0,0:0:0:0:
140,76,228163,2,0,L|148:200,1,112.5,2|0,0:0|0:0,0:0:0:0:
200,288,228527,5,0,0:0:0:0:
304,344,228708,1,0,0:0:0:0:
396,264,228890,1,6,0:0:0:0:
492,324,229072,1,2,0:0:0:0:
288,240,229254,6,0,P|252:164|296:92,1,168.750006437302,2|0,0:0|0:0,0:0:0:0:
290,95,229981,1,2,0:0:0:0:
450,56,230345,2,0,P|486:132|442:204,1,168.750006437302,2|0,0:0|0:0,0:0:0:0:
448,201,231072,1,2,0:0:0:0:
288,240,231435,6,0,P|216:220|124:248,1,168.750006437302,2|0,0:0|0:0,0:0:0:0:
127,245,232163,1,2,0:0:0:0:
32,116,232526,2,0,L|164:100,1,112.500004291535,2|0,0:0|0:0,0:0:0:0:
236,136,233072,1,0,0:0:0:0:
316,84,233254,1,0,0:0:0:0:
404,124,233435,1,0,0:0:0:0:
416,224,233617,6,0,L|296:216,1,112.500004291535,2|0,0:0|0:0,0:0:0:0:
236,268,234163,1,0,0:0:0:0:
164,228,234345,1,2,0:0:0:0:
124,300,234526,1,0,0:0:0:0:
196,344,234708,2,0,L|312:348,2,112.500004291535,2|0|2,0:0|0:0|0:0,0:0:0:0:
196,344,235799,5,2,0:0:0:0:
84,208,236890,1,2,0:0:0:0:
148,104,237254,2,0,L|140:36,1,56.2500021457673,2|0,0:0|0:0,0:0:0:0:
256,72,237617,2,0,L|240:148,1,56.2500021457673,0|0,0:0|0:0,0:0:0:0:
208,224,237981,6,0,P|272:228|316:196,1,112.500004291535,2|0,0:0|0:0,0:0:0:0:
440,212,238708,2,0,L|424:276,1,56.2500021457673,0|0,0:0|0:0,0:0:0:0:
364,327,239072,2,0,P|410:356|464:344,2,112.500004291535,2|0|0,0:0|0:0|0:0,0:0:0:0:
80,332,240163,6,0,P|64:280|88:228,1,112.500004291535,2|0,0:0|0:0,0:0:0:0:
224,124,240890,2,0,P|200:92|168:76,1,56.2500021457673,2|0,0:0|0:0,0:0:0:0:
312,120,241254,2,0,P|360:104|376:88,1,56.2500021457673
272,196,241617,2,0,P|280:244|296:264,1,56.2500021457673
344,324,241981,1,2,0:0:0:0:
436,292,242163,1,0,0:0:0:0:
372,224,242345,6,0,L|376:160,1,56.2500021457673,2|0,0:0|0:0,0:0:0:0:
480,132,242708,2,0,L|480:208,1,56.2500021457673
436,292,243072,1,0,0:0:0:0:
316,328,243254,1,0,0:0:0:0:
316,328,243345,1,0,0:0:0:0:
316,328,243435,2,0,L|256:296,1,56.2500021457673,2|0,0:0|0:0,0:0:0:0:
216,172,243799,2,0,P|240:128|224:56,2,112.500004291535,2|0|2,0:0|0:0|0:0,0:0:0:0:
216,172,245617,6,0,P|268:156|332:164,1,112.500004291535,2|0,0:0|0:0,0:0:0:0:
436,288,246345,1,0,0:0:0:0:
152,236,246708,6,0,P|128:172|192:84,1,168.750006437302,4|0,0:0|0:0,0:0:0:0:
288,28,247435,2,0,L|360:24,1,56.2500021457673,4|0,0:0|0:0,0:0:0:0:
440,204,247799,2,0,L|304:188,1,112.500004291535,4|2,0:0|0:0,0:0:0:0:
160,184,248526,2,0,L|96:204,1,56.2500021457673,0|0,0:0|0:0,0:0:0:0:
204,276,248890,6,0,L|376:298,1,168.750006437302,2|0,0:0|0:0,0:0:0:0:
440,352,249617,1,0,0:0:0:0:
160,184,249981,1,2,0:0:0:0:
472,80,250345,1,2,0:0:0:0:
288,328,250708,1,2,0:0:0:0:
88,120,251072,6,0,P|64:184|128:272,1,168.750006437302,4|0,0:0|0:0,0:0:0:0:
224,328,251799,2,0,L|296:332,1,56.2500021457673,4|0,0:0|0:0,0:0:0:0:
376,152,252163,2,0,L|240:168,2,112.500004291535,4|0|2,0:0|0:0|0:0,0:0:0:0:
476,100,253254,6,0,P|492:144|464:216,1,112.500004291535,2|0,0:0|0:0,0:0:0:0:
404,272,253799,1,0,0:0:0:0:
328,212,253981,2,0,L|208:232,1,112.500004291535,2|2,0:0|0:0,0:0:0:0:
76,320,254708,1,0,0:0:0:0:
84,236,254890,1,2,0:0:0:0:
156,280,255072,1,2,0:0:0:0:
260,24,255435,6,0,P|252:76|276:132,1,112.500004291535,4|0,0:0|0:0,0:0:0:0:
396,172,255981,1,4,0:0:0:0:
452,48,256163,2,0,L|376:64,1,56.2500021457673,4|0,0:0|0:0,0:0:0:0:
260,208,256526,2,0,P|216:184|200:108,1,112.500004291535,4|2,0:0|0:0,0:0:0:0:
352,168,257072,1,0,0:0:0:0:
328,308,257254,2,0,L|260:296,1,56.2500021457673,2|0,0:0|0:0,0:0:0:0:
124,312,257617,6,0,P|69:312|12:260,2,112.500004291535,2|0|2,0:0|0:0|0:0,0:0:0:0:
214,360,258708,2,0,P|228:307|208:256,1,112.500004291535,2|0,0:0|0:0,0:0:0:0:
140,188,259254,1,0,0:0:0:0:
196,108,259435,1,2,0:0:0:0:
364,208,259799,6,0,P|292:208|264:164,1,112.500004291535,4|0,0:0|0:0,0:0:0:0:
404,128,260345,1,4,0:0:0:0:
452,204,260526,2,0,L|440:264,1,56.2500021457673
336,308,260890,2,0,L|224:300,2,112.500004291535,4|2|0,0:0|0:0|0:0,0:0:0:0:
112,336,261981,6,0,P|64:296|60:244,1,112.500004291535,2|0,0:0|0:0,0:0:0:0:
88,164,262526,1,0,0:0:0:0:
140,88,262708,2,0,P|144:36|136:16,1,56.2500021457673,2|0,0:0|0:0,0:0:0:0:
200,200,263072,2,0,P|208:248|280:276,1,112.500004291535,2|4,0:0|0:0,0:0:0:0:
392,240,263617,1,4,0:0:0:0:
200,200,263799,1,0,0:0:0:0:
368,92,263981,1,4,0:0:0:0:
276,332,264163,6,0,L|288:200,1,112.500004291535,4|0,0:0|0:0,0:0:0:0:
360,156,264708,1,0,0:0:0:0:
188,255,264890,2,0,L|200:199,1,56.2500021457673,8|0,0:0|0:0,0:0:0:0:
424,104,265254,2,0,P|444:160|416:216,1,112.500004291535,8|4,0:0|0:0,0:0:0:0:
288,284,265799,1,4,0:0:0:0:
156,128,265981,1,0,0:0:0:0:
156,128,266345,6,0,L|268:140,1,112.500004291535,4|0,0:0|0:0,0:0:0:0:
384,128,266890,1,0,0:0:0:0:
428,244,267072,2,0,L|420:320,1,56.2500021457673,8|0,0:0|0:0,0:0:0:0:
248,352,267435,2,0,L|240:276,1,56.2500021457673,8|0,0:0|0:0,0:0:0:0:
156,128,267799,1,4,0:0:0:0:
68,300,267980,1,4,0:0:0:0:
236,168,268162,1,4,0:0:0:0:
140,344,268344,1,4,0:0:0:0:
380,249,268526,6,0,P|348:293|228:285,1,168.750006437302,4|0,0:0|0:0,0:0:0:0:
140,344,269254,2,0,L|120:264,1,56.2500021457673,8|0,0:0|0:0,0:0:0:0:
52,208,269617,2,0,P|44:168|48:136,1,56.2500021457673,10|0,0:0|0:0,0:0:0:0:
168,28,269981,2,0,P|176:68|172:100,1,56.2500021457673,8|0,0:0|0:0,0:0:0:0:
116,276,270345,1,4,0:0:0:0:
288,256,270526,1,4,0:0:0:0:
288,256,270617,1,0,0:0:0:0:
288,256,270708,6,0,P|376:264|428:196,1,168.750006437302,4|0,0:0|0:0,0:0:0:0:
356,128,271435,2,0,P|340:160|340:188,1,56.2500021457673,10|0,0:0|0:0,0:0:0:0:
416,328,271799,1,8,0:0:0:0:
500,188,271981,1,0,0:0:0:0:
500,188,272072,1,0,0:0:0:0:
500,188,272163,2,0,L|472:116,1,56.2500021457673,4|4,0:0|0:0,0:0:0:0:
312,32,272526,2,0,L|336:96,1,56.2500021457673,4|4,0:0|0:0,0:0:0:0:
344,220,272890,6,0,P|268:220|212:292,1,168.750006437302,4|0,0:0|0:0,0:0:0:0:
308,360,273617,2,0,L|376:360,1,56.2500021457673,8|0,0:0|0:0,0:0:0:0:
448,272,273981,2,0,P|460:224|440:156,1,112.500004291535,8|4,0:0|0:0,0:0:0:0:
392,76,274526,1,4,0:0:0:0:
228,168,274708,1,4,0:0:0:0:
228,168,275072,6,0,P|192:124|228:24,1,168.750006437302,4|0,0:0|0:0,0:0:0:0:
312,164,275799,2,0,P|308:200|288:228,1,56.2500021457673,8|0,0:0|0:0,0:0:0:0:
220,272,276163,2,0,L|148:256,1,56.2500021457673,8|0,0:0|0:0,0:0:0:0:
332,328,276526,1,4,0:0:0:0:
228,168,276708,1,4,0:0:0:0:
420,312,276890,1,4,0:0:0:0:
216,360,277072,1,4,0:0:0:0:
316,220,277254,6,0,P|344:132|280:64,1,168.750006437302,4|0,0:0|0:0,0:0:0:0:
208,144,277981,2,0,P|248:156|280:148,1,56.2500021457673,8|0,0:0|0:0,0:0:0:0:
172,64,278345,2,0,P|132:96|132:176,1,112.500004291535,8|4,0:0|0:0,0:0:0:0:
212,256,278890,1,4,0:0:0:0:
336,192,279072,1,4,0:0:0:0:
328,320,279254,1,4,0:0:0:0:
328,320,279345,1,0,0:0:0:0:
328,320,279435,6,0,P|252:320|180:388,1,168.750006437302,4|0,0:0|0:0,0:0:0:0:
80,340,280163,2,0,P|108:304|112:268,1,56.2500021457673,2|0,0:0|0:0,0:0:0:0:
108,160,280526,5,4,0:0:0:0:
256,192,280708,1,0,0:0:0:0:
256,192,280799,1,0,0:0:0:0:
256,192,280890,1,0,0:0:0:0:
344,72,281072,6,0,L|332:40,4,18.75
400,200,281617,6,0,P|408:248|380:312,1,112.500004291535,4|0,0:0|0:0,0:0:0:0:
288,300,282163,1,0,0:0:0:0:
204,344,282345,2,0,L|144:324,1,56.2500021457673,2|0,0:0|0:0,0:0:0:0:
48,196,282708,2,0,L|212:252,1,168.750006437302,12|0,0:0|0:0,0:0:0:0:
308,224,283435,2,0,L|272:168,1,56.2500021457673,2|0,0:0|0:0,0:0:0:0:
200,124,283799,6,0,P|280:84|352:120,1,168.750006437302,2|0,0:0|0:0,0:0:0:0:
308,224,284526,2,0,P|308:284|316:300,1,56.2500021457673,2|0,0:0|0:0,0:0:0:0:
464,308,284890,2,0,P|444:260|368:268,2,112.500004291535,2|2|2,0:0|0:0|0:0,0:0:0:0:
224,320,285981,6,0,L|88:344,1,112.500004291535,4|0,0:0|0:0,0:0:0:0:
20,288,286526,1,0,0:0:0:0:
100,240,286708,2,0,L|76:168,1,56.2500021457673,2|8,0:0|0:0,0:0:0:0:
204,48,287072,2,0,L|188:172,1,112.500004291535,4|0,0:0|0:0,0:0:0:0:
228,244,287617,1,0,0:0:0:0:
296,180,287799,2,0,L|368:176,1,56.2500021457673
424,240,288163,6,0,P|448:188|432:128,2,112.500004291535,2|0|2,0:0|0:0|0:0,0:0:0:0:
344,280,289072,1,0,0:0:0:0:
284,348,289254,2,0,L|216:328,1,56.2500021457673,2|0,0:0|0:0,0:0:0:0:
140,348,289617,1,0,0:0:0:0:
56,288,289799,2,0,L|48:308,4,14.0625005364418,0|0|0|0|0,0:0|0:0|0:0|0:0|0:0,0:0:0:0:
16,208,290163,1,0,0:0:0:0:
64,136,290345,6,0,P|120:148|156:248,1,168.750006437302,8|0,0:0|0:0,0:0:0:0:
240,208,291072,2,0,L|236:144,1,56.2500021457673,2|0,0:0|0:0,0:0:0:0:
312,164,291435,2,0,P|324:208|436:200,1,168.750006437302,8|0,0:0|0:0,0:0:0:0:
468,132,292163,2,0,L|408:112,1,56.2500021457673,2|0,0:0|0:0,0:0:0:0:
324,80,292526,6,0,B|276:76|244:112|244:112|208:72|164:88,1,168.750006437302,8|0,0:0|0:0,0:0:0:0:
100,140,293254,2,0,P|80:96|84:72,1,56.2500021457673,2|0,0:0|0:0,0:0:0:0:
180,164,293617,2,0,P|156:204|76:220,1,112.500004291535,8|0,0:0|0:0,0:0:0:0:
16,256,294163,1,0,0:0:0:0:
56,336,294345,1,2,0:0:0:0:
136,292,294526,1,0,0:0:0:0:
212,344,294708,6,0,L|288:328,1,56.2500021457673,8|0,0:0|0:0,0:0:0:0:
356,352,295072,2,0,L|336:232,1,112.500004291535,2|8,0:0|0:0,0:0:0:0:
388,168,295617,1,8,0:0:0:0:
324,104,295799,2,0,L|264:112,1,56.2500021457673,8|0,0:0|0:0,0:0:0:0:
180,84,296163,2,0,L|204:200,1,112.500004291535,2|8,0:0|0:0,0:0:0:0:
152,268,296708,1,0,0:0:0:0:
64,252,296890,6,0,P|88:332|184:352,1,168.750006437302,10|0,0:0|0:0,0:0:0:0:
248,312,297617,2,0,P|284:300|320:308,1,56.2500021457673,2|0,0:0|0:0,0:0:0:0:
396,332,297981,6,0,P|440:336|464:328,1,56.2500021457673,4|0,0:0|0:0,0:0:0:0:
451,333,298254,1,0,0:0:0:0:
451,333,298345,1,8,0:0:0:0:
464,236,298526,2,0,L|488:228,2,14.0625005364418
424,252,298708,2,0,L|432:164,1,75,2|0,0:0|0:0,0:0:0:0:
284,112,299072,6,0,P|296:172|276:240,1,112.5,6|0,0:0|0:0,0:0:0:0:
224,284,299436,2,0,L|124:300,1,75,8|0,0:0|0:0,0:0:0:0:
144,144,299800,2,0,L|71:130,1,75,8|0,0:0|0:0,0:0:0:0:
284,112,300163,2,0,L|404:120,1,112.5,6|0,0:0|0:0,0:0:0:0:
464,180,300527,2,0,P|500:216|512:252,1,75,8|0,0:0|0:0,0:0:0:0:
392,292,300891,2,0,P|384:336|344:368,1,75,8|0,0:0|0:0,0:0:0:0:
280,196,301254,6,0,L|292:84,1,112.5,6|0,0:0|0:0,0:0:0:0:
364,32,301618,2,0,P|384:80|380:108,1,75,8|0,0:0|0:0,0:0:0:0:
192,200,301981,2,0,L|200:120,1,75,8|0,0:0|0:0,0:0:0:0:
200,126,302254,1,0,0:0:0:0:
200,126,302345,1,2,0:0:0:0:
72,212,302527,1,0,0:0:0:0:
220,292,302709,1,2,0:0:0:0:
92,112,302891,1,0,0:0:0:0:
304,232,303072,2,0,L|400:244,1,75,2|0,0:0|0:0,0:0:0:0:
496,156,303436,6,0,L|384:156,1,112.5,6|0,0:0|0:0,0:0:0:0:
315,104,303800,2,0,L|335:24,1,75,8|0,0:0|0:0,0:0:0:0:
212,196,304163,2,0,L|192:104,1,75,8|0,0:0|0:0,0:0:0:0:
152,284,304527,2,0,P|208:304|272:280,1,112.5,6|0,0:0|0:0,0:0:0:0:
336,256,304891,2,0,P|396:268|420:288,1,75,8|0,0:0|0:0,0:0:0:0:
276,172,305254,2,0,P|316:156|360:156,1,75,8|0,0:0|0:0,0:0:0:0:
352,340,305618,6,0,L|228:356,1,112.5,6|0,0:0|0:0,0:0:0:0:
176,296,305981,2,0,L|192:204,1,75,8|0,0:0|0:0,0:0:0:0:
76,268,306345,1,8,0:0:0:0:
304,248,306527,1,0,0:0:0:0:
304,248,306618,1,0,0:0:0:0:
304,248,306709,2,0,L|296:152,1,75,6|0,0:0|0:0,0:0:0:0:
172,48,307072,2,0,L|180:144,1,75,10|0,0:0|0:0,0:0:0:0:
176,296,307436,1,2,0:0:0:0:
180,276,307527,1,0,0:0:0:0:
184,252,307618,1,0,0:0:0:0:
188,228,307709,1,0,0:0:0:0:
192,204,307800,6,0,L|76:212,1,112.5,6|0,0:0|0:0,0:0:0:0:
24,292,308163,2,0,L|104:300,1,75,8|0,0:0|0:0,0:0:0:0:
128,116,308527,2,0,L|48:124,1,75,8|0,0:0|0:0,0:0:0:0:
272,240,308891,2,0,P|284:196|252:128,1,112.5,6|0,0:0|0:0,0:0:0:0:
224,56,309254,2,0,L|300:56,1,75,8|0,0:0|0:0,0:0:0:0:
188,196,309618,2,0,L|92:192,1,75,8|0,0:0|0:0,0:0:0:0:
312,144,309981,6,0,P|368:152|440:120,1,112.5,6|0,0:0|0:0,0:0:0:0:
500,104,310345,2,0,P|468:64|434:54,1,75,8|0,0:0|0:0,0:0:0:0:
276,68,310709,2,0,P|224:72|188:60,1,75,8|0,0:0|0:0,0:0:0:0:
84,44,311072,2,0,L|124:176,1,112.5,6|0,0:0|0:0,0:0:0:0:
172,220,311436,2,0,P|124:240|88:232,1,75,8|0,0:0|0:0,0:0:0:0:
216,320,311800,2,0,P|280:320|304:332,1,75,8|0,0:0|0:0,0:0:0:0:
432,240,312163,6,0,P|372:260|308:220,1,112.5,6|0,0:0|0:0,0:0:0:0:
284,172,312527,2,0,L|296:84,1,75,8|0,0:0|0:0,0:0:0:0:
416,32,312891,2,0,L|432:140,1,75,8|0,0:0|0:0,0:0:0:0:
368,172,313163,1,0,0:0:0:0:
368,172,313254,2,0,L|236:188,1,112.5,6|0,0:0|0:0,0:0:0:0:
184,136,313618,2,0,P|172:184|180:224,1,75,8|0,0:0|0:0,0:0:0:0:
84,336,313981,2,0,P|88:288|72:244,1,75,8|0,0:0|0:0,0:0:0:0:
36,152,314345,6,0,P|44:96|112:44,1,112.5,6|0,0:0|0:0,0:0:0:0:
164,48,314709,6,0,L|244:96,1,75,8|0,0:0|0:0,0:0:0:0:
356,72,315072,2,0,L|320:168,1,75,8|0,0:0|0:0,0:0:0:0:
448,224,315436,2,0,L|320:232,1,112.5,2|0,0:0|0:0,0:0:0:0:
240,276,315799,5,0,0:0:0:0:
156,208,315980,1,0,0:0:0:0:
76,280,316162,1,6,0:0:0:0:
160,352,316344,1,2,0:0:0:0:
160,352,316526,6,0,L|316:340,1,150,2|0,0:0|0:0,0:0:0:0:
448,352,317617,2,0,P|440:272|392:216,1,150,2|0,0:0|0:0,0:0:0:0:
280,168,318708,6,0,P|261:103|304:36,1,150,2|0,0:0|0:0,0:0:0:0:
360,116,319799,2,0,P|379:181|336:248,1,150,2|0,0:0|0:0,0:0:0:0:
260,276,320708,1,0,0:0:0:0:
260,276,320890,6,0,P|194:259|157:189,1,150,2|0,0:0|0:0,0:0:0:0:
164,108,321799,1,0,0:0:0:0:
164,108,321981,5,2,0:0:0:0:
304,72,322345,1,2,0:0:0:0:
388,184,322890,6,0,B|432:164|472:192|480:236|464:272|420:292|380:284|336:240|336:240|284:192|244:188|208:204|188:236|196:280|228:312|288:292,1,525,2|2,0:0|0:0,0:0:0:0:
