osu file format v14

[General]
AudioFilename: audio.mp3
AudioLeadIn: 0
PreviewTime: 58032
Countdown: 0
SampleSet: None
StackLeniency: 0.7
Mode: 0
LetterboxInBreaks: 0
WidescreenStoryboard: 1

[Editor]
Bookmarks: 17480,30721,43963,50584,53894,58859,72101,82032,88652,98584,103549,110170,116790,123411,131687,144928,158170,161480,174721,189618,202859,216101,245894
DistanceSpacing: 1.6
BeatDivisor: 4
GridSize: 32
TimelineZoom: 2.899999

[Metadata]
Title:Hanazukiyo
TitleUnicode:花月夜
Artist:Yonder Voice
ArtistUnicode:Yonder Voice
Creator:MoFish
Version:Chocoki & douzi's Lunatic
Source:東方萃夢想
Tags:touhou project yonder voice yoosanhyakurei saigetsu ibuki suika
BeatmapID:4574052
BeatmapSetID:2144260

[Difficulty]
HPDrainRate:4.5
CircleSize:3.8
OverallDifficulty:8
ApproachRate:8.5
SliderMultiplier:1.6
SliderTickRate:1

[Events]
//Background and Video events
0,0,"suika.jpg",0,0
//Break Periods
2,30921,36208
2,103549,109036
2,162721,174046
//Storyboard Layer 0 (Background)
//Storyboard Layer 1 (Fail)
//Storyboard Layer 2 (Pass)
//Storyboard Layer 3 (Foreground)
//Storyboard Layer 4 (Overlay)
//Storyboard Sound Samples

[TimingPoints]
2584,413.793103448276,4,2,1,60,1,0
14162,-76.9230769230769,4,2,1,60,0,0
17480,-100,4,2,1,70,0,1
24093,-83.3333333333333,4,2,1,70,0,1
30721,-83.3333333333333,4,2,1,70,0,0
43963,-133.333333333333,4,2,1,70,0,0
45618,-100,4,2,1,70,0,0
58859,-100,4,2,1,70,0,1
71997,-100,4,2,1,70,0,0
72101,-100,4,2,1,60,0,1
82032,-66.6666666666667,4,2,1,60,0,1
85342,-66.6666666666667,4,2,1,60,0,0
87618,-58.8235294117647,4,2,1,60,0,0
88652,-100,4,2,1,60,0,1
97135,-100,4,2,1,60,0,1
97756,-76.9230769230769,4,2,1,60,0,0
116790,-133.333333333333,4,2,1,60,0,0
118446,-100,4,2,1,60,0,0
131687,-83.3333333333333,4,2,1,60,0,1
144825,-83.3333333333333,4,2,1,60,0,0
144928,-83.3333333333333,4,2,1,60,0,1
154859,-66.6666666666667,4,2,1,60,0,1
155687,-83.3333333333333,4,2,1,60,0,1
158170,-83.3333333333333,4,2,1,60,0,0
174721,-100,4,2,1,60,0,0
184859,-76.9230769230769,4,2,1,60,0,0
189204,-100,4,2,1,60,0,0
201204,-76.9230769230769,4,2,1,60,0,0
202859,-83.3333333333333,4,2,1,60,0,0
216101,-83.3333333333333,4,2,1,60,0,1
229239,-83.3333333333333,4,2,1,60,0,0
229342,-83.3333333333333,4,2,1,60,0,1
239273,-66.6666666666667,4,2,1,60,0,1
242584,-83.3333333333333,4,2,1,60,0,0

[HitObjects]
12,26,2170,5,0,0:0:0:0:
19,60,2377,1,0,0:0:0:0:
187,139,2584,5,0,0:0:0:0:
145,101,2790,1,0,0:0:0:0:
96,128,2997,1,0,0:0:0:0:
107,182,3204,1,0,0:0:0:0:
162,188,3411,2,0,P|185:259|142:333,1,160
14,277,4032,6,0,P|47:255|100:258,1,80
162,188,4446,1,0,0:0:0:0:
205,222,4652,1,0,0:0:0:0:
253,193,4859,1,0,0:0:0:0:
240,138,5066,2,0,P|313:104|392:136,1,160
487,25,5687,5,0,0:0:0:0:
476,46,5894,2,0,L|472:138,1,80
356,92,6308,1,0,0:0:0:0:
369,111,6515,1,0,0:0:0:0:
384,128,6721,2,0,L|384:214,1,80
492,249,7135,1,0,0:0:0:0:
477,267,7342,1,0,0:0:0:0:
397,321,7549,5,0,0:0:0:0:
478,354,7756,1,0,0:0:0:0:
385,233,7963,2,0,P|336:239|315:271,1,80
158,316,8377,2,0,P|199:327|240:311,1,80
242,122,8790,5,0,0:0:0:0:
239,210,8997,1,0,0:0:0:0:
293,278,9204,2,0,P|309:313|342:335,1,80
175,276,9618,2,0,P|153:308|153:348,1,80
160,164,10032,2,0,P|121:161|74:184,1,80
177,276,10446,5,0,0:0:0:0:
239,210,10652,1,0,0:0:0:0:
242,122,10859,2,0,P|261:88|254:43,1,80
316,171,11273,2,0,P|354:177|390:159,1,80
293,278,11687,2,0,P|310:314|356:344,1,80
390,159,12101,5,0,0:0:0:0:
309,194,12308,1,0,0:0:0:0:
318,23,12515,2,0,L|318:108,1,80
86,178,12928,5,0,0:0:0:0:
167,302,13135,1,0,0:0:0:0:
22,227,13342,1,0,0:0:0:0:
156,140,13549,2,0,L|159:225,1,80
54,340,13963,1,0,0:0:0:0:
156,140,14170,6,0,B|227:143|237:209|237:209|307:232|307:232|284:161|299:92|360:78|427:77|485:119|466:200|466:200|391:210|391:210|409:265|359:337|274:304,1,779.999964294435
256,192,15825,12,0,17273,0:0:0:0:
122,111,17480,5,0,0:0:0:0:
25,130,17687,1,0,0:0:0:0:
220,81,17894,1,0,0:0:0:0:
95,18,18101,1,0,0:0:0:0:
149,201,18308,1,0,0:0:0:0:
314,45,18515,5,0,0:0:0:0:
326,95,18618,1,0,0:0:0:0:
299,139,18721,1,0,0:0:0:0:
350,290,18928,1,0,0:0:0:0:
393,198,19135,5,0,0:0:0:0:
245,332,19342,1,0,0:0:0:0:
438,279,19549,1,0,0:0:0:0:
264,179,19756,1,0,0:0:0:0:
326,349,19963,1,0,0:0:0:0:
390,159,20170,5,0,0:0:0:0:
368,116,20273,1,0,0:0:0:0:
326,95,20377,1,0,0:0:0:0:
223,218,20584,1,0,0:0:0:0:
148,367,20790,5,0,0:0:0:0:
288,275,20997,1,0,0:0:0:0:
172,152,21204,1,0,0:0:0:0:
215,314,21411,1,0,0:0:0:0:
294,165,21618,1,0,0:0:0:0:
223,12,21825,5,0,0:0:0:0:
231,63,21928,1,0,0:0:0:0:
277,86,22032,1,0,0:0:0:0:
127,103,22239,1,0,0:0:0:0:
59,231,22446,5,0,0:0:0:0:
0,335,22652,1,0,0:0:0:0:
51,344,22756,1,0,0:0:0:0:
102,341,22859,1,0,0:0:0:0:
51,344,23066,5,0,0:0:0:0:
102,341,23170,1,0,0:0:0:0:
150,322,23273,1,0,0:0:0:0:
102,341,23480,5,0,0:0:0:0:
150,322,23584,1,0,0:0:0:0:
185,284,23687,1,0,0:0:0:0:
191,232,23790,1,0,0:0:0:0:
219,188,23894,1,0,0:0:0:0:
268,173,23997,1,0,0:0:0:0:
315,194,24101,6,0,P|359:216|380:266,1,95.9999970703126
385,274,24411,1,0,0:0:0:0:
390,292,24515,1,0,0:0:0:0:
284,357,24721,1,0,0:0:0:0:
346,171,24928,1,0,0:0:0:0:
493,262,25135,1,0,0:0:0:0:
493,242,25239,1,0,0:0:0:0:
492,222,25342,1,0,0:0:0:0:
385,274,25549,1,0,0:0:0:0:
444,132,25756,5,0,0:0:0:0:
364,48,25963,2,0,P|389:31|410:28,2,47.9999985351563
331,189,26377,1,0,0:0:0:0:
119,69,26584,6,0,B|165:46|165:46|184:2,1,95.9999970703126
256,154,26894,2,0,B|208:133|208:133|162:147,1,95.9999970703126
283,21,27204,2,0,B|282:53|282:53|306:75,1,47.9999985351563
306,91,27411,5,0,0:0:0:0:
444,201,27618,1,0,0:0:0:0:
403,225,27721,1,0,0:0:0:0:
354,220,27825,1,0,0:0:0:0:
310,348,28032,5,0,0:0:0:0:
260,329,28135,1,0,0:0:0:0:
250,276,28239,2,0,P|247:232|270:181,1,95.9999970703126
194,263,28549,2,0,P|207:214|246:181,1,95.9999970703126
147,243,28859,2,0,P|173:210|190:195,1,47.9999985351563
241,87,29066,6,0,P|265:71|294:69,3,47.9999985351563
142,46,29480,2,0,P|146:19|164:-7,3,47.9999985351563
119,68,29894,5,0,0:0:0:0:
118,91,29997,1,0,0:0:0:0:
117,114,30101,1,0,0:0:0:0:
117,137,30204,1,0,0:0:0:0:
89,170,30308,5,0,0:0:0:0:
33,222,30411,1,0,0:0:0:0:
65,291,30515,1,0,0:0:0:0:
141,285,30618,1,0,0:0:0:0:
156,210,30721,1,0,0:0:0:0:
349,60,36928,5,0,0:0:0:0:
288,125,37135,1,0,0:0:0:0:
394,138,37342,5,0,0:0:0:0:
249,54,37549,1,0,0:0:0:0:
214,79,37652,1,0,0:0:0:0:
203,121,37756,1,0,0:0:0:0:
338,197,37963,1,0,0:0:0:0:
349,60,38170,5,0,0:0:0:0:
294,273,38377,1,0,0:0:0:0:
334,289,38481,1,0,0:0:0:0:
375,274,38584,1,0,0:0:0:0:
349,60,38790,1,0,0:0:0:0:
338,197,38997,5,0,0:0:0:0:
473,150,39204,1,0,0:0:0:0:
480,107,39308,1,0,0:0:0:0:
456,70,39411,1,0,0:0:0:0:
349,60,39618,5,0,0:0:0:0:
231,251,39825,1,0,0:0:0:0:
273,81,40032,1,0,0:0:0:0:
368,202,40239,1,0,0:0:0:0:
170,189,40446,1,0,0:0:0:0:
313,279,40652,1,0,0:0:0:0:
317,288,41480,5,0,0:0:0:0:
115,350,41894,1,0,0:0:0:0:
153,142,42308,2,0,P|181:183|196:243,1,95.9999970703126
200,265,42618,1,0,0:0:0:0:
203,303,42721,1,0,0:0:0:0:
317,123,42928,5,0,0:0:0:0:
290,88,43032,1,0,0:0:0:0:
247,86,43135,1,0,0:0:0:0:
194,226,43342,1,0,0:0:0:0:
326,151,43549,1,0,0:0:0:0:
138,117,43756,1,0,0:0:0:0:
294,232,43963,6,0,B|315:275|334:345|334:345|359:293|412:287,1,210.000008010865
464,197,44790,2,0,P|440:224|420:281,1,90.0000034332277
489,363,45204,2,0,P|471:320|430:296,1,90.0000034332277
400,290,45618,6,0,B|319:223|224:387|133:318,1,280
44,286,46446,2,0,L|15:368,1,80
130,313,46859,2,0,L|116:226,1,80
106,118,47273,6,0,P|68:221|2:124,1,280
56,160,48101,6,0,P|178:174|225:40,1,280
217,15,48928,1,0,0:0:0:0:
130,83,49135,2,0,P|111:62|83:52,2,40
213,177,49549,5,0,0:0:0:0:
209,200,49652,1,0,0:0:0:0:
204,223,49756,1,0,0:0:0:0:
343,74,49963,1,0,0:0:0:0:
322,176,50170,1,0,0:0:0:0:
256,94,50377,1,0,0:0:0:0:
288,265,50584,5,0,0:0:0:0:
413,302,50790,1,0,0:0:0:0:
377,321,50894,1,0,0:0:0:0:
353,352,50997,1,0,0:0:0:0:
483,250,51204,1,0,0:0:0:0:
483,373,51411,5,0,0:0:0:0:
416,176,51618,1,0,0:0:0:0:
372,311,51825,1,0,0:0:0:0:
483,250,52032,1,0,0:0:0:0:
319,177,52239,5,0,0:0:0:0:
424,74,52446,1,0,0:0:0:0:
446,101,52549,1,0,0:0:0:0:
458,134,52652,1,0,0:0:0:0:
421,262,52859,1,0,0:0:0:0:
281,108,53066,5,0,0:0:0:0:
396,188,53273,1,0,0:0:0:0:
341,44,53480,1,0,0:0:0:0:
309,188,53687,1,0,0:0:0:0:
94,49,53894,6,0,P|131:35|170:44,1,80
227,116,54204,2,0,P|232:156|214:191,1,80
137,155,54515,2,0,L|138:115,1,40
23,141,54721,6,0,P|25:180|50:212,1,80
230,210,55032,2,0,P|248:175|243:136,1,80
141,263,55342,2,0,L|149:328,1,40
249,362,55549,6,0,L|347:338,1,80
470,304,55859,2,0,L|381:257,1,80
302,187,56170,2,0,L|301:226,1,40
249,362,56377,6,0,L|151:336,1,80
29,301,56687,2,0,L|118:255,1,80
199,187,56998,2,0,L|198:247,1,40
249,362,57204,5,0,0:0:0:0:
249,209,57515,1,0,0:0:0:0:
249,56,57825,1,0,0:0:0:0:
322,132,58032,5,0,0:0:0:0:
328,157,58239,1,0,0:0:0:0:
428,100,58446,1,0,0:0:0:0:
440,178,58652,1,0,0:0:0:0:
474,250,58859,6,0,B|463:289|427:305|394:292|394:292|396:262,1,120
317,239,59273,2,0,P|304:277|321:321,1,80
216,281,59686,1,0,0:0:0:0:
155,185,59893,1,0,0:0:0:0:
5,314,60100,2,0,P|56:329|113:285,1,120
155,185,60514,5,0,0:0:0:0:
67,349,60721,1,0,0:0:0:0:
326,301,60928,5,0,0:0:0:0:
203,268,61134,1,0,0:0:0:0:
376,183,61341,2,0,L|271:211,1,80
485,142,61756,1,0,0:0:0:0:
373,59,61963,1,0,0:0:0:0:
298,203,62170,6,0,B|235:198|252:138|172:143,1,120
167,163,62584,1,0,0:0:0:0:
285,105,62790,1,0,0:0:0:0:
192,258,62997,2,0,P|150:265|118:296,1,80
31,321,63308,1,0,0:0:0:0:
31,321,63411,2,0,P|36:272|19:230,1,80
137,103,63825,5,0,0:0:0:0:
286,47,64032,1,0,0:0:0:0:
288,76,64135,1,0,0:0:0:0:
286,108,64239,1,0,0:0:0:0:
235,242,64446,1,0,0:0:0:0:
368,127,64652,6,0,B|394:118|394:118|457:149,1,80,0|0,0:3|0:3,0:3:0:0:
470,157,64963,1,0,0:3:0:0:
498,169,65066,1,0,0:3:0:0:
395,281,65273,1,0,0:0:0:0:
250,325,65480,6,0,P|194:298|141:323,1,120
146,348,65894,1,0,0:0:0:0:
313,256,66101,1,0,0:0:0:0:
383,203,66308,2,0,B|437:239|498:196,1,120
495,167,66721,1,0,0:0:0:0:
312,115,66928,1,0,0:0:0:0:
161,221,67135,6,0,B|216:222|200:193|260:191,1,80
234,194,67445,1,0,0:0:0:0:
234,194,67549,1,0,0:0:0:0:
312,278,67756,1,0,0:0:0:0:
161,221,67963,2,0,P|102:210|60:168,1,120
58,147,68377,1,0,0:0:0:0:
75,338,68584,1,0,0:0:0:0:
161,221,68790,6,0,B|149:189|149:189|165:131,1,80
175,110,69100,1,0,0:0:0:0:
174,79,69204,1,0,0:0:0:0:
248,190,69411,1,0,0:0:0:0:
89,175,69618,1,0,0:0:0:0:
257,69,69825,1,0,0:0:0:0:
427,171,70032,2,0,P|387:200|349:194,1,80
440,78,70446,5,0,0:0:0:0:
420,259,70652,1,0,0:0:0:0:
420,259,70756,1,0,0:0:0:0:
420,259,70859,1,0,0:0:0:0:
281,155,71066,1,0,0:0:0:0:
254,332,71273,5,0,0:0:0:0:
224,351,71377,1,0,0:0:0:0:
189,344,71480,1,0,0:0:0:0:
171,308,71584,1,0,0:0:0:0:
182,275,71687,1,0,0:0:0:0:
163,245,71790,1,0,0:0:0:0:
126,235,71894,1,0,0:0:0:0:
93,248,71997,1,0,0:0:0:0:
58,258,72101,6,0,P|61:197|74:124,1,120
92,113,72515,1,0,0:0:0:0:
142,207,72721,1,0,0:0:0:0:
27,66,72928,2,0,P|58:36|97:32,1,80
262,83,73342,1,0,0:0:0:0:
182,127,73549,1,0,0:0:0:0:
313,155,73756,5,0,0:0:0:0:
184,35,73963,1,0,0:0:0:0:
184,35,74066,1,0,0:0:0:0:
184,35,74170,1,0,0:0:0:0:
232,211,74377,1,0,0:0:0:0:
351,70,74584,1,0,0:0:0:0:
393,252,74790,1,0,0:0:0:0:
393,252,74894,1,0,0:0:0:0:
393,252,74997,2,0,P|351:250|299:232,1,80
37,309,75411,6,0,P|102:313|160:293,1,120
182,308,75825,1,0,0:0:0:0:
0,375,76032,1,0,0:0:0:0:
92,238,76239,2,0,P|91:183|34:153,1,120
10,157,76652,1,0,0:0:0:0:
129,56,76859,1,0,0:0:0:0:
116,215,77066,5,0,0:0:0:0:
33,28,77273,1,0,0:0:0:0:
203,125,77480,1,0,0:0:0:0:
222,161,77584,1,0,0:0:0:0:
256,183,77687,1,0,0:0:0:0:
297,183,77790,1,0,0:0:0:0:
333,163,77894,2,0,P|337:120|323:68,1,80
420,147,78204,1,0,0:0:0:0:
420,147,78308,2,0,P|412:197|423:239,1,80
209,299,78721,6,0,P|267:273|332:286,1,120
350,308,79135,1,0,0:0:0:0:
189,332,79342,1,0,0:0:0:0:
245,151,79549,2,0,P|261:194|254:241,1,80
73,290,79963,1,0,0:0:0:0:
162,211,80170,1,0,0:0:0:0:
113,120,80377,6,0,B|71:106|71:106|18:135,1,80
189,323,80790,1,0,0:0:0:0:
162,211,80997,1,0,0:0:0:0:
222,132,81204,2,0,B|266:116|266:116|318:145,1,80
397,200,81618,1,0,0:0:0:0:
289,252,81825,1,0,0:0:0:0:
471,352,82032,6,0,B|420:361|371:327|367:270|367:270|407:292,1,180.000006866455
422,283,82446,1,0,0:0:0:0:
300,356,82652,1,0,0:0:0:0:
325,190,82859,1,0,0:0:0:0:
505,286,83066,2,0,P|496:228|436:198,1,120.000004577637
333,277,83480,1,0,0:0:0:0:
347,104,83687,2,0,B|371:158|326:193|326:193|266:201|260:160|227:136|181:162,1,240.000009155274
181,173,84204,1,0,0:0:0:0:
167,196,84308,1,0,0:0:0:0:
12,126,84515,6,0,P|67:109|128:152,1,120.000004577637
77,293,84825,2,0,P|40:234|64:188,1,120.000004577637
200,96,85135,2,0,P|209:136|201:167,1,60.0000022888184
146,211,85342,6,0,P|222:245|280:170,1,180.000006866455
298,148,85756,1,0,0:0:0:0:
146,223,85963,1,0,0:0:0:0:
244,322,86170,1,0,0:0:0:0:
195,40,86377,2,0,P|180:97|205:166,1,120.000004577637
312,249,86790,1,0,0:0:0:0:
418,48,86997,5,0,0:0:0:0:
417,65,87204,1,0,0:0:0:0:
416,85,87618,2,0,B|377:181|357:226|330:260|330:260|300:232|271:199|263:132|311:84|311:84|367:123|396:169|426:204|437:254,1,612.000011672974
418,297,88652,5,0,0:0:0:0:
333,353,88859,1,0,0:0:0:0:
419,209,89066,1,0,0:0:0:0:
496,354,89273,1,0,0:0:0:0:
339,256,89480,1,0,0:0:0:0:
469,127,89687,5,0,0:0:0:0:
499,160,89790,1,0,0:0:0:0:
509,204,89894,1,0,0:0:0:0:
340,163,90101,1,0,0:0:0:0:
383,37,90308,5,0,0:0:0:0:
419,209,90515,1,0,0:0:0:0:
291,42,90721,1,0,0:0:0:0:
469,127,90928,1,0,0:0:0:0:
340,163,91135,1,0,0:0:0:0:
173,204,91342,5,0,0:0:0:0:
183,160,91446,1,0,0:0:0:0:
213,127,91549,1,0,0:0:0:0:
251,294,91756,1,0,0:0:0:0:
87,296,91963,5,0,0:0:0:0:
258,211,92170,1,0,0:0:0:0:
106,149,92377,1,0,0:0:0:0:
169,299,92584,1,0,0:0:0:0:
203,140,92790,1,0,0:0:0:0:
71,42,92997,5,0,0:0:0:0:
41,62,93101,1,0,0:0:0:0:
27,95,93204,1,0,0:0:0:0:
16,214,93411,1,0,0:0:0:0:
203,121,93618,5,0,0:0:0:0:
152,232,93825,1,0,0:0:0:0:
190,245,93928,1,0,0:0:0:0:
229,234,94032,1,0,0:0:0:0:
190,245,94239,5,0,0:0:0:0:
229,234,94343,1,0,0:0:0:0:
266,248,94446,1,0,0:0:0:0:
229,234,94652,5,0,0:0:0:0:
266,248,94756,1,0,0:0:0:0:
288,282,94859,1,0,0:0:0:0:
313,313,94963,1,0,0:0:0:0:
352,320,95066,1,0,0:0:0:0:
392,318,95170,1,0,0:0:0:0:
425,295,95273,6,0,P|459:263|456:204,1,80
464,207,95584,1,0,0:0:0:0:
462,186,95687,1,0,0:0:0:0:
362,224,95894,1,0,0:0:0:0:
280,59,96101,1,0,0:0:0:0:
263,214,96308,1,0,2:0:0:0:
263,188,96412,1,0,2:0:0:0:
262,163,96515,1,0,2:0:0:0:
277,322,96721,1,0,0:0:0:0:
160,332,96928,5,0,0:0:0:0:
94,228,97135,2,0,P|65:241|53:265,2,40
206,156,97549,1,0,0:0:0:0:
338,38,97756,6,0,P|362:85|339:150,1,103.999995239258
206,156,98066,2,0,P|229:106|279:94,1,103.999995239258
377,213,98377,2,0,P|340:218|314:206,1,51.999997619629,0|0,2:0|2:0,2:0:0:0:
290,208,98584,5,0,0:0:0:0:
213,323,98790,1,0,0:0:0:0:
181,290,98893,1,0,0:0:0:0:
134,290,98997,1,0,0:0:0:0:
28,174,99204,5,0,0:0:0:0:
73,158,99308,1,0,0:0:0:0:
124,162,99411,2,0,P|173:143|238:163,1,103.999995239258
260,282,99721,2,0,P|211:265|182:207,1,103.999995239258
291,95,100032,2,0,P|303:132|296:162,1,51.999997619629
389,299,100239,6,0,P|377:276|356:262,3,51.999997619629
481,182,100652,2,0,P|463:201|456:226,3,51.999997619629
464,158,101066,5,0,0:0:0:0:
439,149,101170,1,0,0:0:0:0:
413,151,101273,1,0,0:0:0:0:
388,161,101377,1,0,0:0:0:0:
343,175,101480,5,0,0:0:0:0:
286,237,101584,1,0,0:0:0:0:
211,200,101687,1,0,0:0:0:0:
218,117,101790,1,0,0:0:0:0:
300,102,101894,1,0,0:0:0:0:
458,357,109756,5,0,0:0:0:0:
369,254,109963,1,0,0:0:0:0:
285,360,110170,5,0,0:0:0:0:
456,270,110377,2,0,P|465:245|490:230,2,51.999997619629
283,217,110790,5,0,0:0:0:0:
374,342,110997,1,0,0:0:0:0:
193,283,111204,1,0,0:0:0:0:
291,116,111411,1,0,0:0:0:0:
315,125,111515,1,0,0:0:0:0:
334,141,111618,1,0,0:0:0:0:
175,157,111825,5,0,0:0:0:0:
334,141,112032,1,0,0:0:0:0:
359,135,112135,1,0,0:0:0:0:
381,121,112239,1,0,0:0:0:0:
369,254,112446,5,0,0:0:0:0:
315,335,112652,1,0,0:0:0:0:
287,205,112859,1,0,0:0:0:0:
464,186,113066,1,0,0:0:0:0:
455,294,113273,1,0,0:0:0:0:
473,85,113480,5,0,0:0:0:0:
464,81,114308,5,0,0:0:0:0:
286,24,114721,1,0,0:0:0:0:
293,211,115135,2,0,P|329:171|344:100,1,103.999995239258
348,103,115446,1,0,0:0:0:0:
352,82,115549,1,0,0:0:0:0:
139,155,115756,5,0,0:0:0:0:
180,158,115859,1,0,0:0:0:0:
206,190,115963,1,0,0:0:0:0:
185,14,116170,1,0,0:0:0:0:
306,136,116377,1,0,0:0:0:0:
107,70,116584,1,0,0:0:0:0:
272,64,116790,6,0,B|311:66|339:84|339:84|319:126|286:149|229:155,1,210.000008010865
142,145,117618,2,0,P|160:99|197:80,1,90.0000034332277
296,202,118032,2,0,P|253:192|227:141,1,90.0000034332277
349,135,118446,2,0,B|424:162|346:276|384:303|440:329|490:310|485:252,1,280
390,274,119273,6,0,L|407:388,1,80
482,252,119687,2,0,L|469:150,1,80
265,91,120101,6,0,B|260:35|260:35|309:62|347:107,1,160
281,205,120721,1,0,0:0:0:0:
181,271,120928,2,0,B|128:292|128:292|140:237|172:187,1,160
281,205,121549,1,0,0:0:0:0:
281,205,121756,5,0,0:0:0:0:
370,272,121963,2,0,P|345:302|322:314,2,40
324,122,122377,5,0,0:0:0:0:
328,99,122480,1,0,0:0:0:0:
333,76,122584,1,0,0:0:0:0:
194,225,122791,1,0,0:0:0:0:
215,123,122998,1,0,0:0:0:0:
281,205,123205,1,0,0:0:0:0:
153,52,123411,5,0,0:0:0:0:
57,200,123618,1,0,0:0:0:0:
75,160,123721,1,0,0:0:0:0:
62,117,123825,1,0,0:0:0:0:
114,268,124032,1,0,0:0:0:0:
22,357,124239,5,0,0:0:0:0:
194,235,124446,1,0,0:0:0:0:
12,268,124652,1,0,0:0:0:0:
198,329,124859,1,0,0:0:0:0:
242,158,125066,1,0,0:0:0:0:
187,31,125273,5,0,0:0:0:0:
153,52,125377,1,0,0:0:0:0:
129,84,125480,1,0,0:0:0:0:
312,106,125687,1,0,0:0:0:0:
286,239,125894,5,0,0:0:0:0:
391,154,126101,1,0,0:0:0:0:
236,66,126308,1,0,0:0:0:0:
377,237,126515,1,0,0:0:0:0:
396,35,126721,6,0,P|359:48|334:78,1,80
456,176,127032,2,0,P|443:139|413:114,1,80
338,160,127342,2,0,P|320:166|300:168,1,40
245,90,127549,6,0,P|218:119|209:157,1,80
366,201,127859,2,0,P|337:175|298:168,1,80
227,265,128170,2,0,P|242:254|250:235,1,40
209,157,128377,6,0,P|170:159|137:181,1,80
266,97,128687,2,0,P|270:55|261:19,1,80
300,168,128997,2,0,P|319:173|338:169,1,40
426,184,129204,6,0,P|407:221|366:247,1,80
414,104,129515,2,0,P|455:105|497:134,1,80
345,153,129825,2,0,P|331:132|327:108,1,40
263,22,130032,5,0,0:0:0:0:
263,175,130343,1,0,0:0:0:0:
263,328,130653,1,0,0:0:0:0:
148,294,130859,5,0,0:0:0:0:
154,262,131066,1,0,0:0:0:0:
30,296,131273,1,0,0:0:0:0:
41,208,131480,1,0,0:0:0:0:
106,137,131687,6,0,B|151:102|207:110|207:110|196:153,1,143.999995605469
239,220,132101,2,0,P|278:196|286:150,1,95.9999970703126
149,219,132515,1,0,0:0:0:0:
275,305,132721,1,0,0:0:0:0:
286,150,132928,2,0,B|352:189|359:231|359:231|327:230,1,143.999995605469
265,328,133342,5,0,0:0:0:0:
377,160,133549,1,0,0:0:0:0:
239,220,133756,5,0,0:0:0:0:
416,276,133963,1,0,0:0:0:0:
290,55,134170,2,0,P|286:104|286:161,1,95.9999970703126
441,44,134584,1,0,0:0:0:0:
377,160,134790,1,0,0:0:0:0:
290,55,134997,6,0,B|213:55|247:112|157:112,1,143.999995605469
137,84,135411,1,0,0:0:0:0:
259,139,135618,1,0,0:0:0:0:
80,27,135825,2,0,P|55:75|66:117,1,95.9999970703126
127,178,136135,1,0,0:0:0:0:
127,178,136239,2,0,P|152:226|141:268,1,95.9999970703126
9,358,136652,5,0,0:0:0:0:
165,295,136859,1,0,0:0:0:0:
188,271,136963,1,0,0:0:0:0:
202,241,137066,1,0,0:0:0:0:
38,201,137273,1,0,0:0:0:0:
165,295,137480,6,0,B|203:329|203:329|256:321,1,95.9999970703126
271,317,137790,1,0,0:0:0:0:
294,311,137894,1,0,0:0:0:0:
362,217,138101,1,0,0:0:0:0:
278,111,138308,6,0,B|312:83|357:55|357:55|345:103|363:124,1,143.999995605469
388,116,138721,1,0,0:0:0:0:
202,52,138928,1,0,0:0:0:0:
277,198,139135,2,0,B|243:226|198:254|198:254|210:206|192:185,1,143.999995605469
170,185,139549,1,0,0:0:0:0:
294,311,139756,1,0,0:0:0:0:
382,197,139963,6,0,P|421:171|471:172,1,95.9999970703126
468,171,140273,1,0,0:0:0:0:
468,171,140377,1,0,0:0:0:0:
404,311,140584,1,0,0:0:0:0:
277,198,140790,2,0,B|205:220|249:269|169:295,1,143.999995605469
140,278,141204,1,0,0:0:0:0:
294,311,141411,1,0,0:0:0:0:
182,192,141618,6,0,B|136:170|136:170|71:192,1,95.9999970703126
72,196,141928,1,0,0:0:0:0:
52,210,142032,1,0,0:0:0:0:
208,105,142239,1,0,0:0:0:0:
117,282,142446,1,0,0:0:0:0:
287,217,142652,1,0,0:0:0:0:
122,14,142859,2,0,P|105:58|130:111,1,95.9999970703126
186,204,143273,5,0,0:0:0:0:
306,299,143480,1,0,0:0:0:0:
306,299,143584,1,0,0:0:0:0:
306,299,143687,1,0,0:0:0:0:
366,159,143894,1,0,0:0:0:0:
469,340,144101,5,0,0:0:0:0:
488,312,144205,1,0,0:0:0:0:
487,278,144308,1,0,0:0:0:0:
463,254,144412,1,0,0:0:0:0:
441,228,144515,1,0,0:0:0:0:
429,196,144618,1,0,0:0:0:0:
437,163,144722,1,0,0:0:0:0:
456,135,144825,1,0,0:0:0:0:
468,103,144928,6,0,P|398:82|318:83,1,143.999995605469
302,103,145342,1,0,0:0:0:0:
380,212,145549,1,0,0:0:0:0:
241,50,145756,2,0,P|220:92|235:147,1,95.9999970703126
222,273,146170,1,0,0:0:0:0:
151,222,146377,1,0,0:0:0:0:
304,235,146584,5,0,0:0:0:0:
216,360,146790,1,0,0:0:0:0:
216,360,146894,1,0,0:0:0:0:
216,360,146997,1,0,0:0:0:0:
151,222,147204,1,0,0:0:0:0:
49,337,147411,1,0,0:0:0:0:
7,189,147618,1,0,0:0:0:0:
7,189,147721,1,0,0:0:0:0:
7,189,147825,2,0,P|56:174|97:131,1,95.9999970703126
356,107,148239,6,0,P|286:108|229:150,1,143.999995605469
216,186,148652,1,0,0:0:0:0:
262,39,148859,1,0,0:0:0:0:
399,178,149066,2,0,P|441:113|411:46,1,143.999995605469
411,22,149480,1,0,0:0:0:0:
312,180,149687,1,0,0:0:0:0:
481,127,149894,5,0,0:0:0:0:
323,99,150101,1,0,0:0:0:0:
424,233,150308,1,0,0:0:0:0:
432,270,150411,1,0,0:0:0:0:
424,307,150515,1,0,0:0:0:0:
398,335,150618,1,0,0:0:0:0:
363,351,150721,2,0,P|315:345|262:375,1,95.9999970703126
186,285,151032,1,0,0:0:0:0:
186,285,151135,2,0,P|234:291|287:261,1,95.9999970703126
420,174,151549,6,0,P|340:168|302:113,1,143.999995605469
291,100,151963,1,0,0:0:0:0:
387,270,152170,1,0,0:0:0:0:
270,123,152377,2,0,P|201:138|168:200,1,143.999995605469
150,215,152790,1,0,0:0:0:0:
272,252,152997,1,0,0:0:0:0:
161,110,153204,6,0,P|123:79|65:78,1,95.9999970703126
55,65,153515,1,0,0:0:0:0:
32,55,153618,1,0,0:0:0:0:
112,218,153825,1,0,0:0:0:0:
232,74,154032,1,0,0:0:0:0:
272,252,154239,1,0,0:0:0:0:
272,252,154342,1,0,0:0:0:0:
272,252,154446,1,0,0:0:0:0:
209,165,154652,1,0,0:0:0:0:
473,199,154859,6,0,B|367:214|429:106|310:135,1,180.000006866455
321,162,155273,1,0,0:0:0:0:
377,257,155480,1,0,0:0:0:0:
265,79,155687,2,0,P|239:121|260:188,1,95.9999970703126
281,256,156101,1,0,0:0:0:0:
158,120,156308,1,0,0:0:0:0:
56,271,156515,5,0,0:0:0:0:
219,191,156721,1,0,0:0:0:0:
219,191,156825,1,0,0:0:0:0:
219,191,156928,1,0,0:0:0:0:
75,78,157135,1,0,0:0:0:0:
99,180,157342,5,0,0:0:0:0:
130,190,157445,1,0,0:0:0:0:
148,217,157548,1,0,0:0:0:0:
148,250,157652,1,0,0:0:0:0:
160,281,157755,1,0,0:0:0:0:
184,304,157859,1,0,0:0:0:0:
217,307,157962,1,0,0:0:0:0:
250,300,158066,1,0,0:0:0:0:
280,285,158170,6,0,P|307:220|243:220,1,143.999995605469
233,223,158584,1,0,0:0:0:0:
135,145,158790,1,0,0:0:0:0:
66,249,158997,1,0,0:0:0:0:
203,49,159204,2,0,P|224:92|220:147,1,95.9999970703126
165,321,159618,1,0,0:0:0:0:
350,247,159825,5,0,0:0:0:0:
375,231,160032,1,0,0:0:0:0:
402,218,160446,2,0,B|435:216|452:177|432:140|401:135|377:133|377:133|377:133|377:133|304:126|271:25|356:-39|431:-8|447:48|447:48|447:48|447:48|455:79|486:98|516:93,1,479.999985351563
360,203,174721,5,0,0:0:0:0:
440,256,174928,1,0,0:0:0:0:
354,297,175135,1,0,0:0:0:0:
478,178,175342,1,0,0:0:0:0:
432,346,175549,1,0,0:0:0:0:
263,288,175756,5,0,0:0:0:0:
263,288,175859,1,0,0:0:0:0:
263,288,175963,1,0,0:0:0:0:
176,155,176170,1,0,0:0:0:0:
148,359,176377,5,0,0:0:0:0:
188,237,176584,1,0,0:0:0:0:
64,269,176790,1,0,0:0:0:0:
107,186,176997,5,0,0:0:0:0:
8,339,177204,1,0,0:0:0:0:
24,151,177411,1,0,0:0:0:0:
24,151,177515,1,0,0:0:0:0:
24,151,177618,1,0,0:0:0:0:
81,278,177825,1,0,0:0:0:0:
182,186,178032,5,0,0:0:0:0:
164,51,178239,1,0,0:0:0:0:
29,29,178446,1,0,0:0:0:0:
245,112,178652,1,0,0:0:0:0:
371,57,178859,5,0,0:0:0:0:
245,112,179066,1,0,0:0:0:0:
263,247,179273,1,0,0:0:0:0:
280,17,179479,1,0,0:0:0:0:
469,96,179687,5,0,0:0:0:0:
317,173,179894,1,0,0:0:0:0:
339,210,179997,1,0,0:0:0:0:
376,232,180100,1,0,0:0:0:0:
392,220,180308,5,0,0:0:0:0:
355,195,180411,1,0,0:0:0:0:
330,158,180514,1,0,0:0:0:0:
343,152,180721,5,0,0:0:0:0:
378,178,180825,1,0,0:0:0:0:
399,216,180928,1,0,0:0:0:0:
395,259,181031,1,0,0:0:0:0:
373,297,181135,1,0,0:0:0:0:
333,315,181238,1,0,0:0:0:0:
287,314,181342,6,0,P|266:278|271:230,1,80
160,195,181652,1,0,0:0:0:0:
160,195,181756,2,0,P|181:231|176:279,1,80
200,361,182170,5,0,0:0:0:0:
52,330,182377,1,0,0:0:0:0:
61,291,182480,1,0,0:0:0:0:
87,261,182583,1,0,0:0:0:0:
136,107,182790,1,0,0:0:0:0:
253,213,182997,5,0,0:0:0:0:
61,167,183204,1,0,0:0:0:0:
230,67,183411,1,0,0:0:0:0:
181,271,183618,1,0,0:0:0:0:
122,77,183825,1,0,0:0:0:0:
305,131,184032,5,0,0:0:0:0:
322,171,184135,1,0,0:0:0:0:
309,212,184238,1,0,0:0:0:0:
383,307,184446,1,0,0:0:0:0:
456,218,184652,5,0,0:0:0:0:
306,366,184859,2,0,P|290:337|293:305,2,51.999997619629
458,363,185273,1,0,0:0:0:0:
307,220,185480,1,0,0:0:0:0:
260,308,185687,5,0,0:0:0:0:
303,328,185790,1,0,0:0:0:0:
347,312,185893,1,0,0:0:0:0:
211,160,186101,1,0,0:0:0:0:
129,95,186308,6,0,P|103:92|79:101,3,51.999997619629
219,59,186721,2,0,P|211:34|190:19,3,51.999997619629
233,91,187135,5,0,0:0:0:0:
258,93,187239,1,0,0:0:0:0:
278,108,187342,1,0,0:0:0:0:
292,129,187445,1,0,0:0:0:0:
314,157,187548,5,0,0:0:0:0:
372,216,187652,1,0,0:0:0:0:
447,179,187756,1,0,0:0:0:0:
433,97,187859,1,0,0:0:0:0:
350,80,187963,1,0,0:0:0:0:
476,366,189204,5,0,0:0:0:0:
468,326,189411,1,0,0:0:0:0:
374,252,189618,5,0,0:0:0:0:
327,275,189825,1,0,0:0:0:0:
291,239,190032,1,0,0:0:0:0:
314,192,190239,1,0,0:0:0:0:
366,200,190446,2,0,P|422:147|422:66,1,160
267,81,191066,6,0,P|309:86|345:122,1,80
314,192,191480,1,0,0:0:0:0:
291,239,191687,1,0,0:0:0:0:
244,251,191894,1,0,0:0:0:0:
197,238,192101,2,0,P|121:234|61:292,1,160
158,338,192721,5,0,0:0:0:0:
25,200,192928,2,0,L|41:287,1,80
136,192,193342,1,0,0:0:0:0:
144,161,193549,1,0,0:0:0:0:
152,130,193756,2,0,P|156:83|151:32,1,80
38,16,194170,1,0,0:0:0:0:
46,46,194377,1,0,0:0:0:0:
152,130,194584,5,0,0:0:0:0:
61,132,194790,1,0,0:0:0:0:
142,42,194997,2,0,P|183:44|218:80,1,80
291,217,195411,2,0,P|256:194|244:146,1,80
306,83,195825,5,0,0:0:0:0:
379,52,196032,1,0,0:0:0:0:
436,108,196239,2,0,P|461:141|452:196,1,80
350,244,196652,2,0,P|351:206|388:159,1,80
493,271,197066,2,0,P|461:298|415:295,1,80
340,334,197480,5,0,0:0:0:0:
267,284,197687,1,0,0:0:0:0:
180,299,197894,2,0,P|169:343|186:378,1,80
138,226,198308,2,0,P|94:235|70:266,1,80
223,210,198721,2,0,P|222:165|197:135,1,80
67,84,199135,5,0,0:0:0:0:
287,147,199342,1,0,0:0:0:0:
204,28,199549,2,0,P|166:52|147:91,1,80
103,185,199963,5,0,0:0:0:0:
282,62,200170,1,0,0:0:0:0:
149,81,200377,1,0,0:0:0:0:
209,307,200584,2,0,P|218:267|207:225,1,80
70,105,200997,1,0,0:0:0:0:
203,171,201204,6,0,B|166:176|132:161|108:136|108:136|108:136|108:136|78:208|129:288|215:297|273:253|287:196|287:196|287:196|287:196|306:133|386:112|443:162|446:224|417:263|417:263|417:263|417:263|398:238|368:227|340:229,1,728.008859886029
364,239,202859,5,0,0:0:0:0:
309,325,203066,1,0,0:0:0:0:
329,336,203169,1,0,0:0:0:0:
352,336,203272,1,0,0:0:0:0:
260,226,203480,1,0,0:0:0:0:
151,346,203687,2,0,P|181:290|137:207,1,143.999995605469
126,209,204101,5,0,0:0:0:0:
53,272,204308,1,0,0:0:0:0:
103,126,204515,5,0,0:0:0:0:
219,157,204721,1,0,0:0:0:0:
237,134,204825,1,0,0:0:0:0:
231,105,204928,1,0,0:0:0:0:
126,209,205135,1,0,0:0:0:0:
218,257,205342,2,0,P|287:241|364:262,1,143.999995605469
375,255,205756,5,0,0:0:0:0:
287,339,205963,1,0,0:0:0:0:
308,196,206170,2,0,P|343:154|390:142,1,95.9999970703126
409,139,206480,1,0,0:0:0:0:
437,143,206584,1,0,0:0:0:0:
401,256,206790,1,0,0:0:0:0:
308,196,206997,2,0,B|251:191|296:146|230:139,1,95.9999970703126
106,197,207411,5,0,0:0:0:0:
214,156,207618,1,0,0:0:0:0:
53,125,207825,1,0,0:0:0:0:
187,233,208032,1,0,0:0:0:0:
194,74,208239,1,0,0:0:0:0:
217,57,208342,1,0,0:0:0:0:
245,51,208446,1,0,0:0:0:0:
273,55,208549,1,0,0:0:0:0:
298,69,208652,2,0,B|359:81|359:81|359:74|359:74|441:92,1,143.999995605469
450,112,209066,5,0,0:0:0:0:
320,152,209273,1,0,0:0:0:0:
373,27,209480,1,0,0:0:0:0:
465,204,209687,1,0,0:0:0:0:
430,202,209790,1,0,0:0:0:0:
404,181,209893,1,0,0:0:0:0:
511,276,210101,1,0,0:0:0:0:
391,363,210308,2,0,P|390:320|427:287,1,95.9999970703126
478,358,210721,5,0,0:0:0:0:
343,282,210928,1,0,0:0:0:0:
481,175,211135,2,0,P|449:204|388:181,1,95.9999970703126
368,183,211446,1,0,0:0:0:0:
334,185,211549,1,0,0:0:0:0:
212,272,211756,1,0,0:0:0:0:
214,33,211963,2,0,P|207:105|235:184,1,143.999995605469
251,196,212377,5,0,0:0:0:0:
139,314,212584,1,0,0:0:0:0:
107,137,212790,6,0,B|124:178|124:178|99:224,1,95.9999970703126
37,97,213101,2,0,P|63:59|110:55,1,95.9999970703126
200,47,213411,2,0,P|197:70|187:92,1,47.9999985351563
185,175,213618,6,0,P|218:214|285:219,1,95.9999970703126
306,59,213928,2,0,P|266:100|275:167,1,95.9999970703126
336,178,214239,2,0,P|361:160|375:131,1,47.9999985351563
452,106,214446,6,0,P|431:64|377:61,1,95.9999970703126
336,178,214756,2,0,P|357:220|411:223,1,95.9999970703126
262,136,215066,2,0,L|261:207,1,47.9999985351563
258,265,215273,5,0,0:0:0:0:
249,302,215480,1,0,0:0:0:0:
72,345,215687,1,0,0:0:0:0:
106,165,215894,1,0,0:0:0:0:
183,225,216101,6,0,B|147:254|146:288|146:288|118:265|73:256,1,143.999995605469
61,252,216515,1,0,0:0:0:0:
172,99,216721,1,0,0:0:0:0:
378,101,216928,2,0,B|332:76|305:175|250:152,1,143.999995605469
230,157,217342,1,0,0:0:0:0:
276,8,217549,1,0,0:0:0:0:
446,162,217756,5,0,0:0:0:0:
352,299,217963,1,0,0:0:0:0:
335,264,218066,1,0,0:0:0:0:
338,225,218170,1,0,0:0:0:0:
459,155,218377,1,0,0:0:0:0:
382,317,218584,2,0,P|317:356|248:330,1,143.999995605469
218,329,218997,5,0,0:0:0:0:
185,188,219204,1,0,0:0:0:0:
0,334,219411,2,0,P|32:300|77:283,1,95.9999970703126
105,276,219721,1,0,0:0:0:0:
133,279,219825,1,0,0:0:0:0:
246,297,220032,1,0,0:0:0:0:
371,199,220239,2,0,P|320:190|277:212,1,95.9999970703126
114,115,220652,5,0,0:0:0:0:
232,104,220859,1,0,0:0:0:0:
170,12,221066,5,0,0:0:0:0:
111,134,221273,1,0,0:0:0:0:
14,41,221480,1,0,0:0:0:0:
108,152,221687,1,0,0:0:0:0:
173,2,221894,2,0,P|222:12|259:58,1,95.9999970703126
263,75,222204,1,0,0:0:0:0:
239,99,222308,1,0,0:0:0:0:
354,38,222515,1,0,0:0:0:0:
336,182,222721,5,0,0:0:0:0:
477,196,222928,1,0,0:0:0:0:
491,160,223032,1,0,0:0:0:0:
485,122,223135,1,0,0:0:0:0:
393,273,223342,1,0,0:0:0:0:
245,300,223549,6,0,B|195:304|182:333|171:361|110:363,1,143.999995605469
94,347,223963,1,0,0:0:0:0:
130,197,224170,1,0,0:0:0:0:
257,160,224377,6,0,P|296:134|327:87,1,95.9999970703126
339,69,224687,1,0,0:0:0:0:
359,48,224790,1,0,0:0:0:0:
384,259,224997,1,0,0:0:0:0:
257,160,225204,2,0,P|213:98|146:73,1,143.999995605469
135,49,225618,1,0,0:0:0:0:
287,33,225825,1,0,0:0:0:0:
168,159,226032,6,0,B|142:198|142:198|140:261,1,95.9999970703126
143,275,226342,1,0,0:0:0:0:
157,300,226446,1,0,0:0:0:0:
285,217,226652,1,0,0:0:0:0:
278,370,226859,1,0,0:0:0:0:
172,203,227066,1,0,0:0:0:0:
266,82,227273,2,0,P|291:42|341:25,1,95.9999970703126
476,165,227687,5,0,0:0:0:0:
346,104,227894,1,0,0:0:0:0:
346,104,227997,1,0,0:0:0:0:
346,104,228101,1,0,0:0:0:0:
480,29,228308,1,0,0:0:0:0:
400,160,228515,5,0,0:0:0:0:
371,185,228619,1,0,0:0:0:0:
355,219,228721,1,0,0:0:0:0:
367,255,228825,1,0,0:0:0:0:
391,284,228928,1,0,0:0:0:0:
390,322,229032,1,0,0:0:0:0:
362,349,229135,1,0,0:0:0:0:
324,356,229239,1,0,0:0:0:0:
286,347,229342,6,0,P|220:317|148:340,1,143.999995605469
126,354,229756,1,0,0:0:0:0:
228,266,229963,1,0,0:0:0:0:
131,171,230170,2,0,P|103:213|110:259,1,95.9999970703126
9,175,230584,1,0,0:0:0:0:
113,276,230790,1,0,0:0:0:0:
14,269,230997,5,0,0:0:0:0:
70,105,231204,1,0,0:0:0:0:
70,105,231308,1,0,0:0:0:0:
70,105,231411,1,0,0:0:0:0:
194,225,231618,1,0,0:0:0:0:
27,179,231825,1,0,0:0:0:0:
187,115,232032,1,0,0:0:0:0:
187,115,232135,1,0,0:0:0:0:
187,115,232239,2,0,P|225:136|283:127,1,95.9999970703126
407,17,232652,6,0,P|386:82|419:173,1,143.999995605469
421,170,233066,1,0,0:0:0:0:
319,47,233273,1,0,0:0:0:0:
485,125,233480,2,0,B|505:172|505:172|486:274,1,143.999995605469
465,282,233894,1,0,0:0:0:0:
391,180,234101,1,0,0:0:0:0:
275,336,234308,5,0,0:0:0:0:
377,264,234515,1,0,0:0:0:0:
271,197,234721,1,0,0:0:0:0:
240,183,234825,1,0,0:0:0:0:
206,181,234928,1,0,0:0:0:0:
173,189,235032,1,0,0:0:0:0:
142,202,235135,2,0,B|94:218|94:218|52:259,1,95.9999970703126
110,333,235446,1,0,0:0:0:0:
110,333,235549,2,0,B|158:317|158:317|200:276,1,95.9999970703126
436,268,235963,6,0,P|370:270|311:207,1,143.999995605469
290,205,236377,1,0,0:0:0:0:
325,355,236584,1,0,0:0:0:0:
512,281,236790,2,0,P|505:232|464:197,1,95.9999970703126
376,54,237204,5,0,0:0:0:0:
396,187,237411,1,0,0:0:0:0:
285,111,237618,2,0,B|241:83|241:83|188:91,1,95.9999970703126
209,224,238032,1,0,0:0:0:0:
117,160,238239,1,0,0:0:0:0:
289,294,238446,2,0,B|316:249|316:249|302:201,1,95.9999970703126
204,308,238859,1,0,0:0:0:0:
293,161,239066,1,0,0:0:0:0:
456,328,239273,6,0,B|482:342|482:342|480:292|437:260|375:257,1,180.000006866455
374,287,239687,1,0,0:0:0:0:
320,357,239894,1,0,0:0:0:0:
452,249,240101,1,0,0:0:0:0:
291,279,240308,2,0,P|240:304|181:290,1,120.000004577637
75,370,240721,1,0,0:0:0:0:
86,238,240928,5,0,0:0:0:0:
210,192,241135,1,0,0:0:0:0:
210,192,241239,1,0,0:0:0:0:
210,192,241342,1,0,0:0:0:0:
107,109,241549,1,0,0:0:0:0:
86,238,241756,1,0,0:0:0:0:
127,240,241859,1,0,0:0:0:0:
166,224,241963,1,0,0:0:0:0:
201,201,242066,1,0,0:0:0:0:
226,167,242170,5,0,0:0:0:0:
347,280,242377,1,0,0:0:0:0:
249,87,242584,2,0,P|306:123|304:203,1,143.999995605469
283,228,242997,1,0,0:0:0:0:
469,141,243204,1,0,0:0:0:0:
422,250,243411,1,0,0:0:0:0:
369,87,243618,2,0,P|312:123|314:203,1,143.999995605469
331,229,244032,5,0,0:0:0:0:
294,378,244239,1,0,0:0:0:0:
468,293,244446,1,0,0:0:0:0:
117,237,244859,5,0,0:0:0:0:
256,192,244963,12,0,245894,0:0:0:0:
