osu file format v14

[General]
AudioFilename: audio.mp3
AudioLeadIn: 0
PreviewTime: -1
Countdown: 0
SampleSet: Normal
StackLeniency: 0.7
Mode: 0
LetterboxInBreaks: 0
WidescreenStoryboard: 1

[Editor]
DistanceSpacing: 0.1
BeatDivisor: 8
GridSize: 32
TimelineZoom: 1.2

[Metadata]
Title:Hanazukiyo
TitleUnicode:花月夜
Artist:Yonder Voice
ArtistUnicode:Yonder Voice
Creator:MoFish
Version:Blooming Sakura
Source:東方萃夢想
Tags:touhou project yonder voice yoosanhyakurei saigetsu ibuki suika hanatsukiyo
BeatmapID:4514872
BeatmapSetID:2144260

[Difficulty]
HPDrainRate:5.9
CircleSize:4.1
OverallDifficulty:8.3
ApproachRate:8.7
SliderMultiplier:1.4
SliderTickRate:1

[Events]
//Background and Video events
0,0,"suika.jpg",0,0
//Break Periods
2,103327,109103
2,161672,166827
2,188052,200551
//Storyboard Layer 0 (Background)
//Storyboard Layer 1 (Fail)
//Storyboard Layer 2 (Pass)
//Storyboard Layer 3 (Foreground)
//Storyboard Layer 4 (Overlay)
//Storyboard Sound Samples

[TimingPoints]
2576,413.793103448276,4,2,0,50,1,0
4024,-50,4,2,0,50,0,0
4231,-100,4,2,0,50,0,0
7955,-113.636363636364,4,2,0,50,0,0
8260,-100,4,1,0,5,0,0
8677,-66.6666666666667,4,1,0,100,0,0
10024,-133.333333333333,4,1,0,100,0,0
10386,-133.333333333333,4,1,0,5,0,0
10541,-133.333333333333,4,1,0,100,0,0
10851,-66.6666666666667,4,1,0,100,0,0
11265,-66.6666666666667,4,1,0,100,0,0
12036,-66.6666666666667,4,1,0,100,0,0
12243,-45.4545454545455,4,1,0,100,0,0
13693,-45.4545454545455,4,1,0,5,0,0
13847,-100,4,1,0,100,0,0
17472,-76.9230769230769,4,1,0,100,0,1
22593,-100,4,1,0,100,0,1
22903,-76.9230769230769,4,1,0,100,0,1
27558,-100,4,1,0,100,0,1
30713,-100,4,1,0,100,0,0
36036,-100,4,1,0,5,0,0
36140,-100,4,1,0,100,0,0
38726,-63.2911392405063,4,1,0,100,0,0
39140,-100,4,1,0,100,0,0
42398,-100,4,1,0,100,0,0
43127,-52.6315789473684,4,1,0,100,0,0
43278,-100,4,1,0,5,0,0
43381,-100,4,1,0,100,0,0
43691,-100,4,1,0,5,0,0
43795,-100,4,1,0,100,0,0
45196,-100,4,1,0,100,0,0
45351,-76.9230769230769,4,1,0,5,0,0
45455,-100,4,1,0,100,0,0
57140,-31.25,4,1,0,100,0,0
57243,-31.25,4,1,0,5,0,0
57450,-31.25,4,1,0,100,0,0
57554,-31.25,4,1,0,5,0,0
57760,-31.25,4,1,0,100,0,0
57864,-31.25,4,1,0,5,0,0
57950,-100,4,1,0,100,0,0
58855,-100,4,1,0,100,0,1
61334,-58.8235294117647,4,1,0,100,0,1
61536,-100,4,1,0,5,0,1
61725,-100,4,1,0,100,0,1
71209,-25,4,1,0,100,0,1
71312,-25,4,1,0,5,0,1
71416,-50,4,1,0,100,0,0
72097,-100,4,1,0,100,0,1
83416,-40,4,1,0,100,0,1
83519,-40,4,1,0,5,0,1
83622,-58.8235294117647,4,1,0,100,0,1
84511,-58.8235294117647,4,1,0,100,0,0
86369,-29.4117647058824,4,1,0,100,0,0
86524,-29.4117647058824,4,1,0,5,0,0
86726,-58.8235294117647,4,1,0,100,0,0
87554,-78.4313725490196,4,1,0,100,0,0
88644,-78.4313725490196,4,1,0,100,0,1
94183,-100,4,1,0,100,0,1
94648,-100,4,1,0,5,0,1
94700,-100,4,1,0,100,0,1
95002,-57.1428571428571,4,1,0,100,0,1
98726,-100,4,1,0,100,0,1
99398,-66.6666666666667,4,1,0,100,0,1
99450,-66.6666666666667,4,1,0,5,0,1
99554,-66.6666666666667,4,1,0,100,0,1
99760,-66.6666666666667,4,1,0,5,0,1
99864,-66.6666666666667,4,1,0,100,0,1
101782,-66.6666666666667,4,1,0,100,0,0
110162,-80,4,1,0,100,0,0
110524,-100,4,1,0,5,0,0
110627,-100,4,1,0,100,0,0
115795,-66.6666666666667,4,1,0,100,0,0
116209,-66.6666666666667,4,1,0,5,0,0
116312,-66.6666666666667,4,1,0,100,0,0
116622,-66.6666666666667,4,1,0,5,0,0
116726,-66.6666666666667,4,1,0,100,0,0
117864,-66.6666666666667,4,1,0,5,0,0
117967,-100,4,1,0,100,0,0
118278,-100,4,1,0,5,0,0
118381,-76.9230769230769,4,1,0,100,0,0
120036,-100,4,1,0,100,0,0
120554,-100,4,1,0,5,0,0
120657,-100,4,1,0,100,0,0
128002,-100,4,1,0,100,0,0
130024,-31.25,4,1,0,100,0,0
130127,-31.25,4,1,0,5,0,0
130334,-31.25,4,1,0,100,0,0
130438,-31.25,4,1,0,5,0,0
130588,-76.9230769230769,4,1,0,100,0,0
130691,-76.9230769230769,4,1,0,5,0,0
130795,-100,4,1,0,100,0,0
131683,-100,4,1,0,100,0,1
131834,-100,4,1,0,5,0,1
131938,-100,4,1,0,100,0,1
132662,-100,4,1,0,5,0,1
132765,-100,4,1,0,100,0,1
134317,-100,4,1,0,5,0,1
134420,-100,4,1,0,100,0,1
135140,-66.6666666666667,4,1,0,100,0,1
143829,-100,4,1,0,100,0,1
144869,-76.9230769230769,4,1,0,100,0,1
150713,-100,4,1,0,100,0,1
157338,-100,4,1,0,100,0,0
173002,-66.6666666666667,4,1,0,100,0,0
173985,-100,4,1,0,100,0,0
180717,-100,4,1,0,100,0,1
183558,-66.6666666666667,4,1,0,100,0,1
184800,-33.3333333333333,4,1,0,100,0,1
185157,-66.6666666666667,4,1,0,100,0,1
186450,-113.636363636364,4,1,0,100,0,1
187959,-113.636363636364,4,1,0,100,0,0
202485,-100,4,2,0,45,0,0
216097,-100,4,1,0,100,0,1
221416,-100,4,1,0,5,0,1
221519,-100,4,1,0,100,0,1
228717,-100,4,1,0,5,0,0
228760,-100,4,1,0,100,0,0
229338,-76.9230769230769,4,1,0,100,0,1
235334,-100,4,1,0,100,0,1
235334,-100,4,1,0,100,0,1
241691,-66.6666666666667,4,1,0,100,0,1
241795,-66.6666666666667,4,1,0,5,0,1
241898,-66.6666666666667,4,1,0,100,0,1
243760,-66.6666666666667,4,1,0,5,0,1
243864,-66.6666666666667,4,1,0,100,0,1
244795,-100,4,1,0,100,0,1
245835,-114.942528735632,4,1,0,100,0,0
245938,-114.942528735632,4,1,0,20,0,0
250851,-114.942528735632,4,1,0,5,0,0

[HitObjects]
15,334,2162,6,0,P|51:330|71:300,1,70
128,192,2577,1,4,0:0:0:0:
192,160,2783,1,0,0:0:0:0:
256,192,2990,1,0,0:0:0:0:
320,224,3196,1,0,0:0:0:0:
384,191,3403,1,0,0:0:0:0:
405,83,4024,6,0,P|452:77|407:78,1,140
339,216,4438,1,0,0:0:0:0:
272,237,4645,1,0,0:0:0:0:
214,271,4852,1,0,0:0:0:0:
160,311,5059,1,0,0:0:0:0:
148,192,5679,5,0,0:0:0:0:
283,131,5886,2,8,B|366:163|415:125|419:47|374:22,1,210,8|2,0:0|0:0,0:0:0:0:
283,131,6714,2,0,B|194:79|166:70|200:136,1,140
286,129,7334,1,0,0:0:0:0:
74,292,7541,5,4,0:0:0:0:
156,75,7748,1,4,0:0:0:0:
292,258,7955,6,0,B|340:284|340:324|340:324|305:312|309:290,1,123.200003759766
292,258,8782,5,0,0:0:0:0:
192,192,8989,1,0,0:0:0:0:
256,141,9196,2,0,B|273:130|257:79|257:79|237:127|256:139,1,105.000004005432
224,256,9610,5,0,0:0:0:0:
256,141,9817,1,0,2:2:0:0:
312,192,10024,2,0,B|337:153|377:162|377:162|362:195|336:185,1,105.000004005432
224,256,10644,5,0,0:0:0:0:
201,191,10851,2,0,B|190:162|133:163|133:163|157:191|176:177,1,105.000004005432
255,127,11265,1,0,0:0:0:0:
320,192,11472,1,0,0:0:0:0:
288,256,11679,1,0,0:0:0:0:
224,256,12093,6,0,B|194:248|169:303|169:303|215:288|201:276,1,105.000004005432
288,256,12507,1,0,0:0:0:0:
256,192,12921,5,0,0:0:0:0:
120,85,13127,1,0,0:0:0:0:
287,45,13334,1,0,0:0:0:0:
156,201,13541,2,0,B|115:173|173:159|187:171|213:192|134:245,1,154.000004699707
41,336,13952,5,0,0:0:0:0:
135,245,14159,2,8,B|350:308|153:21|464:85,1,420,2|8,0:0|0:0,0:0:0:0:
256,192,15814,12,0,17262,0:0:0:0:
118,262,17469,5,10,0:0:0:0:
254,58,17676,1,8,0:0:0:0:
333,271,17886,1,8,0:0:0:0:
124,109,18093,1,8,0:0:0:0:
352,151,18300,1,0,0:0:0:0:
161,101,18507,1,0,0:0:0:0:
161,101,18610,1,0,0:0:0:0:
161,101,18714,1,10,0:0:0:0:
247,281,18921,5,10,0:0:0:0:
419,78,19127,1,8,0:0:0:0:
196,157,19334,1,2,0:0:0:0:
359,334,19541,1,2,0:0:0:0:
414,141,19748,1,0,0:0:0:0:
202,259,19955,1,0,0:0:0:0:
319,93,20162,1,0,0:0:0:0:
319,93,20265,1,0,0:0:0:0:
319,93,20369,1,0,0:0:0:0:
102,112,20576,5,0,0:0:0:0:
140,300,20783,1,0,0:0:0:0:
237,141,20990,1,0,0:0:0:0:
51,143,21196,1,0,0:0:0:0:
140,300,21403,1,0,0:0:0:0:
279,203,21610,2,0,B|303:182|341:175|376:194,1,90.9999958343508
373,190,21920,1,0,0:0:0:0:
384,194,22024,1,0,0:0:0:0:
176,285,22231,5,0,0:0:0:0:
334,59,22438,1,0,0:0:0:0:
141,130,22645,2,0,P|166:141|173:148,2,35
376,209,23059,1,0,0:0:0:0:
376,209,23163,1,0,0:0:0:0:
376,209,23266,2,0,P|419:264|393:320,1,136.499993751526
394,318,23680,1,0,0:0:0:0:
266,339,23887,5,0,0:0:0:0:
244,49,24093,1,0,0:0:0:0:
339,256,24300,1,0,0:0:0:0:
236,50,24507,1,0,0:0:0:0:
219,296,24714,1,0,0:0:0:0:
82,101,24921,1,0,0:0:0:0:
223,169,25127,5,0,0:0:0:0:
256,192,25231,1,0,0:0:0:0:
278,224,25334,1,0,0:0:0:0:
422,246,25541,5,0,0:0:0:0:
192,146,25748,1,0,0:0:0:0:
441,200,25955,1,0,0:0:0:0:
164,295,26162,1,0,0:0:0:0:
229,34,26369,1,0,0:0:0:0:
419,218,26576,1,0,0:0:0:0:
289,214,26783,1,0,0:0:0:0:
256,192,26886,1,0,0:0:0:0:
235,160,26990,1,0,0:0:0:0:
365,53,27196,5,0,0:0:0:0:
390,237,27403,1,0,0:0:0:0:
193,240,27610,2,0,L|211:270,2,35
375,207,28024,1,0,0:0:0:0:
413,194,28127,1,0,0:0:0:0:
441,166,28231,1,0,0:0:0:0:
369,330,28438,2,0,L|319:318,1,35
180,299,28852,5,0,0:0:0:0:
235,78,29059,1,0,0:0:0:0:
392,153,29265,1,0,0:0:0:0:
392,153,29369,1,0,0:0:0:0:
392,153,29472,1,0,0:0:0:0:
143,135,29679,5,0,0:0:0:0:
143,135,29783,1,0,0:0:0:0:
143,135,29886,1,0,0:0:0:0:
382,166,30093,5,0,0:0:0:0:
336,176,30196,1,0,0:0:0:0:
304,211,30300,1,0,0:0:0:0:
287,255,30403,1,0,0:0:0:0:
255,292,30507,1,0,0:0:0:0:
208,302,30610,1,0,0:0:0:0:
165,286,30714,2,0,P|108:227|126:173,1,140
352,217,31541,6,0,B|322:212|308:198|300:182|297:160,2,70
389,57,32162,1,0,0:0:0:0:
443,152,32369,2,0,B|411:147|360:156|337:167|309:188|281:211|255:234,1,210
55,217,33196,6,0,P|50:254|31:280,2,70
174,97,33817,1,0,0:0:0:0:
196,213,34024,2,0,B|247:212|289:232|384:139,1,210
157,308,34851,5,0,0:0:0:0:
127,156,35059,1,0,0:0:0:0:
273,215,35265,1,0,0:0:0:0:
157,308,35472,1,0,0:0:0:0:
71,226,35679,2,0,B|100:225|161:222|188:223|194:178,1,140
133,150,36300,2,0,B|150:131|155:111|196:115|201:120,1,70
299,237,36921,5,0,0:0:0:0:
402,144,37127,1,0,0:0:0:0:
258,67,37334,2,0,P|331:67|386:20,1,140
203,61,38162,5,0,0:0:0:0:
100,173,38369,1,0,0:0:0:0:
193,292,38576,1,0,0:0:0:0:
248,165,38783,2,0,B|286:153|313:140|330:112|343:79|329:75,1,110.600002700195
372,60,39403,1,0,0:0:0:0:
223,80,39817,5,0,0:0:0:0:
259,155,40024,1,0,0:0:0:0:
134,145,40231,1,0,0:0:0:0:
127,219,40438,1,0,0:0:0:0:
134,301,40645,2,0,B|188:318|277:328|409:282,1,280
446,222,41886,1,0,0:0:0:0:
262,270,42300,1,0,0:0:0:0:
278,117,42507,2,0,P|302:112|318:103,2,35
146,255,42921,1,0,0:0:0:0:
336,295,43127,6,0,P|391:304|437:227,1,136.499993751526
374,240,43541,2,0,P|327:229|307:201,1,70
435,268,43955,2,0,P|337:297|314:202,1,210
416,183,44783,5,0,0:0:0:0:
250,174,45196,2,0,P|271:185|309:216,1,70
195,147,45610,2,0,B|245:69|348:136|308:213,1,210
256,299,46438,5,0,0:0:0:0:
109,196,46645,1,0,0:0:0:0:
439,225,46852,1,0,0:0:0:0:
242,333,47265,2,0,B|289:308|410:294|170:279|161:260,1,210
105,173,48093,1,0,0:0:0:0:
318,315,48507,1,0,0:0:0:0:
310,132,48921,1,0,0:0:0:0:
99,184,49127,5,0,0:0:0:0:
85,212,49231,1,0,0:0:0:0:
76,244,49334,1,0,0:0:0:0:
228,91,49541,2,0,P|250:99|264:88,2,35
296,270,49955,5,0,0:0:0:0:
350,155,50162,1,0,0:0:0:0:
257,62,50369,1,0,0:0:0:0:
109,60,50576,2,0,B|85:36|57:40|11:65,1,105
13,76,50990,1,0,0:0:0:0:
195,180,51196,5,0,0:0:0:0:
231,201,51300,1,0,0:0:0:0:
269,194,51403,1,0,0:0:0:0:
446,129,51610,1,0,0:0:0:0:
383,253,51817,1,0,0:0:0:0:
243,304,52024,1,0,0:0:0:0:
109,258,52231,2,0,P|171:236|203:193,1,105
206,187,52645,5,4,0:0:0:0:
119,229,52852,1,0,0:0:0:0:
138,319,53059,1,4,0:0:0:0:
227,333,53265,1,0,0:0:0:0:
271,253,53472,2,4,B|302:301|303:330|292:325,1,70,4|0,0:0|0:0,0:0:0:0:
294,183,53886,6,0,B|264:194|242:210|220:222,1,70
232,216,54196,2,0,P|245:161|252:138,1,70
270,102,54507,2,0,L|254:148,1,35
186,169,54713,2,0,B|201:155|230:140|266:159,1,70
232,216,55024,2,0,B|300:238|355:150|285:99,1,175
256,192,55748,12,0,56783,0:0:0:0:
307,115,57196,6,0,P|383:95|435:151,1,112
409,109,57507,2,0,B|396:155|350:185|301:172|279:151,1,112
324,169,57817,2,0,L|215:92,1,112
167,94,58024,5,0,0:0:0:0:
357,202,58231,1,0,0:0:0:0:
189,269,58438,1,0,0:0:0:0:
268,99,58645,1,14,0:0:0:0:
433,144,58852,2,4,B|466:126|457:81|447:69,1,70
375,332,59265,5,0,0:0:0:0:
284,197,59472,1,0,0:0:0:0:
395,48,59679,2,0,B|362:84|321:98|259:57|258:57,1,140,4|0,0:0|0:0,0:0:0:0:
407,126,60300,5,0,0:0:0:0:
156,201,60507,1,4,0:0:0:0:
316,353,60714,1,0,0:0:0:0:
432,192,60921,1,0,0:0:0:0:
282,72,61127,1,0,0:0:0:0:
144,211,61334,2,0,P|80:187|35:206,1,119.000002269745
87,253,61748,5,0,0:0:0:0:
281,322,61955,1,0,0:0:0:0:
386,108,62162,2,0,P|425:117|442:88,1,70
99,257,62576,5,0,0:0:0:0:
226,167,62783,1,0,0:0:0:0:
274,189,62886,1,0,0:0:0:0:
323,165,62990,2,0,B|408:166|379:139,1,70
147,213,63403,5,0,0:0:0:0:
314,175,63610,1,0,0:0:0:0:
371,34,63817,1,0,0:0:0:0:
230,267,64024,1,0,0:0:0:0:
192,71,64231,1,0,0:0:0:0:
425,152,64438,2,0,P|449:172|445:187,2,35
351,315,64852,5,0,0:0:0:0:
322,267,64955,1,0,0:0:0:0:
325,212,65059,1,0,0:0:0:0:
348,161,65162,1,0,0:0:0:0:
372,115,65265,1,0,0:0:0:0:
358,60,65369,1,0,0:0:0:0:
311,35,65472,1,4,0:0:0:0:
242,131,65679,5,0,0:0:0:0:
413,42,65886,1,0,0:0:0:0:
373,258,66093,1,0,0:0:0:0:
170,134,66300,2,0,B|170:152|178:180|245:197,1,105
263,201,66714,1,0,0:0:0:0:
408,94,66921,1,0,0:0:0:0:
207,85,67127,5,0,0:0:0:0:
182,69,67231,1,0,0:0:0:0:
147,66,67334,1,0,0:0:0:0:
388,138,67541,1,0,0:0:0:0:
218,245,67748,1,0,0:0:0:0:
440,271,67955,2,0,B|443:237|406:208|367:209,1,105
349,208,68369,5,0,0:0:0:0:
234,325,68576,1,0,0:0:0:0:
97,159,68783,1,0,0:0:0:0:
97,159,68886,1,0,0:0:0:0:
97,159,68990,1,0,0:0:0:0:
331,97,69196,2,0,P|280:125|257:127,1,70
248,122,69507,5,0,0:0:0:0:
237,125,69610,1,0,0:0:0:0:
250,268,69817,2,0,P|249:236|225:260,1,70
385,116,70231,1,0,0:0:0:0:
132,218,70438,1,0,0:0:0:0:
247,37,70645,5,0,0:0:0:0:
254,40,70748,1,0,0:0:0:0:
250,42,70852,1,0,0:0:0:0:
361,173,71059,1,0,0:0:0:0:
192,273,71265,2,0,P|257:255|310:208,1,140
327,146,71576,2,0,B|283:136|251:115,1,70
372,322,71886,5,2,0:0:0:0:
165,150,72093,2,0,B|134:156|-32:264|163:177,1,210
146,244,72507,1,0,0:0:0:0:
339,210,72714,1,0,0:0:0:0:
442,45,72921,2,0,P|402:88|354:93,1,105
310,59,73334,5,0,0:0:0:0:
129,301,73541,1,0,0:0:0:0:
152,93,73748,5,0,0:0:0:0:
288,345,73955,1,0,0:0:0:0:
184,158,74162,2,0,B|190:169|220:172|244:122,1,70
313,211,74576,1,0,0:0:0:0:
94,160,74783,1,0,0:0:0:0:
94,160,74886,1,0,0:0:0:0:
94,160,74990,1,0,0:0:0:0:
267,325,75196,5,0,0:0:0:0:
110,225,75403,2,0,B|150:218|172:203|211:173|201:160,1,105
207,140,75817,1,0,0:0:0:0:
308,278,76024,1,0,0:0:0:0:
456,199,76231,2,0,B|429:187|400:175|381:165|369:143,1,105
369,174,76645,5,0,0:0:0:0:
89,102,76852,1,0,0:0:0:0:
315,18,77059,1,0,0:0:0:0:
164,262,77265,1,0,0:0:0:0:
194,34,77472,1,0,0:0:0:0:
365,216,77679,1,0,0:0:0:0:
194,34,77886,2,0,P|219:42|261:69,1,70
297,91,78196,1,0,0:0:0:0:
297,91,78300,1,0,0:0:0:0:
137,242,78507,5,0,0:0:0:0:
361,304,78714,1,0,0:0:0:0:
203,264,78921,1,0,0:0:0:0:
387,111,79127,1,0,0:0:0:0:
438,333,79334,1,0,0:0:0:0:
248,279,79541,6,0,P|215:269|192:237,1,70
256,217,79852,2,0,P|285:230|290:238,1,35
156,155,80162,1,0,0:0:0:0:
380,69,80369,2,0,B|376:100|363:137|315:137,1,105
306,93,80783,1,0,0:0:0:0:
413,216,80990,1,0,0:0:0:0:
197,308,81196,2,0,B|152:300|138:266|135:257,1,70
138,258,81507,1,0,0:0:0:0:
138,256,81610,1,0,0:0:0:0:
283,297,81817,5,0,0:0:0:0:
377,156,82024,2,0,B|343:109|293:98|274:103,1,105
255,101,82438,1,0,0:0:0:0:
289,168,82645,2,0,P|275:196|237:209,1,70
222,305,83059,1,0,0:0:0:0:
277,308,83162,1,0,0:0:0:0:
325,283,83265,1,0,0:0:0:0:
256,192,83472,6,0,B|297:222|332:195|337:168,1,87.5
333,177,83679,2,0,P|201:246|334:184,1,476.00000907898
192,288,84921,5,0,0:0:0:0:
352,192,85127,1,0,0:0:0:0:
192,96,85334,1,0,0:0:0:0:
256,320,85748,5,0,0:0:0:0:
128,192,85955,1,0,0:0:0:0:
256,64,86162,1,0,0:0:0:0:
384,192,86369,2,0,B|358:162|327:171|327:171|268:193|268:193|327:213|327:213|359:228|389:192,1,238.00000453949
160,320,86783,5,0,0:0:0:0:
384,192,86990,1,0,0:0:0:0:
160,64,87196,1,0,0:0:0:0:
442,100,87610,2,0,B|397:130|256:159|119:130|68:99|76:100,1,357.000006809235
227,306,88645,5,0,0:0:0:0:
320,75,88852,1,0,0:0:0:0:
388,315,89059,1,0,0:0:0:0:
190,160,89265,1,0,0:0:0:0:
429,177,89472,1,0,0:0:0:0:
238,280,89679,1,0,0:0:0:0:
238,280,89783,1,0,0:0:0:0:
238,280,89886,2,0,P|246:317|293:327,1,89.249998808384
310,39,90300,5,0,0:0:0:0:
274,258,90507,1,0,0:0:0:0:
162,60,90714,1,0,0:0:0:0:
138,296,90921,1,0,0:0:0:0:
227,33,91127,1,0,0:0:0:0:
359,166,91334,1,0,0:0:0:0:
386,192,91438,1,0,0:0:0:0:
407,217,91541,1,0,0:0:0:0:
154,133,91748,1,0,0:0:0:0:
441,188,91955,6,0,B|409:215|375:209|357:194,1,89.249998808384
96,192,92369,2,0,B|126:181|150:173|174:182|196:195,1,89.249998808384
256,320,92783,1,0,0:0:0:0:
258,81,92986,1,0,0:0:0:0:
258,81,93090,1,0,0:0:0:0:
258,81,93193,1,0,0:0:0:0:
170,291,93404,5,0,0:0:0:0:
354,178,93611,1,0,0:0:0:0:
157,102,93818,1,0,0:0:0:0:
157,102,93921,1,0,0:0:0:0:
157,102,94025,1,0,0:0:0:0:
302,243,94232,2,0,L|329:265,2,35
322,126,94644,1,0,0:0:0:0:
301,85,94745,1,0,0:0:0:0:
254,75,94848,1,0,0:0:0:0:
106,295,95059,6,0,B|100:254|127:186|148:171|137:226,1,122.500001168251
211,317,95472,1,0,0:0:0:0:
167,92,95679,1,0,0:0:0:0:
303,206,95886,1,0,0:0:0:0:
428,42,96093,1,0,0:0:0:0:
361,243,96300,1,0,0:0:0:0:
330,271,96403,1,0,0:0:0:0:
289,287,96507,1,0,0:0:0:0:
110,81,96714,5,0,0:0:0:0:
233,307,96921,1,0,0:0:0:0:
382,101,97128,1,0,0:0:0:0:
233,307,97335,1,0,0:0:0:0:
252,34,97542,1,0,0:0:0:0:
98,198,97749,1,0,0:0:0:0:
382,218,97956,1,0,0:0:0:0:
437,220,98059,1,0,0:0:0:0:
472,261,98162,2,0,P|422:303|343:309,1,122.500001168251
134,197,98576,5,0,0:0:0:0:
392,97,98783,2,0,L|427:97,2,35
134,197,99196,1,0,0:0:0:0:
327,146,99403,2,0,P|360:154|387:172,1,52.5000020027161
357,249,99610,1,0,0:0:0:0:
361,265,99714,2,0,P|333:227|307:226,1,52.5000020027161
218,302,100024,5,0,0:0:0:0:
333,219,100231,1,0,0:0:0:0:
196,224,100438,1,0,0:0:0:0:
149,225,100541,1,0,0:0:0:0:
107,227,100645,1,0,0:0:0:0:
170,51,100852,5,0,0:0:0:0:
211,53,100955,1,0,0:0:0:0:
250,67,101059,1,0,0:0:0:0:
289,95,101162,1,0,0:0:0:0:
319,135,101265,1,0,0:0:0:0:
330,183,101369,1,0,0:0:0:0:
312,234,101472,5,0,0:0:0:0:
283,277,101576,1,0,0:0:0:0:
240,307,101679,1,0,0:0:0:0:
197,325,101783,2,0,B|237:318|293:277|327:246|343:199|352:167|370:140|431:102|470:95,1,367.500014019013
460,170,102713,5,0,0:0:0:0:
321,87,103024,2,0,P|292:69|274:50,1,52.5000020027161
133,229,109748,5,0,0:0:0:0:
133,229,110162,2,0,B|173:222|199:210|258:169|277:151|232:132,1,175
129,68,110990,5,0,0:0:0:0:
200,113,111196,1,0,0:0:0:0:
256,172,111403,1,0,0:0:0:0:
299,238,111610,1,0,0:0:0:0:
321,308,111817,2,0,B|316:286|305:262|276:195|250:171,1,140
251,276,112645,6,0,B|181:308|214:278|195:313,2,70
351,311,113265,1,0,0:0:0:0:
449,270,113472,2,0,B|399:271|285:265|217:204|197:156,1,280
325,62,114714,1,0,0:0:0:0:
214,176,115127,2,0,P|256:180|283:200,1,70
236,234,115438,1,0,0:0:0:0:
236,234,115541,1,0,0:0:0:0:
384,196,115955,6,0,B|355:249|321:260|292:258|262:253|237:227,1,157.500006008148
253,240,116369,2,0,B|226:178|239:149|274:123|299:111,1,157.500006008148
299,110,116783,2,0,B|274:139|223:151|178:151|124:139|89:114|67:77|109:52|164:67|182:72|203:81,1,315.000012016297
439,318,117610,6,0,B|405:329|350:307|338:292|321:269|308:247,1,157.500006008148
309,249,118024,2,0,B|336:214|336:187|328:153|317:148,1,105
320,151,118438,2,0,B|250:148|223:158|192:164|140:192|118:220|87:247|142:260,1,272.999987503052
103,90,119265,5,0,0:0:0:0:
334,184,119472,1,0,0:0:0:0:
225,324,119679,1,0,0:0:0:0:
182,83,120093,2,0,B|197:92|218:135|246:167|253:178|283:201|297:213|303:180,1,175
323,176,120714,1,0,0:0:0:0:
167,293,120921,1,0,0:0:0:0:
367,357,121334,1,0,0:0:0:0:
166,297,121748,6,0,P|148:269|166:238,1,70
185,222,122059,1,0,0:0:0:0:
185,222,122162,1,0,0:0:0:0:
341,190,122369,1,0,0:0:0:0:
328,168,122472,1,0,0:0:0:0:
319,149,122576,1,0,0:0:0:0:
137,179,122783,5,0,0:0:0:0:
155,141,122886,1,0,0:0:0:0:
183,108,122990,2,0,B|207:130|231:112|233:86,2,70
131,245,123714,2,0,P|111:267|94:277,1,35
268,122,124024,5,0,0:0:0:0:
250,142,124127,1,0,0:0:0:0:
230,165,124231,2,0,B|241:201|298:198|314:162,1,105
334,147,124645,1,0,0:0:0:0:
377,294,124852,1,0,0:0:0:0:
145,88,125059,6,0,B|200:133|199:160|211:181,1,105
218,195,125472,1,0,0:0:0:0:
359,100,125679,1,0,0:0:0:0:
128,82,125886,2,0,P|194:105|197:110,1,70
375,195,126300,1,0,0:0:0:0:
193,315,126507,1,0,0:0:0:0:
408,54,126713,6,0,P|431:97|424:128,1,70
335,113,127024,2,0,L|368:180,1,70
268,223,127334,2,0,L|231:197,1,35
130,106,127541,6,0,P|121:88|84:49,1,70
43,154,127851,2,0,L|100:198,1,70
209,250,128162,2,0,L|245:230,1,35
445,197,128369,6,0,P|452:152|442:115,1,70
367,127,128679,2,0,P|361:180|365:204,1,70
241,248,128989,2,0,L|196:234,1,35
93,130,129196,6,0,P|119:99|155:85,1,70
227,140,129507,2,0,P|271:127|307:139,1,70
381,212,129817,2,0,P|352:226|336:223,1,35
154,181,130024,6,0,B|216:199|216:199|225:276,1,112
196,308,130334,2,0,B|129:286|129:286|118:217,1,112
154,181,130645,2,0,P|184:196|213:190,1,45.4999979171754
255,237,130852,5,0,0:0:0:0:
338,216,131059,1,0,0:0:0:0:
404,165,131265,1,0,0:0:0:0:
437,95,131472,1,0,0:0:0:0:
288,95,131679,2,0,P|276:128|294:160,1,70
300,162,131990,1,0,0:0:0:0:
300,162,132093,1,0,0:0:0:0:
375,56,132300,1,0,0:0:0:0:
167,103,132507,6,0,P|180:137|215:154,1,70
216,157,132817,1,0,0:0:0:0:
216,157,132921,1,0,0:0:0:0:
261,287,133127,1,0,0:0:0:0:
396,245,133334,5,0,0:0:0:0:
187,342,133541,1,0,0:0:0:0:
306,153,133748,1,0,0:0:0:0:
121,111,133955,1,0,0:0:0:0:
298,315,134162,2,0,P|272:291|247:254,1,70
247,247,134472,1,0,0:0:0:0:
245,236,134576,1,0,0:0:0:0:
136,236,134783,5,0,0:0:0:0:
351,194,134990,1,0,0:0:0:0:
201,81,135196,1,0,0:0:0:0:
201,81,135300,1,0,0:0:0:0:
407,166,135610,1,0,0:0:0:0:
407,166,135714,1,0,0:0:0:0:
407,166,135817,2,0,B|390:181|366:193|328:215|329:261,1,105.000004005432
320,265,136127,1,0,0:0:0:0:
315,280,136231,5,0,0:0:0:0:
127,183,136438,1,0,0:0:0:0:
296,38,136645,1,0,0:0:0:0:
111,122,136852,1,0,0:0:0:0:
202,308,137059,1,0,0:0:0:0:
345,232,137265,5,0,0:0:0:0:
374,202,137369,1,0,0:0:0:0:
391,156,137472,1,0,0:0:0:0:
165,222,137679,5,0,0:0:0:0:
206,247,137783,1,0,0:0:0:0:
255,260,137886,1,0,0:0:0:0:
303,256,137990,1,0,0:0:0:0:
345,232,138093,1,0,0:0:0:0:
374,202,138196,2,0,P|392:180|392:157,1,52.5000020027161
141,162,138507,5,0,0:0:0:0:
384,197,138714,1,0,0:0:0:0:
223,64,138921,1,0,0:0:0:0:
255,294,139127,2,0,P|290:240|281:190,1,105.000004005432
284,186,139438,1,0,0:0:0:0:
284,186,139541,5,0,0:0:0:0:
128,82,139748,1,0,0:0:0:0:
295,17,139955,2,0,B|344:20|395:63|424:107,1,157.500006008148
403,123,140369,1,0,0:0:0:0:
179,193,140576,1,0,0:0:0:0:
304,354,140783,1,0,0:0:0:0:
310,164,140990,5,0,0:0:0:0:
310,164,141093,1,0,0:0:0:0:
310,164,141196,2,0,P|231:141|226:149,1,105.000004005432
255,206,141610,1,0,0:0:0:0:
251,223,141714,1,0,0:0:0:0:
242,237,141817,2,0,P|211:256|150:231,1,105.000004005432
346,177,142231,5,0,0:0:0:0:
320,144,142334,1,0,0:0:0:0:
278,145,142438,1,0,0:0:0:0:
257,157,142541,1,0,0:0:0:0:
245,163,142645,2,0,B|225:182|193:190|159:185|176:144,1,105.000004005432
205,73,143059,5,0,0:0:0:0:
170,247,143265,1,0,0:0:0:0:
207,269,143369,1,0,0:0:0:0:
251,249,143472,2,0,B|279:240|306:191|304:160,1,105.000004005432
159,98,143886,2,0,L|188:120,2,35
423,179,144300,2,0,L|414:140,1,35
408,114,144507,5,0,0:0:0:0:
214,237,144714,1,0,0:0:0:0:
358,36,144921,2,0,B|340:74|337:124|362:172,1,136.499993751526
363,177,145334,1,0,0:0:0:0:
325,311,145541,5,0,0:0:0:0:
149,226,145748,2,0,P|163:156|132:88,1,136.499993751526
132,82,146162,1,0,0:0:0:0:
403,201,146369,5,0,0:0:0:0:
124,166,146576,1,0,0:0:0:0:
346,342,146783,1,0,0:0:0:0:
292,71,146990,1,0,0:0:0:0:
149,338,147196,1,0,0:0:0:0:
398,161,147403,1,0,0:0:0:0:
257,183,147610,1,0,0:0:0:0:
257,183,147714,1,0,0:0:0:0:
257,183,147817,1,0,0:0:0:0:
369,344,148024,5,0,0:0:0:0:
343,230,148231,2,0,P|383:164|373:99,1,136.499993751526
371,88,148645,1,0,0:0:0:0:
181,262,148852,5,0,0:0:0:0:
206,144,149059,2,0,B|135:121|137:34,1,136.499993751526
137,40,149472,1,0,0:0:0:0:
299,307,149679,1,0,0:0:0:0:
126,189,149886,1,0,0:0:0:0:
275,30,150093,1,0,0:0:0:0:
451,163,150300,1,0,0:0:0:0:
294,294,150507,1,0,0:0:0:0:
280,38,150714,2,0,P|274:91|266:122,1,70
257,159,151024,5,0,0:0:0:0:
257,159,151127,1,0,0:0:0:0:
185,305,151334,1,0,0:0:0:0:
377,221,151541,1,0,0:0:0:0:
377,221,151748,1,0,0:0:0:0:
208,95,151955,1,0,0:0:0:0:
189,323,152162,1,0,0:0:0:0:
377,221,152369,2,0,P|317:242|273:216,1,105
254,233,152783,5,0,0:0:0:0:
371,313,152990,1,0,0:0:0:0:
284,114,153196,2,0,P|343:137|369:183,1,105
344,202,153610,1,0,0:0:0:0:
161,326,153817,5,0,0:0:0:0:
77,136,154024,1,0,0:0:0:0:
271,93,154231,1,0,0:0:0:0:
271,93,154334,1,0,0:0:0:0:
271,93,154438,1,0,0:0:0:0:
175,314,154645,5,0,0:0:0:0:
311,157,154852,1,0,0:0:0:0:
173,266,155059,1,0,0:0:0:0:
173,266,155162,1,0,0:0:0:0:
173,266,155265,1,0,0:0:0:0:
379,186,155472,5,0,0:0:0:0:
218,86,155679,1,0,0:0:0:0:
308,288,155886,2,0,P|236:311|176:278,1,140
248,246,156507,6,0,P|255:172|243:107,2,140
143,271,157748,2,0,P|159:310|197:327,1,70
336,203,158162,6,0,P|341:157|270:103,1,140
162,56,158783,1,0,0:0:0:0:
82,212,158990,1,0,0:0:0:0:
226,294,159196,2,0,P|301:249|319:195,1,140
96,288,159817,5,0,0:0:0:0:
384,64,160024,1,0,0:0:0:0:
384,64,160438,2,0,B|376:112|347:166|310:227|237:277|137:312,1,350
109,334,167472,5,0,0:0:0:0:
188,288,167679,1,0,0:0:0:0:
110,239,167886,1,0,0:0:0:0:
217,116,168093,1,0,0:0:0:0:
359,284,168507,5,0,0:0:0:0:
379,171,168714,2,0,B|379:129|341:65|311:44,1,140
213,33,169334,1,0,0:0:0:0:
203,126,169541,2,0,B|184:176|187:234|234:265,1,140
386,208,170162,2,0,P|345:193|311:205,1,70
297,217,170576,5,0,0:0:0:0:
266,243,170679,1,0,0:0:0:0:
233,227,170783,1,0,0:0:0:0:
186,248,170886,1,0,0:0:0:0:
157,230,170990,1,0,0:0:0:0:
134,203,171093,1,0,0:0:0:0:
136,171,171196,1,0,0:0:0:0:
160,149,171300,1,0,0:0:0:0:
194,136,171403,2,0,P|224:134|263:141,1,70
413,120,172024,6,0,P|405:148|405:164,2,35
343,272,172438,2,0,B|294:258|258:225|245:194|243:177,1,140
373,167,173059,2,0,B|341:167|342:167|342:167|336:149|336:150|340:184|340:184|334:168|334:168|311:166|311:149|311:149|310:183|310:183|306:164|306:164|284:164|284:164|283:150|283:150|283:180|283:180|282:165|269:163|268:152|268:152|267:179|267:179|266:164,1,315.000012016297
149,79,174093,6,0,P|210:87|218:101,1,70
263,153,174507,1,0,0:0:0:0:
334,269,174714,2,0,B|387:282|427:235|444:195,2,140
231,261,175748,5,0,0:0:0:0:
134,152,175955,1,0,0:0:0:0:
279,89,176162,1,0,0:0:0:0:
302,295,176369,2,0,P|382:348|421:321,1,140
366,282,176990,2,0,B|343:214|264:246|269:193,1,140
203,194,177610,2,0,B|201:264|236:274|276:279|203:304,1,140
346,108,178231,6,0,L|326:187,1,70
176,275,178645,1,0,0:0:0:0:
213,90,178852,1,0,0:0:0:0:
297,284,179059,1,0,0:0:0:0:
330,100,179265,1,0,0:0:0:0:
433,289,179472,1,0,0:0:0:0:
463,107,179679,1,0,0:0:0:0:
351,190,179886,6,0,L|326:228,2,35
201,55,180300,2,0,P|215:74|213:89,2,35
177,262,180714,2,0,P|204:287|203:289,2,35
220,274,181024,1,0,0:0:0:0:
268,259,181127,1,0,0:0:0:0:
305,224,181231,1,0,0:0:0:0:
318,175,181334,2,0,P|316:144|286:115,2,70
255,313,181955,5,0,0:0:0:0:
168,45,182162,1,0,0:0:0:0:
308,147,182369,1,0,0:0:0:0:
125,206,182576,1,0,0:0:0:0:
255,313,182783,1,0,0:0:0:0:
222,100,182990,6,0,P|261:87|297:94,1,70
235,276,183403,1,0,0:0:0:0:
353,137,183610,2,0,B|364:123|345:106|345:106|365:96|365:96|346:84|346:84|365:73|365:73|346:64|346:64|366:53|366:53|348:42|348:42|357:34|357:34|356:66,1,210.000008010865
293,254,184231,1,0,0:0:0:0:
105,131,184438,1,0,0:0:0:0:
287,87,184645,1,0,0:0:0:0:
109,279,184851,6,0,B|106:281|124:284|133:274|133:274|132:289|132:289|144:273|144:273|144:289|144:289|158:269|158:269|159:289|159:289|170:273|170:273|169:284|169:284|180:275|180:275|179:286|179:286|193:277|193:277|191:283|191:283|201:281,1,210.000008010865
319,96,185265,1,0,0:0:0:0:
319,96,185369,1,0,0:0:0:0:
319,96,185472,1,0,0:0:0:0:
141,52,185679,6,0,P|98:92|115:130,1,105.000004005432
236,246,186093,2,0,P|283:215|340:248,1,105.000004005432
256,96,186507,2,0,L|257:132,2,30.8000009399414
296,292,186921,1,0,0:0:0:0:
351,273,187024,1,0,0:0:0:0:
391,235,187127,1,0,0:0:0:0:
302,91,187334,5,0,0:0:0:0:
260,91,187438,1,0,0:0:0:0:
216,90,187541,1,0,0:0:0:0:
172,88,187645,1,0,0:0:0:0:
127,87,187748,1,0,0:0:0:0:
81,85,187852,1,0,0:0:0:0:
256,192,201196,12,0,202489,0:0:0:0:
256,211,202852,6,4,P|304:217|344:180,1,105,4|0,0:0|0:0,0:0:0:0:
356,169,203265,1,0,0:0:0:0:
284,105,203472,1,0,0:0:0:0:
96,67,203679,6,0,P|143:68|195:35,1,105,4|0,0:0|0:0,0:0:0:0:
207,41,204093,1,0,0:0:0:0:
279,153,204300,1,0,0:0:0:0:
205,245,204507,5,10,0:0:0:0:
352,319,204714,1,8,0:0:0:0:
360,169,204921,1,10,0:0:0:0:
215,87,205127,1,8,0:0:0:0:
118,268,205334,2,12,B|159:258|194:280|235:284,1,105,12|0,0:0|0:0,0:0:0:0:
248,286,205748,5,0,0:0:0:0:
362,203,205955,1,0,0:0:0:0:
226,149,206162,2,4,P|161:176|132:154,1,105,4|0,0:0|0:0,0:0:0:0:
125,146,206576,5,0,0:0:0:0:
95,30,206783,1,0,0:0:0:0:
216,57,206990,2,0,P|264:60|302:22,1,105,4|0,0:0|0:0,0:0:0:0:
311,29,207403,5,0,0:0:0:0:
342,236,207610,1,0,0:0:0:0:
201,104,207817,1,12,0:0:0:0:
226,291,208024,1,8,0:0:0:0:
319,114,208231,1,12,0:0:0:0:
138,208,208438,1,8,0:0:0:0:
80,48,208645,1,12,0:0:0:0:
260,139,209059,5,6,0:0:0:0:
315,183,209265,1,10,0:0:0:0:
303,256,209472,1,12,0:0:0:0:
236,281,209679,1,10,0:0:0:0:
183,235,209886,1,6,0:0:0:0:
194,165,210093,1,0,0:0:0:0:
260,139,210300,1,14,0:0:0:0:
255,217,210714,5,6,0:0:0:0:
183,154,210921,1,2,0:0:0:0:
251,89,211127,1,12,0:0:0:0:
268,165,211541,1,6,0:0:0:0:
325,228,211748,1,2,0:0:0:0:
264,294,211955,1,12,0:0:0:0:
157,143,212369,5,0,0:0:0:0:
236,287,212576,1,0,0:0:0:0:
283,170,212783,2,0,L|315:183,2,35
157,176,213196,5,0,0:0:0:0:
265,56,213403,1,0,0:0:0:0:
373,198,213610,1,0,0:0:0:0:
157,176,213817,2,0,B|187:187|208:265|255:279,1,140
388,134,214438,1,0,0:0:0:0:
173,327,215059,6,0,P|210:326|231:295,1,70
369,291,215472,1,0,0:0:0:0:
160,189,215679,1,0,0:0:0:0:
380,151,215886,1,0,0:0:0:0:
261,52,216093,5,0,0:0:0:0:
300,275,216300,1,0,0:0:0:0:
300,275,216403,1,0,0:0:0:0:
300,275,216507,1,0,0:0:0:0:
176,168,216714,1,0,0:0:0:0:
379,137,216921,5,0,0:0:0:0:
214,285,217127,1,0,0:0:0:0:
214,285,217231,1,0,0:0:0:0:
214,285,217334,1,0,0:0:0:0:
171,94,217541,2,0,P|218:101|243:117,2,70
269,235,218162,5,0,0:0:0:0:
349,89,218369,1,0,0:0:0:0:
428,331,218576,2,0,P|401:293|347:272,1,105
332,265,218990,5,0,0:0:0:0:
151,184,219196,1,0,0:0:0:0:
316,110,219403,2,0,B|354:121|377:152|373:190,1,105
341,202,219817,1,0,0:0:0:0:
129,258,220024,5,0,0:0:0:0:
132,47,220231,2,0,P|181:79|196:122,1,105
192,144,220644,1,0,0:0:0:0:
423,227,220852,5,0,0:0:0:0:
257,61,221059,1,0,0:0:0:0:
436,168,221265,2,0,P|415:118|390:113,1,70
240,278,221679,1,0,0:0:0:0:
314,39,221886,2,0,P|265:54|240:74,1,70
151,84,222300,5,0,0:0:0:0:
412,189,222507,1,0,0:0:0:0:
122,253,222714,1,0,0:0:0:0:
122,253,222921,1,0,0:0:0:0:
331,66,223127,1,0,0:0:0:0:
390,323,223334,1,0,0:0:0:0:
138,253,223541,2,0,P|170:288|223:273,1,105
232,272,223955,5,0,0:0:0:0:
377,182,224162,1,0,0:0:0:0:
184,62,224369,2,0,P|174:77|191:88,2,35
395,89,224783,1,0,0:0:0:0:
219,205,224990,1,0,0:0:0:0:
398,294,225196,2,0,P|344:311|306:275,1,105
300,268,225610,5,0,0:0:0:0:
129,267,225817,1,0,0:0:0:0:
172,64,226024,5,0,0:0:0:0:
172,64,226127,1,0,0:0:0:0:
172,64,226231,2,0,P|236:56|294:107,1,140
294,109,226748,1,0,0:0:0:0:
294,109,226852,1,0,0:0:0:0:
293,282,227058,2,0,B|270:264|221:283|217:228|167:244|168:212,1,140
167,107,227679,2,0,L|200:127,2,35
361,120,228093,5,0,0:0:0:0:
390,153,228196,1,0,0:0:0:0:
399,197,228300,1,0,0:0:0:0:
390,238,228403,1,0,0:0:0:0:
360,271,228507,2,0,B|347:292|325:306|307:309|295:315,1,70
246,245,228817,2,0,P|232:217|217:204,1,35
114,124,229127,5,0,0:0:0:0:
307,51,229334,1,0,0:0:0:0:
386,214,229541,1,0,0:0:0:0:
386,214,229645,1,0,0:0:0:0:
386,214,229748,2,0,P|402:268|375:313,1,90.9999958343508
183,308,230162,5,0,0:0:0:0:
128,59,230369,1,0,0:0:0:0:
128,59,230472,1,0,0:0:0:0:
128,59,230576,1,0,0:0:0:0:
380,140,230783,6,0,P|367:193|340:220,1,90.9999958343508
270,325,231196,1,0,0:0:0:0:
79,138,231403,1,0,0:0:0:0:
330,84,231610,1,0,0:0:0:0:
133,258,231817,1,0,0:0:0:0:
208,45,232024,5,0,0:0:0:0:
208,45,232127,1,0,0:0:0:0:
208,45,232231,1,0,0:0:0:0:
239,273,232438,1,0,0:0:0:0:
89,139,232644,5,0,0:0:0:0:
372,145,232851,1,0,0:0:0:0:
372,145,232955,1,0,0:0:0:0:
372,145,233059,1,0,0:0:0:0:
222,231,233265,1,0,0:0:0:0:
196,80,233472,5,0,0:0:0:0:
275,327,233679,1,0,0:0:0:0:
275,327,233782,1,0,0:0:0:0:
275,327,233886,1,0,0:0:0:0:
82,196,234093,1,0,0:0:0:0:
210,30,234300,1,0,0:0:0:0:
404,155,234507,1,0,0:0:0:0:
82,196,234714,1,0,0:0:0:0:
315,352,234921,1,0,0:0:0:0:
338,70,235127,1,0,0:0:0:0:
239,194,235334,6,0,P|264:205|269:222,2,35
150,283,235748,1,0,0:0:0:0:
395,254,235955,1,0,0:0:0:0:
397,261,236162,1,0,0:0:0:0:
241,90,236369,1,0,0:0:0:0:
157,332,236576,1,0,0:0:0:0:
395,245,236783,1,0,0:0:0:0:
217,155,236990,5,0,0:0:0:0:
186,121,237093,1,0,0:0:0:0:
141,104,237196,1,0,0:0:0:0:
346,308,237403,1,0,0:0:0:0:
212,103,237610,2,0,P|254:115|314:93,1,105
323,93,238024,1,0,0:0:0:0:
328,281,238231,1,0,0:0:0:0:
138,330,238438,1,0,0:0:0:0:
190,160,238645,6,0,P|196:189|208:191,2,35
406,317,239059,2,0,P|375:304|356:266,1,70
230,130,239472,1,0,0:0:0:0:
230,130,239576,1,0,0:0:0:0:
230,130,239679,1,0,0:0:0:0:
209,302,239886,1,0,0:0:0:0:
399,182,240093,5,0,0:0:0:0:
186,263,240300,1,0,0:0:0:0:
150,286,240403,1,0,0:0:0:0:
112,301,240507,1,0,0:0:0:0:
355,299,240714,5,0,0:0:0:0:
166,117,240921,1,0,0:0:0:0:
405,68,241127,2,0,L|382:96,2,35
400,323,241541,5,0,0:0:0:0:
213,153,241748,2,0,P|188:127|179:104,1,52.5000020027161
289,228,242059,1,0,0:0:0:0:
294,243,242162,1,0,0:0:0:0:
241,90,242369,5,0,0:0:0:0:
391,124,242576,2,0,B|385:161|353:203|292:242,1,157.500006008148
275,254,242990,1,0,0:0:0:0:
131,220,243196,5,0,0:0:0:0:
410,114,243403,1,0,0:0:0:0:
186,80,243610,2,0,B|207:97|246:121|246:164,1,105.000004005432
185,353,244024,5,0,0:0:0:0:
387,230,244231,1,0,0:0:0:0:
84,149,244438,1,0,0:0:0:0:
207,54,244852,6,2,P|244:27|280:29,1,70
356,36,245265,1,0,0:0:0:0:
392,69,245369,1,0,0:0:0:0:
416,109,245472,1,0,0:0:0:0:
406,152,245576,1,0,0:0:0:0:
370,186,245679,1,0,0:0:0:0:
256,192,245886,6,4,B|205:124|235:76|235:76|257:90|257:90|280:76|280:76|307:126|264:183|264:183|319:134|367:154|367:154|361:177|361:177|376:198|376:198|340:232|268:199|268:199|337:241|348:284|348:284|319:297|319:297|306:319|306:319|265:298|256:207|256:207|248:298|207:318|207:318|191:293|191:293|163:285|163:285|174:241|243:198|243:198|175:231|135:199|135:199|150:175|150:175|144:149|144:149|192:133|248:183|248:183,1,1461.66999910787,12|0,3:3|0:3,0:3:0:0:
