osu file format v14

[General]
AudioFilename: audio.mp3
AudioLeadIn: 0
PreviewTime: 256503
Countdown: 0
SampleSet: Soft
StackLeniency: 0.7
Mode: 0
LetterboxInBreaks: 0
WidescreenStoryboard: 0

[Editor]
Bookmarks: 13335,64668,66668,109335,111918,136001,178668,194668,235336,258668,269335,280001
DistanceSpacing: 0.4
BeatDivisor: 4
GridSize: 8
TimelineZoom: 2

[Metadata]
Title:Arigatou
TitleUnicode:ありがとう
Artist:Yonder Voice
ArtistUnicode:Yonder Voice
Creator:Elayue
Version:Lunatic
Source:東方風神録 ~ Mountain of Faith.
Tags:video game japanese yoosanhyakurei 瑶山百霊 神々が恋した幻想郷 かませ虎 東方歴絵巻 幽閉サテライト 白狐茶会 蒼羅杏 anzu sora レミオ lemiao yato mashiro stage 3 kamigami ga koi shita gensoukyou 蜃景2 shènjǐng mirage 2 c86 lbg 東方Project touhou th yuuhei satellite senya ZUN Comiket 86
BeatmapID:2427282
BeatmapSetID:1163531

[Difficulty]
HPDrainRate:5.4
CircleSize:4.5
OverallDifficulty:7.8
ApproachRate:9
SliderMultiplier:1.7
SliderTickRate:0.5

[Events]
//Background and Video events
0,0,"yuuhei.png",0,0
//Break Periods
2,176869,192069
//Storyboard Layer 0 (Background)
//Storyboard Layer 1 (Fail)
//Storyboard Layer 2 (Pass)
//Storyboard Layer 3 (Foreground)
//Storyboard Layer 4 (Overlay)
//Storyboard Sound Samples

[TimingPoints]
670,333.333333333333,4,2,2,10,1,0
4669,-100,4,2,2,15,0,0
8669,-100,4,2,2,20,0,0
11169,-100,4,2,3,5,0,0
11336,-333.333333333333,4,2,2,35,0,0
11419,-333.333333333333,4,2,2,20,0,0
13836,-100,4,2,3,5,0,0
14003,-100,4,2,2,35,0,0
14086,-333.333333333333,4,2,2,20,0,0
15169,-100,4,2,3,5,0,0
15336,-100,4,2,2,35,0,0
15419,-333.333333333333,4,2,2,20,0,0
16503,-200,4,2,3,5,0,0
16669,-333.333333333333,4,2,2,35,0,0
16753,-333.333333333333,4,2,2,20,0,0
20503,-200,4,2,3,5,0,0
20669,-200,4,2,2,35,0,0
21253,-200,4,2,2,5,0,0
21336,-200,4,2,2,35,0,0
21919,-200,4,2,2,5,0,0
22003,-500,4,2,2,35,0,0
32003,-250,4,2,2,10,0,0
32086,-250,4,2,2,15,0,0
32169,-250,4,2,2,20,0,0
32253,-250,4,2,2,25,0,0
32336,-250,4,2,2,30,0,0
32419,-250,4,2,2,35,0,0
32503,-250,4,2,2,40,0,0
32586,-250,4,2,2,45,0,0
32669,-333.333333333333,4,2,2,50,0,0
42669,-250,4,2,2,50,0,0
43253,-250,4,2,2,5,0,0
43336,-250,4,2,2,50,0,0
45919,-250,4,2,2,5,0,0
46002,-250,4,2,2,50,0,0
48586,-250,4,2,2,5,0,0
48669,-250,4,2,2,50,0,0
54003,-500,4,2,2,50,0,0
56669,-333.333333333333,4,2,2,50,0,0
57919,-333.333333333333,4,2,2,5,0,0
58003,-333.333333333333,4,2,2,50,0,0
60669,-500,4,2,2,30,0,0
63836,-200,4,2,1,35,0,0
64669,-125,4,2,1,50,0,0
86003,-111.111111111111,4,2,1,60,0,0
107336,-250,4,2,1,50,0,0
107503,-250,4,2,1,40,0,0
107669,-250,4,2,1,30,0,0
107836,-250,4,2,1,20,0,0
108003,-111.111111111111,4,2,2,30,0,0
110003,-249.999999999999,4,2,2,40,0,0
120669,-166.666666666666,4,2,2,45,0,0
121253,-166.666666666666,4,2,2,5,0,0
121336,-166.666666666666,4,2,2,45,0,0
121919,-166.666666666666,4,2,2,5,0,0
122002,-166.666666666666,4,2,2,45,0,0
123919,-166.666666666666,4,2,2,5,0,0
124002,-166.666666666666,4,2,2,45,0,0
124586,-166.666666666666,4,2,2,5,0,0
124669,-166.666666666666,4,2,2,45,0,0
128586,-166.666666666666,4,2,2,5,0,0
128669,-166.666666666666,4,2,2,50,0,0
131253,-166.666666666666,4,2,2,5,0,0
131336,-166.666666666666,4,2,1,55,0,0
133336,-111.111111111111,4,2,1,70,0,0
134002,-90.9090909090909,4,2,1,70,0,0
135169,-76.9230769230769,4,2,1,70,0,0
135336,-90.9090909090909,4,2,1,70,0,0
139336,-76.9230769230769,4,2,1,70,0,0
139502,-90.9090909090909,4,2,1,70,0,0
142002,-83.3333333333333,4,2,1,70,0,0
142169,-90.9090909090909,4,2,1,70,0,0
156502,-83.3333333333333,4,2,1,70,0,0
156669,-90.9090909090909,4,2,1,70,0,0
160669,-76.9230769230769,4,2,1,70,0,0
160835,-90.9090909090909,4,2,1,70,0,0
163335,-83.3333333333333,4,2,1,70,0,0
163502,-90.9090909090909,4,2,1,70,0,0
192669,-250,4,2,2,40,0,0
214003,-250,4,2,2,50,0,0
231919,-250,4,2,2,5,0,0
232003,-250,4,2,2,55,0,0
232586,-250,4,2,2,5,0,0
232670,-250,4,2,2,60,0,0
235003,-250,4,2,1,60,0,0
235336,-90.9090909090909,4,2,1,70,0,0
236502,-76.9230769230769,4,2,1,70,0,0
236670,-90.9090909090909,4,2,1,70,0,0
240669,-76.9230769230769,4,2,1,70,0,0
240836,-90.9090909090909,4,2,1,70,0,0
243336,-83.3333333333333,4,2,1,70,0,0
243503,-90.9090909090909,4,2,1,70,0,0
256669,-166.666666666667,4,2,1,60,0,0
266669,-125,4,2,1,70,0,0
267336,-90.9090909090909,4,2,1,70,0,0
278336,-333.333333333333,4,2,2,35,0,0
280669,-500,4,2,2,30,0,0
299669,-1000,4,2,2,30,0,0
302003,-1000,4,2,2,20,0,0
304667,342.857142857143,4,2,2,15,1,0
304667,-1000,4,2,2,15,0,0
305352,348.837209302326,4,2,2,15,1,0
305352,-1000,4,2,2,15,0,0
305700,350.877192982456,4,2,2,15,1,0
305700,-1000,4,2,2,15,0,0
306050,352.941176470588,4,2,2,15,1,0
306050,-909.918107370337,4,2,2,15,0,0
306402,355.029585798817,4,2,2,15,1,0
306757,361.44578313253,4,2,2,15,1,0
307118,364.741641337386,4,2,2,15,1,0
307118,-1000,4,2,2,15,0,0
307482,368.098159509202,4,2,2,11,1,0
307482,-914.913083257091,4,2,2,11,0,0
307850,370.37037037037,4,2,2,11,1,0
307850,-1000,4,2,2,11,0,0
308220,372.670807453416,4,2,2,11,1,0
308220,-1000,4,2,2,11,0,0
308592,375,4,2,2,11,1,0
308592,-1000,4,2,2,11,0,0
308967,387.096774193548,4,2,2,11,1,0
308967,-1000,4,2,2,11,0,0
309354,444.444444444444,4,2,2,11,1,0
309354,-1000,4,2,2,11,0,0
309798,588.235294117647,4,2,2,11,1,0
309798,-1000,4,2,2,11,0,0
310974,441.176470588235,4,2,2,11,1,0
311304,-100,4,2,2,10,0,0
311856,-100,4,2,2,9,0,0
312738,-100,4,2,2,7,0,0
314503,-100,4,2,2,6,0,0
316268,-100,4,2,2,5,0,0

[Colours]
Combo1 : 136,136,255
Combo2 : 94,255,94
Combo3 : 199,199,226
Combo4 : 172,89,255

[HitObjects]
256,192,670,12,0,11169,0:0:0:0:
256,192,11336,5,4,0:0:0:0:
256,192,11419,12,0,13836,0:0:0:0:
256,192,14003,5,4,0:0:0:0:
256,192,14086,12,0,15169,0:0:0:0:
256,192,15336,5,4,0:0:0:0:
256,192,15419,12,0,16503,0:0:0:0:
256,192,16669,5,4,0:0:0:0:
256,192,16753,12,0,20503,0:0:0:0:
292,101,20669,6,0,P|321:57|419:68,1,148.75,2|2,0:0|0:0,0:0:0:0:
416,75,21336,2,0,L|374:225,1,148.75,2|0,0:0|0:0,0:0:0:0:
359,226,22003,2,0,B|269:217|269:217|251:223|251:223|157:212,1,204,2|2,0:0|0:0,0:0:0:0:
44,239,24669,2,0,P|134:219|192:304,1,204,2|2,0:0|0:0,0:0:0:0:
264,344,27336,2,0,P|294:323|328:322,2,68,2|2|2,0:0|0:0|0:0,0:0:0:0:
382,374,29336,1,2,0:0:0:0:
455,246,30003,2,0,L|473:380,1,136,2|2,0:0|0:0,0:0:0:0:
397,200,32003,2,0,L|401:175,7,17,2|2|2|2|2|2|2|2,0:0|0:0|0:0|0:0|0:0|0:0|0:0|0:0,0:0:0:0:
459,141,32669,6,0,L|252:167,2,203.999993774414,2|2|2,0:0|0:0|0:0,0:0:0:0:
351,51,36003,1,2,0:0:0:0:
349,62,36669,1,2,0:0:0:0:
347,73,37336,1,2,0:0:0:0:
228,182,38003,6,0,P|166:107|73:131,1,203.999993774414,2|2,0:0|0:0,0:0:0:0:
130,262,40336,2,0,L|124:236,2,16.9999994812012,2|2|2,0:0|0:0|0:0,0:0:0:0:
74,304,40669,6,0,B|218:319|218:319|261:275,1,203.999993774414,2|0,0:0|0:0,0:0:0:0:
437,300,42669,2,0,P|415:330|332:310,1,119,2|0,0:0|0:0,0:0:0:0:
328,326,43336,6,0,L|352:48,1,272,2|0,0:0|0:0,0:0:0:0:
203,164,45336,2,0,P|237:210|297:206,1,119,2|0,0:0|0:0,0:0:0:0:
292,193,46003,6,0,B|18:165,1,272,2|0,0:0|0:0,0:0:0:0:
130,318,48003,2,0,P|197:306|212:261,1,119,2|0,0:0|0:0,0:0:0:0:
227,247,48670,6,0,B|286:254|286:254|296:262|296:262|361:270,2,136,2|2|2,0:0|0:0|0:0,0:0:0:0:
359,269,50669,1,2,0:0:0:0:
420,164,51336,2,0,B|451:327|451:327|401:392,1,238,2|0,0:0|0:0,0:0:0:0:
324,373,52669,2,0,P|274:287|141:294,1,238,2|0,0:0|0:0,0:0:0:0:
68,279,54003,6,0,L|51:274,3,17,10|0|8|0,0:0|0:0|0:0|0:0,0:0:0:0:
71,199,54669,2,0,L|66:165,1,34,10|8,0:0|0:0,0:0:0:0:
58,93,55169,1,0,0:0:0:0:
131,119,55336,2,0,L|148:114,3,17,10|0|8|0,0:0|0:0|0:0|0:0,0:0:0:0:
215,74,56003,2,0,L|232:79,3,17,10|0|8|0,0:0|0:0|0:0|0:0,0:0:0:0:
274,146,56669,6,0,L|280:177,3,25.4999992218018,10|0|8|0,0:0|0:0|0:0|0:0,0:0:0:0:
313,238,57336,2,0,L|310:270,1,25.4999992218018,10|0,0:0|0:0,0:0:0:0:
441,180,57669,2,0,L|404:172,1,38.2499988327027,10|0,0:0|0:0,0:0:0:0:
387,180,58003,2,0,L|356:182,3,25.4999992218018,10|0|8|0,0:0|0:0|0:0|0:0,0:0:0:0:
403,259,58669,2,0,L|394:309,1,50.9999984436036,10|8,0:0|0:0,0:0:0:0:
311,361,59336,6,0,P|292:344|260:345,3,50.9999984436036,8|8|8|8,0:0|0:0|0:0|0:0,0:0:0:0:
196,369,60669,2,0,L|178:365,3,17,8|0|0|0,0:0|0:0|0:0|0:0,0:0:0:0:
106,384,61336,2,0,L|98:329,1,51,8|0,0:0|0:0,0:0:0:0:
150,268,62003,2,0,L|154:250,3,17,8|0|0|0,0:0|0:0|0:0|0:0,0:0:0:0:
199,329,62669,2,0,B|229:321|229:321|235:323|235:323|267:313,1,68,8|0,0:0|0:0,0:0:0:0:
331,268,63503,1,0,0:0:0:0:
331,268,63669,1,8,0:0:0:0:
331,268,63836,6,0,L|377:281,2,42.5
260,220,64336,2,0,L|216:231,1,42.5
96,182,64669,6,0,P|112:211|157:221,1,68,10|8,0:1|0:1,0:0:0:0:
237,134,65003,2,0,L|160:146,1,68,2|8,0:0|0:1,0:0:0:0:
29,275,65336,2,0,B|90:287|90:287|93:295|93:295|166:307,1,136,10|10,0:1|0:1,0:0:0:0:
231,357,65836,1,8,0:1:0:0:
281,235,66003,2,0,L|213:244,1,68,2|8,0:0|0:1,0:0:0:0:
339,185,66336,1,10,0:1:0:0:
296,307,66503,1,8,0:1:0:0:
450,278,66669,2,0,P|427:253|394:246,1,68,10|0,0:3|0:0,0:0:0:0:
305,382,67003,2,0,P|337:375|360:350,1,68,10|0,0:3|0:0,0:0:0:0:
231,357,67336,5,10,0:1:0:0:
271,226,67503,2,0,B|174:206|174:206|135:226,1,136,8|8,0:1|0:1,0:0:0:0:
75,252,68003,2,0,P|95:283|127:292,1,68,8|0,0:1|0:0,0:0:0:0:
112,154,68336,2,0,B|86:163|86:163|81:170|81:170|25:186,1,68,8|0,0:1|0:0,0:0:0:0:
123,291,68669,1,10,0:1:0:0:
292,280,68836,2,0,P|227:278|197:335,1,136,8|0,0:1|0:0,0:0:0:0:
265,379,69336,2,0,L|343:362,1,68,10|0,0:1|0:0,0:0:0:0:
477,328,69669,1,10,0:1:0:0:
403,384,69836,1,8,0:1:0:0:
307,213,70003,6,0,L|291:280,1,68,10|8,0:1|0:1,0:0:0:0:
477,328,70336,2,0,L|461:260,1,68,10|0,0:1|0:0,0:0:0:0:
508,120,70669,2,0,B|450:131|450:131|442:139|442:139|371:153,1,136,10|8,0:1|0:1,0:0:0:0:
298,166,71169,1,8,0:1:0:0:
276,55,71336,2,0,P|315:72|327:118,1,68,2|8,0:0|0:1,0:0:0:0:
295,251,71669,1,8,0:1:0:0:
378,152,71836,1,8,0:1:0:0:
448,248,72003,2,0,L|380:238,1,68,10|0,0:1|0:0,0:0:0:0:
279,333,72336,2,0,L|346:323,1,68,10|0,0:1|0:0,0:0:0:0:
208,254,72669,5,10,0:1:0:0:
206,384,72836,2,0,P|156:336|83:354,1,136,8|8,0:1|0:1,0:0:0:0:
13,384,73336,2,0,L|24:234,1,136,8|8,0:1|0:1,0:0:0:0:
87,178,73836,1,8,0:1:0:0:
161,330,74003,2,0,L|77:348,1,68,10|0,0:1|0:0,0:0:0:0:
22,248,74336,2,0,L|88:262,1,68,10|8,0:1|0:1,0:0:0:0:
175,340,74669,2,0,L|83:359,1,68,10|0,0:3|0:0,0:0:0:0:
18,232,75003,2,0,L|84:246,1,68,10|0,0:3|0:0,0:0:0:0:
333,296,75336,6,8,B|343:261|343:261|316:240,1,68,10|8,0:1|0:1,0:0:0:0:
276,381,75669,2,0,L|342:368,1,68,2|8,0:0|0:1,0:0:0:0:
512,327,76003,2,0,P|444:326|421:399,1,136,10|10,0:1|0:1,0:0:0:0:
512,343,76503,1,8,0:1:0:0:
412,244,76669,2,0,L|423:171,1,68,2|8,0:0|0:1,0:0:0:0:
443,46,77003,1,10,0:1:0:0:
500,182,77169,1,8,0:1:0:0:
351,91,77336,2,0,B|320:95|320:95|315:100|315:100|272:107,1,68,10|0,0:3|0:0,0:0:0:0:
185,172,77669,2,0,P|223:194|258:171,1,68,10|0,0:3|0:0,0:0:0:0:
235,33,78003,5,10,0:1:0:0:
320,189,78169,2,0,L|184:172,1,136,8|8,0:1|0:1,0:0:0:0:
109,106,78669,2,0,L|178:94,1,68,8|0,0:1|0:0,0:0:0:0:
48,158,79003,1,8,0:1:0:0:
74,36,79169,1,0,0:0:0:0:
68,172,79336,1,10,0:1:0:0:
211,58,79503,2,0,P|171:112|88:83,1,136,8|0,0:1|0:0,0:0:0:0:
1,183,80003,2,0,L|80:171,1,68,10|0,0:1|0:0,0:0:0:0:
108,105,80336,1,10,0:1:0:0:
92,243,80503,1,8,0:1:0:0:
237,172,80669,6,0,P|214:148|173:152,1,68,10|8,0:1|0:1,0:0:0:0:
92,243,81003,2,0,P|125:242|148:218,1,68,10|0,0:1|0:0,0:0:0:0:
211,335,81336,2,0,B|154:326|154:326|140:330|140:330|70:319,1,136,10|8,0:1|0:1,0:0:0:0:
230,258,81836,1,8,0:1:0:0:
289,373,82003,2,0,L|369:357,1,68,2|8,0:0|0:1,0:0:0:0:
512,326,82336,1,8,0:1:0:0:
448,384,82503,1,8,0:1:0:0:
370,228,82669,2,0,P|347:247|350:293,1,68,10|0,0:1|0:0,0:0:0:0:
420,312,83003,2,0,P|442:292|439:246,1,68,10|0,0:1|0:0,0:0:0:0:
259,236,83336,5,10,0:1:0:0:
367,150,83503,2,8,B|430:156|430:156|438:163|438:163|517:170,1,136,8|8,0:1|0:1,0:0:0:0:
509,44,84003,2,0,P|442:72|453:137,1,136,8|8,0:1|0:1,0:0:0:0:
512,240,84503,1,8,0:1:0:0:
367,150,84669,2,0,L|282:165,1,68,8|0,0:1|0:0,0:0:0:0:
308,12,85003,2,0,L|393:27,1,68,8|8,0:1|0:1,0:0:0:0:
213,102,85336,5,10,0:1:0:0:
169,21,85503,1,8,0:1:0:0:
225,119,85669,1,10,0:3:0:0:
163,8,85836,1,8,0:3:0:0:
160,178,86003,6,0,L|84:168,1,76.4999976654053,10|8,0:0|0:1,0:0:0:0:
225,119,86336,1,2,0:0:0:0:
152,259,86503,1,8,0:3:0:0:
348,202,86669,2,0,P|278:181|226:233,1,152.999995330811,10|10,0:0|0:1,0:0:0:0:
281,311,87170,1,8,0:1:0:0:
163,334,87337,2,0,L|151:258,1,76.4999976654053,2|8,0:0|0:1,0:0:0:0:
225,119,87670,1,10,0:1:0:0:
226,232,87837,1,8,0:1:0:0:
88,163,88003,2,0,L|163:174,1,76.4999976654053,10|0,0:3|0:0,0:0:0:0:
282,194,88337,2,0,P|261:224|225:232,1,76.4999976654053,10|0,0:3|0:0,0:0:0:0:
225,119,88670,5,10,0:0:0:0:
373,223,88837,2,0,B|351:119|351:119|387:67,1,152.999995330811,0|8,0:0|0:1,0:0:0:0:
438,134,89336,1,8,0:0:0:0:
284,194,89503,1,8,0:1:0:0:
264,44,89670,2,0,B|245:136,1,76.4999976654053,8|0,0:3|0:0,0:0:0:0:
219,241,90003,1,10,0:1:0:0:
336,132,90170,2,0,B|269:140|269:140|260:148|260:148|184:156,1,152.999995330811,8|8,0:1|0:1,0:0:0:0:
56,195,90670,2,0,P|96:185|130:219,1,76.4999976654053,10|0,0:1|0:0,0:0:0:0:
173,308,91003,1,10,0:1:0:0:
280,208,91170,1,8,0:1:0:0:
287,218,91253,1,0,0:0:0:0:
294,227,91337,6,0,L|199:244,1,76.4999976654053,10|0,0:0|0:0,0:0:0:0:
284,371,91669,2,0,L|379:388,1,76.4999976654053,2|8,0:3|0:1,0:0:0:0:
479,278,92003,2,0,P|423:254|352:316,1,152.999995330811,10|8,0:0|0:1,0:0:0:0:
476,295,92503,1,8,0:1:0:0:
512,199,92670,2,0,B|499:99|499:99|456:68,1,152.999995330811,10|8,0:1|0:1,0:0:0:0:
396,144,93170,1,8,0:1:0:0:
295,75,93337,2,0,P|331:49|372:60,1,76.4999976654053,10|0,0:1|0:0,0:0:0:0:
396,144,93669,2,0,P|360:170|319:159,1,76.4999976654053,10|0,0:1|0:0,0:0:0:0:
211,104,94003,5,10,0:0:0:0:
273,223,94169,2,0,L|197:211,1,76.4999976654053,8|0,0:1|0:0,0:0:0:0:
31,192,94503,1,8,0:3:0:0:
215,291,94669,2,0,P|173:232|83:259,1,152.999995330811,8|0,0:0|0:0,0:0:0:0:
52,302,95169,1,8,0:1:0:0:
151,384,95336,2,0,L|144:305,1,76.4999976654053,8|0,0:1|0:0,0:0:0:0:
131,154,95669,1,8,0:1:0:0:
215,291,95836,1,8,0:1:0:0:
343,214,96003,6,0,L|251:207,1,76.4999976654053,2|8,0:0|0:1,0:0:0:0:
410,145,96336,1,10,0:3:0:0:
480,282,96503,1,8,0:3:0:0:
484,292,96586,1,0,0:0:0:0:
488,303,96670,6,8,B|496:270|496:270|501:267|501:267|508:226,1,76.4999976654053,10|8,0:0|0:1,0:0:0:0:
410,145,97003,2,0,L|424:228,1,76.4999976654053,2|8,0:0|0:3,0:0:0:0:
480,99,97337,2,0,L|328:121,1,152.999995330811,8|0,0:0|0:0,0:0:0:0:
221,133,97837,1,8,0:1:0:0:
257,246,98003,2,0,P|288:223|284:180,1,76.4999976654053,2|8,0:0|0:1,0:0:0:0:
196,61,98337,1,10,0:1:0:0:
328,120,98503,1,8,0:1:0:0:
193,209,98670,2,0,B|161:202|161:202|156:197|156:197|113:188,1,76.4999976654053,10|0,0:3|0:0,0:0:0:0:
288,187,99003,2,0,L|304:268,1,76.4999976654053,10|0,0:3|0:0,0:0:0:0:
396,220,99337,5,10,0:0:0:0:
246,321,99503,2,8,P|297:292|371:355,1,152.999995330811,0|8,0:0|0:1,0:0:0:0:
512,308,100003,2,0,L|436:296,1,76.4999976654053,8|8,0:0|0:1,0:0:0:0:
302,262,100337,1,8,0:3:0:0:
403,226,100503,1,2,0:0:0:0:
367,339,100670,5,10,0:1:0:0:
216,258,100837,2,0,B|148:270|148:270|141:276|141:276|51:293,1,152.999995330811,8|8,0:1|0:1,0:0:0:0:
0,188,101337,2,0,P|45:189|70:227,1,76.4999976654053,10|0,0:1|0:0,0:0:0:0:
35,357,101670,1,10,0:1:0:0:
203,336,101837,1,8,0:1:0:0:
209,349,101919,1,0,0:0:0:0:
215,360,102003,6,0,L|128:343,1,76.4999976654053,10|0,0:0|0:0,0:0:0:0:
179,191,102336,2,0,L|266:174,1,76.4999976654053,2|8,0:3|0:1,0:0:0:0:
284,264,102669,2,0,L|307:85,1,152.999995330811,10|8,0:0|0:1,0:0:0:0:
250,57,103170,1,8,0:1:0:0:
374,81,103337,2,0,L|364:6,1,76.4999976654053,2|8,0:1|0:1,0:0:0:0:
303,112,103670,1,10,0:1:0:0:
431,139,103837,1,8,0:1:0:0:
388,6,104003,2,0,L|371:101,1,76.4999976654053,8|0,0:1|0:0,0:0:0:0:
509,107,104336,2,0,L|492:12,1,76.4999976654053,8|0,0:1|0:0,0:0:0:0:
470,214,104670,5,10,0:1:0:0:
375,276,104836,2,0,B|415:284|415:284|422:283|422:283|474:296,1,76.4999976654053,8|0,0:3|0:0,0:0:0:0:
276,296,105169,5,8,0:1:0:0:
371,358,105336,2,0,B|331:366|331:366|324:365|324:365|272:378,1,76.4999976654053,8|0,0:3|0:0,0:0:0:0:
162,384,105669,5,8,0:1:0:0:
165,295,105836,2,0,L|145:394,1,76.4999976654053,8|0,0:1|0:0,0:0:0:0:
80,295,106169,5,8,0:1:0:0:
77,206,106336,2,0,L|97:305,1,76.4999976654053,8|0,0:1|0:0,0:0:0:0:
115,135,106669,1,8,0:1:0:0:
0,211,106836,1,8,0:1:0:0:
54,74,107003,5,8,0:1:0:0:
187,93,107169,1,8,0:1:0:0:
36,77,107336,2,0,L|-12:83,3,34
107,34,108003,5,2,0:0:0:0:
184,107,108669,5,2,0:0:0:0:
336,22,109336,5,6,0:0:0:0:
336,22,110003,6,0,L|312:167,1,136,2|2,0:0|0:0,0:0:0:0:
194,127,111336,2,0,P|219:101|263:107,2,68,2|2|2,0:0|0:0|0:0,0:0:0:0:
313,156,112336,1,2,0:0:0:0:
223,205,112669,2,0,L|83:189,2,136,2|2|2,0:0|0:0|0:0,0:0:0:0:
108,335,114669,5,2,0:0:0:0:
113,338,115003,1,2,0:0:0:0:
185,384,115336,2,0,P|232:308|339:322,1,204,2|2,0:0|0:0,0:0:0:0:
421,374,116669,2,0,B|408:285|408:285|436:245,1,136,2|2,0:0|0:0,0:0:0:0:
493,306,117669,1,2,0:0:0:0:
421,174,118003,6,0,L|350:186,2,68,2|2|2,0:0|0:0|0:0,0:0:0:0:
309,115,119003,1,2,0:0:0:0:
250,250,119336,2,0,L|258:181,2,68,2|2|2,0:0|0:0|0:0,0:0:0:0:
259,378,120669,6,0,P|235:336|116:345,1,178.499994552612,2|0,0:0|0:0,0:0:0:0:
101,332,121336,2,0,B|110:247|110:247|106:239|106:239|115:136,1,178.499994552612,2|0,0:0|0:0,0:0:0:0:
105,139,122003,2,0,L|86:29,2,101.999996887207,2|2|2,0:0|0:0|0:0,0:0:0:0:
87,38,123003,1,2,0:0:0:0:
199,175,123336,2,0,P|265:168|287:52,1,178.499994552612,2|0,0:0|0:0,0:0:0:0:
310,64,124003,2,0,B|437:98|437:98|485:68,1,178.499994552612,2|0,0:0|0:0,0:0:0:0:
486,89,124669,2,0,L|460:192,1,101.999996887207,2|0,0:0|0:0,0:0:0:0:
425,322,125336,5,2,0:0:0:0:
378,265,125669,1,2,0:0:0:0:
270,346,126003,2,0,L|149:333,2,101.999996887207,2|2|2,0:0|0:0|0:0,0:0:0:0:
158,256,127003,1,2,0:0:0:0:
37,355,127336,1,2,0:0:0:0:
67,257,127669,1,2,0:0:0:0:
13,179,128003,2,0,L|39:366,1,178.499994552612,2|0,0:0|0:0,0:0:0:0:
51,355,128669,6,0,L|68:239,1,101.999996887207,2|0,0:0|0:0,0:0:0:0:
237,317,129336,2,0,L|121:334,1,101.999996887207,2|0,0:0|0:0,0:0:0:0:
256,192,130003,1,2,0:0:0:0:
256,192,130086,12,0,131253,0:0:0:0:
258,192,131336,5,8,0:1:0:0:
218,266,131503,1,8,0:1:0:0:
152,100,131836,5,8,0:1:0:0:
175,173,132003,1,8,0:1:0:0:
146,87,132169,1,8,0:1:0:0:
128,236,132336,1,8,0:3:0:0:
246,344,132669,5,8,0:1:0:0:
335,331,132836,1,8,0:1:0:0:
233,349,133003,1,8,0:1:0:0:
298,254,133169,1,8,0:1:0:0:
171,200,133336,2,0,B|179:238|179:238|184:243|184:243|193:298,1,76.4999976654053,8|0,0:3|0:0,0:0:0:0:
140,333,133669,1,8,0:1:0:0:
298,254,133836,1,8,0:1:0:0:
109,129,134003,6,0,B|48:111|48:111|101:112,1,93.5000028533936,10|8,0:1|0:1,0:0:0:0:
98,106,134253,1,8,0:1:0:0:
98,106,134336,1,8,0:1:0:0:
171,200,134503,1,8,0:1:0:0:
207,59,134669,2,0,B|245:49|245:49|259:55|259:55|328:39,1,93.5000028533936,8|0,0:3|0:0,0:0:0:0:
438,149,135003,1,10,0:1:0:0:
382,93,135169,2,0,P|359:98|334:130,1,55.2499974708558,10|0,0:1|0:0,0:0:0:0:
383,262,135336,5,10,0:1:0:0:
503,214,135503,1,8,0:1:0:0:
505,204,135586,1,8,0:1:0:0:
506,193,135669,1,10,0:3:0:0:
382,93,135836,5,8,0:1:0:0:
464,278,136003,1,10,0:3:0:0:
505,204,136169,1,8,0:1:0:0:
330,320,136336,2,0,B|290:309|290:309|283:310|283:310|228:296,1,93.5000028533936,10|8,0:3|0:1,0:0:0:0:
382,262,136669,6,0,B|420:287|420:287|406:334,1,93.5000028533936,10|8,0:1|0:1,0:0:0:0:
475,377,136919,1,8,0:1:0:0:
494,371,137003,1,8,0:1:0:0:
330,321,137169,1,8,0:1:0:0:
485,198,137336,2,0,L|505:307,1,93.5000028533936,8|0,0:3|0:0,0:0:0:0:
330,321,137669,1,8,0:1:0:0:
494,371,137836,1,8,0:1:0:0:
397,190,138003,5,8,0:1:0:0:
262,248,138169,1,8,0:1:0:0:
261,261,138253,1,8,0:1:0:0:
261,273,138336,1,10,0:3:0:0:
331,144,138503,5,8,0:1:0:0:
330,321,138669,1,10,0:3:0:0:
396,273,138836,5,8,0:1:0:0:
202,338,139003,2,0,P|157:327|141:283,1,93.5000028533936,10|0,0:3|0:0,0:0:0:0:
155,211,139253,1,8,0:1:0:0:
155,211,139336,2,0,B|169:187|169:187|168:215,1,55.2499974708558,10|0,0:1|0:0,0:0:0:0:
90,364,139503,2,0,B|47:352|47:352|38:355|38:355|-17:342,1,93.5000028533936,8|0,0:1|0:0,0:0:0:0:
140,286,139836,1,8,0:1:0:0:
283,367,140003,2,0,L|271:248,1,93.5000028533936,8|0,0:3|0:0,0:0:0:0:
254,103,140336,1,10,0:1:0:0:
346,235,140503,1,10,0:1:0:0:
341,69,140669,5,10,0:1:0:0:
250,263,140836,1,8,0:1:0:0:
261,268,140919,1,8,0:1:0:0:
273,273,141003,1,10,0:3:0:0:
170,195,141169,1,8,0:1:0:0:
155,342,141336,5,10,0:3:0:0:
175,178,141503,1,8,0:1:0:0:
71,336,141669,2,0,P|37:321|45:253,1,93.5000028533936,10|0,0:1|0:0,0:0:0:0:
103,227,141919,1,8,0:1:0:0:
103,227,142003,2,0,B|126:240|126:240|102:244,1,50.9999984436036,10|0,0:1|0:0,0:0:0:0:
0,197,142169,2,0,L|14:104,1,93.5000028533936,10|0,0:1|0:0,0:0:0:0:
30,269,142503,1,8,0:1:0:0:
160,85,142669,2,0,B|175:183,1,93.5000028533936,8|0,0:3|0:0,0:0:0:0:
208,13,143003,1,8,0:1:0:0:
83,65,143169,1,8,0:1:0:0:
254,190,143336,5,8,0:1:0:0:
357,83,143503,1,8,0:1:0:0:
354,100,143586,1,8,0:1:0:0:
352,116,143669,1,10,0:3:0:0:
286,32,143836,1,10,0:1:0:0:
440,177,144003,5,10,0:3:0:0:
436,33,144169,1,8,0:1:0:0:
441,195,144336,5,10,0:3:0:0:
438,15,144503,1,8,0:1:0:0:
254,190,144669,6,0,L|270:283,1,93.5000028533936,10|8,0:1|0:1,0:0:0:0:
246,350,144919,1,8,0:1:0:0:
242,371,145003,1,8,0:1:0:0:
346,233,145169,1,8,0:1:0:0:
191,141,145336,2,0,B|145:128|145:128|176:169,1,93.5000028533936,8|0,0:3|0:0,0:0:0:0:
269,282,145669,1,8,0:1:0:0:
302,115,145836,2,0,B|302:94|302:94|282:110,1,46.7500014266968,8|0,0:1|0:1,0:0:0:0:
346,233,146003,5,8,0:1:0:0:
472,190,146169,1,8,0:1:0:0:
485,193,146253,1,8,0:1:0:0:
497,198,146336,1,10,0:3:0:0:
324,243,146503,1,10,0:1:0:0:
424,117,146669,5,10,0:3:0:0:
401,282,146836,1,8,0:1:0:0:
261,196,147003,2,0,B|219:204|219:204|213:201|213:201|142:215,1,93.5000028533936,10|0,0:1|0:0,0:0:0:0:
98,242,147253,1,8,0:1:0:0:
102,246,147336,6,0,B|77:243|77:243|107:218,1,46.7500014266968,10|0,0:1|0:0,0:0:0:0:
193,284,147503,1,8,0:1:0:0:
324,243,147669,5,8,0:1:0:0:
195,305,147836,1,8,0:1:0:0:
368,384,148003,2,0,L|385:284,1,93.5000028533936,8|0,0:3|0:0,0:0:0:0:
403,148,148336,1,8,0:1:0:0:
458,303,148503,1,8,0:1:0:0:
324,243,148669,5,8,0:1:0:0:
227,315,148836,1,8,0:1:0:0:
223,300,148919,1,8,0:1:0:0:
219,284,149003,1,8,0:3:0:0:
293,373,149169,1,8,0:1:0:0:
148,244,149336,5,10,0:3:0:0:
324,243,149503,1,8,0:1:0:0:
224,105,149669,2,0,B|220:145|220:145|223:154|223:154|218:197,1,93.5000028533936,10|0,0:1|0:0,0:0:0:0:
222,280,149919,1,8,0:1:0:0:
222,280,150003,6,0,B|240:296|240:296|234:266,1,46.7500014266968,10|0,0:1|0:0,0:0:0:0:
135,168,150169,2,0,P|97:175|74:232,1,93.5000028533936,8|0,0:1|0:0,0:0:0:0:
170,350,150503,1,8,0:1:0:0:
13,309,150669,2,0,L|105:294,1,93.5000028533936,8|0,0:3|0:0,0:0:0:0:
217,197,151003,1,10,0:1:0:0:
72,221,151169,1,8,0:1:0:0:
235,273,151336,5,10,0:1:0:0:
321,167,151503,1,8,0:1:0:0:
317,186,151586,1,8,0:1:0:0:
314,201,151669,1,8,0:3:0:0:
392,329,151836,1,8,0:1:0:0:
321,167,152003,5,10,0:3:0:0:
397,347,152169,1,8,0:1:0:0:
491,254,152336,2,0,B|447:246|447:246|440:250|440:250|370:238,1,93.5000028533936,8|0,0:1|0:0,0:0:0:0:
403,152,152586,1,8,0:1:0:0:
403,152,152669,6,0,B|420:137|420:137|417:173,1,46.7500014266968,10|0,0:1|0:0,0:0:0:0:
332,293,152836,2,0,P|278:286|263:248,1,93.5000028533936,8|0,0:1|0:0,0:0:0:0:
335,94,153169,1,8,0:1:0:0:
492,254,153336,2,0,L|399:242,1,93.5000028533936,8|0,0:3|0:0,0:0:0:0:
191,212,153669,1,8,0:1:0:0:
332,293,153836,1,8,0:1:0:0:
264,148,154003,5,8,0:1:0:0:
128,298,154169,1,8,0:1:0:0:
121,281,154253,1,8,0:1:0:0:
114,264,154336,1,10,0:3:0:0:
200,102,154503,1,8,0:1:0:0:
218,293,154669,5,10,0:3:0:0:
30,264,154836,1,8,0:1:0:0:
240,293,155003,5,10,0:3:0:0:
9,262,155169,1,8,0:1:0:0:
169,127,155336,6,0,P|201:163|192:217,1,93.5000028533936,10|8,0:1|0:1,0:0:0:0:
182,220,155586,1,8,0:1:0:0:
182,220,155669,1,8,0:1:0:0:
82,140,155836,1,8,0:1:0:0:
243,78,156003,2,0,B|288:85|288:85|295:91|295:91|355:100,1,93.5000028533936,8|0,0:3|0:0,0:0:0:0:
510,126,156336,1,10,0:1:0:0:
398,48,156503,2,0,B|397:21|397:21|413:44,1,50.9999984436036,10|0,0:1|0:0,0:0:0:0:
464,194,156669,5,10,0:1:0:0:
503,94,156836,1,8,0:1:0:0:
506,110,156919,1,8,0:1:0:0:
510,126,157003,1,10,0:3:0:0:
398,48,157169,1,8,0:1:0:0:
333,187,157336,5,10,0:3:0:0:
501,84,157503,1,8,0:1:0:0:
476,279,157669,2,0,L|360:255,1,93.5000028533936,10|8,0:3|0:1,0:0:0:0:
273,356,158003,6,0,P|304:328|358:345,1,93.5000028533936,10|8,0:1|0:1,0:0:0:0:
425,379,158253,1,8,0:1:0:0:
449,372,158336,1,8,0:1:0:0:
384,260,158503,1,8,0:1:0:0:
223,291,158669,2,0,B|227:249|227:249|233:242|233:242|239:196,1,93.5000028533936,8|0,0:3|0:0,0:0:0:0:
256,87,159003,1,8,0:1:0:0:
149,238,159169,1,8,0:1:0:0:
333,187,159336,5,8,0:1:0:0:
476,256,159503,1,8,0:1:0:0:
471,241,159586,1,8,0:1:0:0:
466,225,159669,1,8,0:3:0:0:
409,329,159836,1,8,0:1:0:0:
402,122,160003,5,10,0:3:0:0:
476,256,160169,1,8,0:1:0:0:
333,187,160336,2,0,P|282:186|264:224,1,93.5000028533936,10|0,0:3|0:0,0:0:0:0:
275,302,160586,1,8,0:1:0:0:
275,302,160669,2,0,B|289:326|289:326|288:298,1,55.2499974708558,10|0,0:1|0:0,0:0:0:0:
189,205,160836,2,0,B|145:197|145:197|138:200|138:200|79:189,1,93.5000028533936,8|0,0:1|0:0,0:0:0:0:
201,286,161169,1,8,0:1:0:0:
66,337,161336,2,0,P|118:324|130:271,1,93.5000028533936,8|0,0:3|0:0,0:0:0:0:
124,121,161669,1,10,0:1:0:0:
22,271,161836,1,10,0:1:0:0:
189,205,162003,5,10,0:1:0:0:
306,269,162169,1,8,0:1:0:0:
293,272,162253,1,8,0:1:0:0:
279,276,162336,1,10,0:3:0:0:
383,319,162503,1,8,0:1:0:0:
358,181,162669,5,10,0:3:0:0:
295,360,162836,1,8,0:1:0:0:
189,205,163003,2,0,L|209:98,1,93.5000028533936,10|0,0:1|0:0,0:0:0:0:
239,43,163253,1,8,0:1:0:0:
239,43,163336,2,0,P|270:56|273:89,1,50.9999984436036,10|0,0:1|0:0,0:0:0:0:
127,145,163503,2,0,B|90:133|90:133|81:136|81:136|15:118,1,93.5000028533936,8|0,0:1|0:0,0:0:0:0:
188,204,163836,1,8,0:1:0:0:
41,288,164003,2,0,P|57:253|123:247,1,93.5000028533936,8|0,0:3|0:0,0:0:0:0:
277,300,164336,1,8,0:1:0:0:
188,204,164503,1,8,0:1:0:0:
218,361,164669,5,8,0:1:0:0:
337,224,164836,1,8,0:1:0:0:
339,240,164919,1,8,0:1:0:0:
342,256,165003,1,10,0:3:0:0:
205,275,165169,1,10,0:1:0:0:
358,366,165336,5,10,0:3:0:0:
419,216,165503,1,8,0:1:0:0:
348,384,165669,5,10,0:3:0:0:
426,198,165836,1,8,0:1:0:0:
484,374,166003,6,0,B|475:330|475:330|477:322|477:322|471:282,1,93.5000028533936,10|8,0:1|0:1,0:0:0:0:
508,219,166253,1,8,0:1:0:0:
512,199,166336,1,8,0:1:0:0:
383,278,166503,1,8,0:1:0:0:
359,133,166669,2,0,B|313:118|313:118|345:171,1,93.5000028533936,8|0,0:3|0:0,0:0:0:0:
470,281,167003,1,8,0:1:0:0:
460,105,167169,2,0,B|477:90|477:90|475:114,1,46.7500014266968,8|0,0:1|0:1,0:0:0:0:
426,198,167336,5,8,0:1:0:0:
373,34,167503,1,8,0:1:0:0:
356,38,167586,1,8,0:1:0:0:
341,43,167669,1,10,0:3:0:0:
460,105,167836,1,10,0:1:0:0:
326,208,168003,5,10,0:3:0:0:
203,119,168169,1,8,0:1:0:0:
211,251,168336,2,0,P|243:234|231:165,1,93.5000028533936,10|0,0:1|0:0,0:0:0:0:
203,119,168586,1,8,0:1:0:0:
203,119,168669,6,0,B|207:93|207:93|231:124,1,46.7500014266968,10|0,0:1|0:0,0:0:0:0:
135,230,168836,1,8,0:1:0:0:
93,97,169003,5,8,0:1:0:0:
246,181,169169,1,8,0:1:0:0:
276,31,169336,2,0,B|232:25|232:25|226:20|226:20|180:14,1,93.5000028533936,8|0,0:3|0:0,0:0:0:0:
328,98,169669,1,8,0:1:0:0:
497,29,169836,1,8,0:1:0:0:
415,145,170003,5,8,0:1:0:0:
412,19,170169,1,8,0:1:0:0:
417,34,170253,1,8,0:1:0:0:
422,48,170336,1,10,0:3:0:0:
276,31,170503,1,8,0:1:0:0:
415,145,170669,5,10,0:3:0:0:
497,29,170836,1,8,0:1:0:0:
328,98,171003,2,0,B|332:141|332:141|329:147|329:147|334:190,1,93.5000028533936,10|0,0:1|0:0,0:0:0:0:
376,254,171253,1,8,0:1:0:0:
376,254,171336,6,0,P|402:239|409:209,1,46.7500014266968,10|0,0:1|0:0,0:0:0:0:
256,176,171503,2,0,L|164:198,1,93.5000028533936,8|0,0:1|0:0,0:0:0:0:
259,68,171836,1,8,0:1:0:0:
193,31,172003,2,0,P|138:50|130:98,1,93.5000028533936,8|0,0:3|0:0,0:0:0:0:
103,248,172336,1,10,0:1:0:0:
196,120,172503,1,8,0:1:0:0:
49,161,172669,5,10,0:1:0:0:
211,274,172836,1,8,0:1:0:0:
196,277,172919,1,8,0:1:0:0:
179,281,173003,1,8,0:3:0:0:
314,328,173169,1,8,0:1:0:0:
455,202,173336,5,10,0:3:0:0:
420,359,173503,1,8,0:1:0:0:
512,274,173669,2,0,B|467:280|467:280|461:278|461:278|391:290,1,93.5000028533936,10|0,0:1|0:0,0:0:0:0:
350,248,173919,1,0,0:0:0:0:
350,248,174003,6,0,B|336:226|336:226|371:234,1,46.7500014266968,10|0,0:1|0:0,0:0:0:0:
420,359,174169,2,0,L|327:343,1,93.5000028533936,8|0,0:1|0:0,0:0:0:0:
230,196,174503,6,0,B|244:174|244:174|209:182,1,46.7500014266968,8|0,0:1|0:0,0:0:0:0:
158,323,174669,2,0,L|250:307,1,93.5000028533936,8|0,0:1|0:0,0:0:0:0:
365,115,175003,6,0,B|351:93|351:93|386:101,1,46.7500014266968,8|0,0:1|0:1,0:0:0:0:
442,263,175169,2,0,L|349:247,1,93.5000028533936,8|0,0:1|0:0,0:0:0:0:
218,38,175503,6,0,B|232:16|232:16|197:24,1,46.7500014266968,8|0,0:1|0:0,0:0:0:0:
138,213,175669,2,0,L|230:197,1,93.5000028533936,8|0,0:1|0:0,0:0:0:0:
83,154,176003,1,8,0:1:0:0:
169,291,176169,1,8,0:3:0:0:
230,196,176336,5,8,0:1:0:0:
77,272,176503,1,8,0:1:0:0:
248,186,176669,5,8,0:1:0:0:
265,128,192669,6,0,P|338:116|377:172,2,136,2|2|2,0:0|0:0|0:0,0:0:0:0:
205,192,194336,1,2,0:0:0:0:
125,156,194669,2,0,B|122:124|122:124|116:114|116:114|113:78,1,68,2|2,0:0|0:0,0:0:0:0:
1,186,195336,6,0,L|208:192,1,204,2|0,0:0|0:0,0:0:0:0:
305,261,196669,6,0,B|282:175|282:175|309:135,1,136,2|2,0:0|0:0,0:0:0:0:
383,178,197669,1,2,0:0:0:0:
481,117,198003,5,2,0:0:0:0:
462,189,198336,1,2,0:0:0:0:
486,308,198669,2,0,B|441:300|441:300|435:304|435:304|384:295,1,102,2|0,0:0|0:0,0:0:0:0:
316,319,199336,6,0,P|270:270|201:284,1,136,2|2,0:0|0:0,0:0:0:0:
158,344,200336,1,2,0:0:0:0:
55,289,200669,6,0,B|69:206|69:206|35:153,1,136,2|0,0:0|0:0,0:0:0:0:
35,287,201669,1,0,0:0:0:0:
91,357,202003,2,0,L|169:341,1,68,0|0,0:0|0:0,0:0:0:0:
296,311,202669,1,2,0:0:0:0:
187,278,203003,1,2,0:0:0:0:
264,191,203336,6,0,L|275:114,2,68,2|2|2,0:0|0:0|0:0,0:0:0:0:
321,239,204336,1,2,0:0:0:0:
385,190,204669,2,0,P|423:190|448:215,1,68,2|2,0:0|0:0,0:0:0:0:
486,278,205336,1,2,0:0:0:0:
444,209,205669,1,2,0:0:0:0:
361,286,206003,6,0,L|146:268,1,204,2|0,0:0|0:0,0:0:0:0:
88,294,207336,2,0,P|141:267|130:188,1,136,2|2,0:0|0:0,0:0:0:0:
92,130,208336,1,2,0:0:0:0:
200,96,208669,6,0,L|208:163,1,68,2|0,0:0|0:0,0:0:0:0:
268,221,209336,2,0,P|297:184|357:186,1,102,2|0,0:0|0:0,0:0:0:0:
377,106,210003,6,0,B|447:113|447:113|455:117|455:117|526:124,1,136,2|2,0:0|0:0,0:0:0:0:
348,181,211003,1,2,0:0:0:0:
252,105,211336,2,0,L|273:252,1,136,2|0,0:0|0:0,0:0:0:0:
285,341,212336,1,0,0:0:0:0:
349,234,212669,1,0,0:0:0:0:
423,300,213003,2,0,L|354:313,2,68,2|2|2,0:0|0:0|0:0,0:0:0:0:
288,342,214003,6,0,P|235:288|116:301,1,204,2|2,0:0|0:0,0:0:0:0:
121,316,215169,1,2,0:0:0:0:
25,265,215336,2,0,L|42:339,2,68,2|2|2,0:0|0:0|0:0,0:0:0:0:
121,316,216336,1,2,0:0:0:0:
187,207,216669,6,0,L|327:221,1,136,2|0,0:0|0:0,0:0:0:0:
132,146,217669,1,0,0:0:0:0:
26,266,218003,1,0,0:0:0:0:
48,136,218336,2,0,L|65:204,2,68,2|2|2,0:0|0:0|0:0,0:0:0:0:
92,0,219336,2,0,L|64:207,1,204,2|2,0:0|0:0,0:0:0:0:
57,212,220502,1,2,0:0:0:0:
124,264,220669,2,0,P|143:242|191:240,2,68,2|2|2,0:0|0:0|0:0,0:0:0:0:
100,337,221669,1,2,0:0:0:0:
208,372,222003,6,0,B|260:356|260:356|269:360|269:360|333:342,1,119,2|0,0:0|0:0,0:0:0:0:
336,332,222669,2,0,P|390:370|462:357,1,136,0|0,0:0|0:0,0:0:0:0:
512,282,223669,1,2,0:0:0:0:
511,291,223836,1,2,0:0:0:0:
509,299,224003,1,2,0:0:0:0:
443,225,224336,2,0,L|435:181,1,34,2|0,0:0|0:0,0:0:0:0:
512,170,224669,6,0,L|365:147,1,136,2|0,0:0|0:0,0:0:0:0:
308,191,225669,1,0,0:0:0:0:
354,75,226003,1,0,0:0:0:0:
228,140,226336,1,2,0:0:0:0:
229,149,226503,1,2,0:0:0:0:
231,158,226669,1,2,0:0:0:0:
146,106,227003,1,2,0:0:0:0:
47,227,227336,6,0,P|92:186|164:205,1,136,2|0,0:0|0:0,0:0:0:0:
227,245,228336,1,0,0:0:0:0:
296,195,228669,2,0,L|150:201,1,136,0|2,0:0|0:0,0:0:0:0:
98,259,229670,1,2,0:0:0:0:
59,120,230003,5,2,0:0:0:0:
38,191,230336,1,0,0:0:0:0:
18,264,230669,1,0,0:0:0:0:
160,200,231003,1,2,0:0:0:0:
98,259,231336,2,0,L|225:237,1,119,2|0,0:0|0:0,0:0:0:0:
222,253,232003,2,0,P|262:211|320:224,1,119,2|0,0:0|0:0,0:0:0:0:
331,239,232669,6,0,B|306:149|306:149|331:102,1,136,2|0,0:0|0:0,0:0:0:0:
389,155,233669,1,0,0:0:0:0:
288,52,234003,1,0,0:0:0:0:
148,194,234336,5,2,0:0:0:0:
215,225,234669,1,2,0:0:0:0:
167,115,235003,5,2,0:0:0:0:
223,238,235169,1,0,0:0:0:0:
356,107,235336,6,0,B|317:99|317:99|311:93|311:93|243:80,1,93.5000028533936,10|8,0:1|0:1,0:0:0:0:
249,94,235586,1,8,0:1:0:0:
249,94,235669,1,8,0:1:0:0:
352,16,235836,1,8,0:1:0:0:
446,139,236002,2,0,B|429:81|429:81|450:34,1,93.5000028533936,8|0,0:3|0:0,0:0:0:0:
512,176,236336,1,10,0:1:0:0:
434,253,236503,2,0,L|366:233,1,55.2499974708558,10|0,0:1|0:0,0:0:0:0:
465,322,236669,5,10,0:1:0:0:
310,258,236836,1,8,0:1:0:0:
312,268,236919,1,8,0:1:0:0:
313,279,237002,1,10,0:3:0:0:
434,253,237169,1,8,0:1:0:0:
264,355,237336,5,10,0:3:0:0:
219,205,237502,1,8,0:1:0:0:
108,284,237669,2,0,P|138:313|207:292,1,93.5000028533936,10|8,0:3|0:1,0:0:0:0:
311,190,238002,6,8,B|212:205,1,93.5000028533936,10|8,0:1|0:1,0:0:0:0:
159,155,238252,1,8,0:1:0:0:
143,152,238336,1,8,0:1:0:0:
108,284,238502,1,8,0:1:0:0:
12,158,238669,2,0,B|21:200|21:200|27:207|27:207|38:271,1,93.5000028533936,8|0,0:3|0:0,0:0:0:0:
69,384,239002,1,8,0:1:0:0:
110,267,239169,1,8,0:1:0:0:
0,312,239336,5,8,0:1:0:0:
150,384,239502,1,8,0:1:0:0:
162,382,239586,1,8,0:1:0:0:
174,379,239669,1,10,0:3:0:0:
110,267,239836,1,8,0:1:0:0:
249,316,240002,5,10,0:3:0:0:
265,186,240169,1,8,0:1:0:0:
110,267,240336,2,0,L|202:252,1,93.5000028533936,10|0,0:3|0:0,0:0:0:0:
265,186,240586,1,8,0:1:0:0:
265,186,240669,2,0,B|203:177,1,55.2499974708558,10|0,0:1|0:0,0:0:0:0:
249,316,240836,2,0,P|297:300|305:256,1,93.5000028533936,8|0,0:1|0:0,0:0:0:0:
202,251,241169,1,8,0:1:0:0:
311,378,241336,2,0,L|423:358,1,93.5000028533936,8|0,0:3|0:0,0:0:0:0:
512,338,241669,1,10,0:1:0:0:
382,288,241836,1,10,0:1:0:0:
462,160,242002,5,10,0:1:0:0:
460,281,242169,1,8,0:1:0:0:
473,276,242252,1,8,0:1:0:0:
485,271,242336,1,10,0:3:0:0:
366,173,242502,1,8,0:1:0:0:
287,257,242669,5,10,0:3:0:0:
316,102,242836,1,8,0:1:0:0:
155,202,243002,2,0,B|200:194|200:194|204:189|204:189|264:179,1,93.5000028533936,10|0,0:1|0:0,0:0:0:0:
115,136,243253,1,8,0:1:0:0:
115,136,243336,6,0,B|94:118|94:118|101:145,1,50.9999984436036,10|0,0:1|0:0,0:0:0:0:
110,265,243503,2,0,B|49:257|49:257|20:215,1,93.5000028533936,8|0,0:1|0:0,0:0:0:0:
155,202,243836,1,8,0:1:0:0:
226,295,244002,2,0,P|223:349|192:369,1,93.5000028533936,8|0,0:3|0:0,0:0:0:0:
27,332,244336,1,8,0:1:0:0:
118,384,244502,1,8,0:1:0:0:
226,295,244669,5,8,0:1:0:0:
310,383,244836,1,8,0:1:0:0:
313,366,244919,1,8,0:1:0:0:
316,350,245002,1,10,0:3:0:0:
228,190,245169,1,10,0:1:0:0:
372,279,245336,5,10,0:3:0:0:
226,295,245502,1,8,0:1:0:0:
387,276,245669,5,10,0:3:0:0:
212,297,245836,1,8,0:1:0:0:
327,130,246002,6,0,L|307:223,1,93.5000028533936,10|8,0:1|0:1,0:0:0:0:
293,236,246252,1,8,0:1:0:0:
293,236,246336,1,8,0:1:0:0:
402,186,246502,1,8,0:1:0:0:
280,61,246669,2,0,P|235:63|215:129,1,93.5000028533936,8|0,0:3|0:0,0:0:0:0:
307,221,247002,1,8,0:1:0:0:
200,260,247169,2,0,L|246:268,1,46.7500014266968,8|0,0:1|0:1,0:0:0:0:
371,363,247336,5,8,0:1:0:0:
448,254,247502,1,0,0:1:0:0:
451,268,247586,1,0,0:1:0:0:
453,279,247669,1,2,0:3:0:0:
387,192,247836,1,10,0:1:0:0:
491,147,248002,5,10,0:3:0:0:
340,116,248169,1,8,0:1:0:0:
411,2,248336,2,0,B|418:44|418:44|417:52|417:52|424:93,1,93.5000028533936,10|0,0:1|0:0,0:0:0:0:
340,116,248586,1,8,0:1:0:0:
340,116,248669,6,0,B|325:97|325:97|352:102,1,46.7500014266968,10|0,0:1|0:0,0:0:0:0:
491,147,248836,1,8,0:1:0:0:
510,0,249002,5,8,0:1:0:0:
424,94,249169,1,8,0:1:0:0:
315,29,249336,2,0,L|216:49,1,93.5000028533936,8|0,0:3|0:0,0:0:0:0:
69,71,249669,1,8,0:1:0:0:
159,0,249836,1,8,0:1:0:0:
102,146,250002,5,8,0:1:0:0:
232,204,250169,1,8,0:1:0:0:
218,208,250252,1,8,0:1:0:0:
202,212,250336,1,8,0:3:0:0:
263,113,250502,1,8,0:1:0:0:
76,226,250669,5,10,0:3:0:0:
126,329,250836,1,8,0:1:0:0:
8,378,251002,2,0,B|22:270,1,93.5000028533936,10|0,0:1|0:0,0:0:0:0:
71,223,251252,1,8,0:1:0:0:
71,223,251336,6,0,B|54:203|54:203|61:234,1,46.7500014266968,10|0,0:1|0:0,0:0:0:0:
91,111,251502,2,0,B|51:118|51:118|46:123|46:123|-19:137,1,93.5000028533936,8|0,0:1|0:0,0:0:0:0:
146,175,251836,1,8,0:1:0:0:
254,60,252002,2,0,L|239:152,1,93.5000028533936,8|0,0:3|0:0,0:0:0:0:
199,5,252336,1,10,0:1:0:0:
329,76,252502,1,8,0:1:0:0:
502,18,252669,5,10,0:1:0:0:
398,159,252836,1,8,0:1:0:0:
383,154,252919,1,8,0:1:0:0:
370,151,253002,1,8,0:3:0:0:
512,106,253169,5,10,0:1:0:0:
474,183,253336,1,8,0:3:0:0:
370,151,253502,1,8,0:1:0:0:
360,281,253669,2,0,B|406:270|406:270|416:275|416:275|456:263,1,93.5000028533936,10|0,0:1|0:0,0:0:0:0:
328,365,253919,1,8,0:1:0:0:
328,365,254002,6,0,B|275:351,1,46.7500014266968,10|0,0:1|0:0,0:0:0:0:
177,268,254169,2,0,P|128:269|104:315,1,93.5000028533936,8|0,0:1|0:0,0:0:0:0:
204,348,254502,1,8,0:1:0:0:
288,241,254669,2,0,L|273:147,1,93.5000028533936,8|0,0:3|0:0,0:0:0:0:
258,29,255002,1,8,0:1:0:0:
200,151,255169,1,8,0:1:0:0:
164,53,255336,5,8,0:1:0:0:
339,87,255503,1,8,0:1:0:0:
143,47,255669,5,8,0:1:0:0:
357,89,255836,1,8,0:1:0:0:
99,127,256003,5,8,0:3:0:0:
258,29,256169,1,8,0:3:0:0:
82,133,256336,5,8,0:3:0:0:
276,20,256503,1,8,0:3:0:0:
428,194,256669,5,14,0:0:0:0:
148,328,257669,5,2,0:0:0:0:
215,283,257836,1,2,0:0:0:0:
302,368,258003,2,0,B|364:356|364:356|387:316,2,101.999996887207,2|2|2,0:0|0:0|0:0,0:0:0:0:
333,263,259003,1,2,0:0:0:0:
467,338,259336,2,0,B|450:245|450:245|455:232|455:232|437:124,2,203.999993774414,2|0|0,0:0|0:0|0:0,0:0:0:0:
372,185,261003,1,2,0:0:0:0:
439,137,261336,1,2,0:0:0:0:
364,34,261669,1,2,0:0:0:0:
185,160,262003,6,0,L|448:136,1,254.999992218018,2|0,0:0|0:0,0:0:0:0:
447,151,263003,5,2,0:0:0:0:
398,222,263170,1,2,0:0:0:0:
424,336,263337,2,0,P|482:327|519:366,2,101.999996887207,2|2|2,0:0|0:0|0:0,0:0:0:0:
361,384,264337,1,2,0:0:0:0:
382,274,264670,2,0,B|236:296|236:296|176:258,2,203.999993774414,2|0|0,0:0|0:0|0:0,0:0:0:0:
261,210,266337,1,2,0:0:0:0:
109,268,266503,1,2,0:0:0:0:
271,198,266669,6,0,B|220:191|220:191|211:194|211:194|155:186,1,102,2|0,0:0|0:0,0:0:0:0:
162,177,267003,1,2,0:0:0:0:
326,127,267169,1,0,0:0:0:0:
415,226,267336,6,0,B|394:168|394:168|412:128,1,93.5000028533936,2|8,0:1|0:1,0:0:0:0:
456,80,267586,1,8,0:1:0:0:
445,58,267669,1,8,0:1:0:0:
326,127,267836,1,8,0:1:0:0:
197,42,268002,2,0,B|155:45|155:45|149:51|149:51|70:60,1,93.5000028533936,8|0,0:3|0:0,0:0:0:0:
235,148,268336,1,8,0:1:0:0:
344,11,268502,2,0,B|353:61,1,46.7500014266968,8|0,0:1|0:0,0:0:0:0:
399,248,268669,5,8,0:1:0:0:
512,164,268836,1,8,0:1:0:0:
495,160,268919,1,8,0:1:0:0:
480,155,269002,1,10,0:3:0:0:
512,240,269169,1,10,0:1:0:0:
347,169,269336,5,10,0:3:0:0:
256,238,269502,1,8,0:1:0:0:
91,134,269669,2,0,L|103:231,1,93.5000028533936,10|0,0:1|0:0,0:0:0:0:
74,298,269919,1,8,0:1:0:0:
74,298,270002,6,0,B|68:318|68:318|88:297,1,46.7500014266968,10|0,0:1|0:0,0:0:0:0:
22,233,270169,1,8,0:1:0:0:
111,377,270336,5,8,0:1:0:0:
213,279,270502,1,8,0:1:0:0:
313,367,270669,2,0,B|214:354,1,93.5000028533936,8|0,0:3|0:0,0:0:0:0:
361,302,271002,1,8,0:1:0:0:
433,384,271169,1,8,0:1:0:0:
496,223,271336,5,8,0:1:0:0:
361,302,271502,1,8,0:1:0:0:
363,286,271586,1,8,0:1:0:0:
366,271,271669,1,10,0:3:0:0:
506,343,271836,1,8,0:1:0:0:
418,180,272002,5,10,0:3:0:0:
284,253,272169,1,8,0:1:0:0:
186,168,272336,2,0,B|148:172|148:172|134:168|134:168|94:174,1,93.5000028533936,10|0,0:1|0:0,0:0:0:0:
47,250,272586,1,8,0:1:0:0:
47,250,272669,6,0,L|105:259,1,46.7500014266968,10|0,0:1|0:0,0:0:0:0:
183,335,272836,2,0,P|176:273|219:244,1,93.5000028533936,8|0,0:1|0:0,0:0:0:0:
327,187,273169,1,8,0:1:0:0:
251,301,273336,2,0,B|309:291|309:291|334:256,1,93.5000028533936,0|0,0:0|0:0,0:0:0:0:
194,253,273669,1,10,0:1:0:0:
248,377,273836,1,8,0:1:0:0:
411,279,274002,5,10,0:1:0:0:
494,377,274169,1,8,0:1:0:0:
497,362,274252,1,8,0:1:0:0:
501,345,274336,1,8,0:3:0:0:
364,344,274502,1,10,0:1:0:0:
504,245,274669,5,8,0:3:0:0:
347,356,274836,1,8,0:1:0:0:
377,205,275002,2,0,P|414:239|407:285,1,93.5000028533936,10|0,0:1|0:0,0:0:0:0:
364,344,275252,1,0,0:0:0:0:
364,344,275336,6,0,B|308:325,1,46.7500014266968,10|0,0:1|0:0,0:0:0:0:
155,295,275502,2,0,P|197:307|230:276,1,93.5000028533936,8|0,0:1|0:0,0:0:0:0:
314,113,275836,6,0,B|258:132,1,46.7500014266968,10|0,0:1|0:0,0:0:0:0:
105,162,276002,2,0,P|147:150|180:181,1,93.5000028533936,8|0,0:1|0:0,0:0:0:0:
59,280,276336,6,0,B|44:299|44:299|42:277,1,46.7500014266968,10|0,0:1|0:0,0:0:0:0:
180,181,276502,2,0,B|135:186|135:186|129:191|129:191|84:196,1,93.5000028533936,8|0,0:1|0:0,0:0:0:0:
390,227,276836,6,0,B|405:246|405:246|407:224,1,46.7500014266968,10|0,0:1|0:0,0:0:0:0:
269,128,277002,2,0,B|314:133|314:133|320:138|320:138|365:143,1,93.5000028533936,8|0,0:1|0:0,0:0:0:0:
180,181,277336,5,8,0:1:0:0:
46,63,277502,1,8,0:3:0:0:
17,198,277669,5,8,0:1:0:0:
175,89,277836,1,8,0:1:0:0:
0,209,278002,5,10,0:1:0:0:
344,374,278336,6,0,L|401:363,2,50.9999984436036,2|8|0,0:0|0:0|0:0,0:0:0:0:
305,303,279336,6,0,L|248:292,3,50.9999984436036,8|0|8|0,0:0|0:0|0:0|0:0,0:0:0:0:
396,366,280669,6,0,L|392:330,3,34,10|0|8|0,0:0|0:0|0:0|0:0,0:0:0:0:
450,285,282003,2,0,L|454:249,3,34,8|0|8|0,0:0|0:0|0:0|0:0,0:0:0:0:
398,200,283336,5,14,0:0:0:0:
457,105,283669,2,0,L|495:115,2,34,0|8|0,0:0|0:0|0:0,0:0:0:0:
385,57,284669,2,0,L|348:67,3,34,8|0|8|0,0:0|0:0|0:0|0:0,0:0:0:0:
279,139,286003,6,0,L|284:103,3,34,10|0|8|0,0:0|0:0|0:0|0:0,0:0:0:0:
236,44,287336,2,0,L|231:10,3,34,8|0|8|0,0:0|0:0|0:0|0:0,0:0:0:0:
132,88,288669,5,14,0:0:0:0:
60,67,289003,2,0,L|26:58,2,34,0|8|0,0:0|0:0|0:0,0:0:0:0:
49,139,290003,2,0,L|16:146,3,34,8|0|8|0,0:0|0:0|0:0|0:0,0:0:0:0:
104,195,291336,6,0,L|137:204,1,34,10|0,0:0|0:0,0:0:0:0:
192,256,292003,2,0,L|225:247,1,34,10|0,0:0|0:0,0:0:0:0:
308,202,292669,2,0,L|299:235,1,34,10|0,0:0|0:0,0:0:0:0:
256,319,293336,2,0,L|265:352,1,34,10|0,0:0|0:0,0:0:0:0:
340,384,294003,5,14,0:0:0:0:
398,337,294336,2,0,L|435:343,2,34,0|8|0,0:0|0:0|0:0,0:0:0:0:
339,285,295336,2,0,L|302:291,3,34,10|0|8|0,0:0|0:0|0:0|0:0,0:0:0:0:
311,211,296669,6,0,L|319:172,1,34,10|0,0:0|0:0,0:0:0:0:
369,107,297336,2,0,L|361:68,1,34,10|0,0:0|0:0,0:0:0:0:
254,99,298003,2,0,L|287:105,1,34,10|0,0:0|0:0,0:0:0:0:
362,74,298669,2,0,L|395:67,1,34,10|0,0:0|0:0,0:0:0:0:
472,121,299336,5,14,0:0:0:0:
430,198,299669,2,0,L|428:217,2,17,0|8|0,0:0|0:0|0:0,0:0:0:0:
353,249,300669,2,0,L|355:268,3,17,10|0|8|0,0:0|0:0|0:0|0:0,0:0:0:0:
263,215,302003,5,10,0:0:0:0:
200,261,302336,2,0,L|182:258,2,17,0|8|0,0:0|0:0|0:0,0:0:0:0:
119,217,303336,6,0,L|116:199,1,17,10|0,0:0|0:0,0:0:0:0:
71,143,304003,2,0,L|74:125,1,17,10|0,0:0|0:0,0:0:0:0:
141,93,304667,2,0,L|175:98,1,34,10|8,0:0|0:0,0:0:0:0:
234,156,306050,2,0,L|272:150,1,37.4000011413575,10|10,0:0|0:0,0:0:0:0:
339,93,307482,2,0,P|373:118|446:108,1,116.875003566742,10|10,0:0|0:0,0:0:0:0:
492,51,311194,1,14,0:0:0:0:
256,192,311304,12,0,318032,0:0:0:0:
