osu file format v14

[General]
AudioFilename: audio.mp3
AudioLeadIn: 0
PreviewTime: -1
Countdown: 0
SampleSet: None
StackLeniency: 0.3
Mode: 0
LetterboxInBreaks: 1
WidescreenStoryboard: 1

[Editor]
DistanceSpacing: 1
BeatDivisor: 4
GridSize: 32
TimelineZoom: 1.7

[Metadata]
Title:Fallacy
TitleUnicode:Fallacy
Artist:YonKaGor
ArtistUnicode:YonKaGor
Creator:ZenBara
Version:Insane
Source:
Tags:featured artist jonkagor english furry rock
BeatmapID:4537965
BeatmapSetID:2153636

[Difficulty]
HPDrainRate:5
CircleSize:4
OverallDifficulty:7.5
ApproachRate:9.2
SliderMultiplier:1.5
SliderTickRate:1

[Events]
//Background and Video events
0,0,"image.png",0,0
//Break Periods
//Storyboard Layer 0 (Background)
//Storyboard Layer 1 (Fail)
//Storyboard Layer 2 (Pass)
//Storyboard Layer 3 (Foreground)
//Storyboard Layer 4 (Overlay)
//Storyboard Sound Samples

[TimingPoints]
-27,483.870967741935,4,1,1,80,1,0
9166,-40,4,1,1,100,0,0
10013,-100,4,1,1,80,0,0
11102,-40,4,1,1,100,0,0
11948,-100,4,1,1,80,0,0
13037,-40,4,1,1,100,0,0
13884,-100,4,1,1,80,0,0
14972,-40,4,1,1,100,0,0
15819,-66.6666666666667,4,1,1,80,0,0
16908,-40,4,1,1,100,0,0
17755,-66.6666666666667,4,1,1,80,0,0
18843,-40,4,1,1,100,0,0
19690,-66.6666666666667,4,1,1,80,0,0
20779,-40,4,1,1,100,0,0

[HitObjects]
479,35,7714,5,12,0:0:0:0:
404,152,7835,1,8,0:0:0:0:
296,62,8077,2,0,L|259:38,1,37.5
251,182,8319,2,0,B|214:198,1,37.5
195,298,8561,1,4,0:0:0:0:
240,324,8682,1,0,0:0:0:0:
292,322,8803,1,0,0:0:0:0:
340,302,8924,1,0,0:0:0:0:
420,186,9166,6,2,B|453:48|453:48|399:46,1,187.5
219,40,9650,5,8,0:0:0:0:
109,143,9771,1,8,0:0:0:0:
218,245,10013,2,0,L|266:293,1,37.5
324,139,10255,2,0,L|357:111,1,37.5
479,35,10497,1,0,0:0:0:0:
505,84,10618,1,0,0:0:0:0:
502,140,10739,1,0,0:0:0:0:
481,192,10860,1,0,0:0:0:0:
339,313,11102,6,4,B|291:223|245:389|150:263,1,187.5
44,156,11585,5,8,0:0:0:0:
118,36,11706,1,8,0:0:0:0:
207,156,11948,2,0,L|269:143,1,37.5
273,38,12190,2,0,P|331:53|332:53,1,37.5
418,78,12432,1,0,0:0:0:0:
446,126,12553,1,0,0:0:0:0:
418,175,12674,1,0,0:0:0:0:
446,223,12795,1,0,0:0:0:0:
287,323,13037,6,2,B|257:307|257:307|287:275|287:275|257:253|257:253|288:224|288:224|263:207,1,187.5
162,47,13521,5,0,0:0:0:0:
302,49,13642,1,0,0:0:0:0:
426,132,13884,2,0,L|479:178,1,37.5
448,269,14126,2,0,L|448:340,1,37.5
342,347,14368,1,0,0:0:0:0:
213,285,14610,1,0,0:0:0:0:
90,357,14852,1,0,0:0:0:0:
34,229,14972,2,4,B|163:242|-74:75|275:222|88:38,1,187.5
319,48,15456,6,8,B|425:29|425:29|490:92,1,187.5
437,188,15819,2,8,B|481:236|439:284,1,56.2500021457673
356,284,16061,2,8,P|345:328|293:338,1,56.2500021457673
225,344,16303,5,0,0:0:0:0:
184,307,16424,1,0,0:0:0:0:
164,254,16545,1,0,0:0:0:0:
166,197,16666,1,0,0:0:0:0:
198,150,16787,1,0,0:0:0:0:
233,119,16908,2,2,B|348:11|336:288|489:2|479:86|479:86,1,187.5
479,286,17392,6,8,B|488:375|345:193|239:307,1,187.5
215,314,17755,2,8,L|137:353,1,56.2500021457673
64,286,17997,2,8,L|14:232,1,56.2500021457673
32,131,18239,5,0,0:0:0:0:
64,85,18360,1,0,0:0:0:0:
114,60,18481,1,0,0:0:0:0:
169,53,18602,1,0,0:0:0:0:
223,66,18722,1,0,0:0:0:0:
258,96,18843,2,4,B|368:197|368:197|317:231,1,187.5
168,304,19327,6,8,B|253:336|253:336|317:300|317:300|394:338|394:338,1,187.5
419,334,19690,2,8,B|450:318|450:318|442:273,1,56.2500021457673
418,186,19932,2,0,B|437:156|437:156|368:157,1,56.2500021457673
302,158,20174,5,0,0:0:0:0:
250,180,20295,1,0,0:0:0:0:
199,156,20416,1,0,0:0:0:0:
149,183,20537,1,0,0:0:0:0:
100,154,20658,1,0,0:0:0:0:
61,180,20779,2,2,B|-14:242|99:266|-3:348|185:329,1,187.5
191,295,21263,5,8,0:0:0:0:
284,297,21384,1,8,0:0:0:0:
377,298,21505,1,8,0:0:0:0:
447,236,21626,2,2,P|485:178|439:104,1,93.75
349,202,21868,2,2,P|350:154|289:102,1,93.75
212,31,22110,5,0,0:0:0:0:
