osu file format v14

[General]
AudioFilename: audio.mp3
AudioLeadIn: 0
PreviewTime: 29189
Countdown: 0
SampleSet: Normal
StackLeniency: 0.7
Mode: 1
LetterboxInBreaks: 0
WidescreenStoryboard: 0

[Editor]
DistanceSpacing: 1.1
BeatDivisor: 3
GridSize: 32
TimelineZoom: 1

[Metadata]
Title:Cherries and Wine
TitleUnicode:Cherries and Wine
Artist:YonKaGor
ArtistUnicode:YonKaGor
Creator:meiqth
Version:Sweet Red
Source:
Tags:pop english waltz 3/4 5/4 complex time jazz
BeatmapID:3667773
BeatmapSetID:1789982

[Difficulty]
HPDrainRate:7.5
CircleSize:2
OverallDifficulty:5
ApproachRate:10
SliderMultiplier:1.4
SliderTickRate:1

[Events]
//Background and Video events
0,0,"paint.jpg",0,0
//Break Periods
//Storyboard Layer 0 (Background)
//Storyboard Layer 1 (Fail)
//Storyboard Layer 2 (Pass)
//Storyboard Layer 3 (Foreground)
//Storyboard Layer 4 (Overlay)
//Storyboard Sound Samples

[TimingPoints]
595,363.636363636364,3,1,1,40,1,0
595,-111.111111111111,3,1,1,25,0,0
8958,363.636363636364,3,1,1,40,1,0
9370,-111.111111111111,3,1,1,25,0,0
17321,363.636363636364,3,1,1,35,1,0
17321,-105.263157894737,3,1,1,35,0,0
29311,363.636363636364,3,1,1,25,1,0
29311,-94.3396226415094,3,1,1,25,0,0
29553,-96.1538461538461,3,1,1,25,0,0
29986,-98.0392156862745,3,1,1,25,0,0
30401,363.636363636364,5,1,1,50,1,1
30401,-100,5,1,1,50,0,1
43128,363.636363636364,3,1,1,45,1,0

[HitObjects]
256,192,110,5,8,0:0:0:0:
256,192,231,1,0,0:0:0:0:
256,192,595,1,12,0:0:0:0:
256,192,1201,1,0,0:0:0:0:
256,192,1564,1,8,0:0:0:0:
256,192,1685,1,0,0:0:0:0:
256,192,2049,1,8,0:0:0:0:
256,192,2413,1,8,0:0:0:0:
256,192,2776,1,0,0:0:0:0:
256,192,3140,1,8,0:0:0:0:
256,192,3504,1,0,0:0:0:0:
256,192,3867,1,0,0:0:0:0:
256,192,4231,1,8,0:0:0:0:
256,192,4473,1,0,0:0:0:0:
256,192,4595,1,8,0:0:0:0:
256,192,4837,1,8,0:0:0:0:
256,192,4958,1,0,0:0:0:0:
256,192,5564,1,8,0:0:0:0:
256,192,5928,1,0,0:0:0:0:
256,192,6049,1,8,0:0:0:0:
256,192,6413,1,0,0:0:0:0:
256,192,6776,1,0,0:0:0:0:
256,192,7140,1,8,0:0:0:0:
256,192,7504,1,8,0:0:0:0:
256,192,7867,1,0,0:0:0:0:
256,192,8231,1,8,0:0:0:0:
256,192,8473,1,0,0:0:0:0:
256,192,8595,1,8,0:0:0:0:
256,192,8958,1,12,0:0:0:0:
256,192,9564,1,0,0:0:0:0:
256,192,9927,1,0,0:0:0:0:
256,192,10048,1,8,0:0:0:0:
256,192,10412,1,8,0:0:0:0:
256,192,10776,1,0,0:0:0:0:
256,192,11139,1,8,0:0:0:0:
256,192,11503,1,0,0:0:0:0:
256,192,11867,1,8,0:0:0:0:
256,192,12230,1,0,0:0:0:0:
256,192,12594,1,8,0:0:0:0:
256,192,12836,1,0,0:0:0:0:
256,192,12958,1,8,0:0:0:0:
256,192,13200,1,8,0:0:0:0:
256,192,13321,1,0,0:0:0:0:
256,192,13685,1,0,0:0:0:0:
256,192,14048,1,8,0:0:0:0:
256,192,14291,1,0,0:0:0:0:
256,192,14412,1,8,0:0:0:0:
256,192,14776,1,0,0:0:0:0:
256,192,15139,1,0,0:0:0:0:
256,192,15382,1,8,0:0:0:0:
256,192,15503,1,0,0:0:0:0:
256,192,16109,1,0,0:0:0:0:
256,192,16473,1,0,0:0:0:0:
256,192,16594,1,8,0:0:0:0:
256,192,16836,1,8,0:0:0:0:
256,192,16958,1,0,0:0:0:0:
256,192,17321,1,12,0:0:0:0:
256,192,17927,1,0,0:0:0:0:
256,192,18411,1,8,0:0:0:0:
256,192,18775,1,0,0:0:0:0:
256,192,19139,1,0,0:0:0:0:
256,192,19502,1,8,0:0:0:0:
256,192,20230,1,0,0:0:0:0:
256,192,20593,1,8,0:0:0:0:
256,192,21321,1,8,0:0:0:0:
256,192,21684,1,0,0:0:0:0:
256,192,22290,1,0,0:0:0:0:
256,192,22654,1,0,0:0:0:0:
256,192,22775,1,8,0:0:0:0:
256,192,23139,1,0,0:0:0:0:
256,192,23502,1,8,0:0:0:0:
256,192,23866,1,8,0:0:0:0:
256,192,24230,1,0,0:0:0:0:
256,192,24593,1,0,0:0:0:0:
256,192,24957,1,8,0:0:0:0:
256,192,25321,1,0,0:0:0:0:
256,192,25563,1,0,0:0:0:0:
256,192,25684,1,0,0:0:0:0:
256,192,26048,1,12,0:0:0:0:
256,192,26654,1,0,0:0:0:0:
256,192,27017,1,8,0:0:0:0:
256,192,27139,1,0,0:0:0:0:
256,192,27502,1,0,0:0:0:0:
256,192,27866,1,8,0:0:0:0:
256,192,28230,1,4,0:0:0:0:
257,192,29311,1,8,0:0:0:0:
257,192,29674,1,0,0:0:0:0:
257,192,30038,1,0,0:0:0:0:
257,192,30401,1,12,0:0:0:0:
257,192,30764,1,8,0:0:0:0:
257,192,31007,1,0,0:0:0:0:
257,192,31128,1,8,0:0:0:0:
257,192,31491,1,0,0:0:0:0:
257,192,31734,1,8,0:0:0:0:
257,192,31855,1,8,0:0:0:0:
257,192,31976,1,0,0:0:0:0:
257,192,32097,1,0,0:0:0:0:
257,192,32219,1,8,0:0:0:0:
256,192,32582,1,0,0:0:0:0:
256,192,32946,1,8,0:0:0:0:
256,192,33188,1,0,0:0:0:0:
256,192,33310,1,8,0:0:0:0:
257,192,34037,1,0,0:0:0:0:
257,192,34401,1,8,0:0:0:0:
257,192,34643,1,0,0:0:0:0:
257,192,34764,1,8,0:0:0:0:
257,192,35128,1,0,0:0:0:0:
257,192,35370,1,8,0:0:0:0:
257,192,35491,1,8,0:0:0:0:
257,192,35734,1,0,0:0:0:0:
257,192,35855,1,8,0:0:0:0:
256,192,36219,1,0,0:0:0:0:
256,192,36582,1,0,0:0:0:0:
256,192,36946,1,8,0:0:0:0:
256,192,37188,1,0,0:0:0:0:
256,192,37310,1,8,0:0:0:0:
256,192,37673,1,4,0:0:0:0:
256,192,37916,1,0,0:0:0:0:
256,192,38037,1,8,0:0:0:0:
256,192,38279,1,0,0:0:0:0:
256,192,38764,1,8,0:0:0:0:
256,192,39128,1,0,0:0:0:0:
256,192,39491,1,0,0:0:0:0:
256,192,39855,1,8,0:0:0:0:
256,192,40097,1,0,0:0:0:0:
256,192,40219,1,0,0:0:0:0:
256,192,40582,1,8,0:0:0:0:
256,192,40946,1,0,0:0:0:0:
256,192,41310,1,8,0:0:0:0:
256,192,41552,1,8,0:0:0:0:
256,192,41673,1,0,0:0:0:0:
256,192,41916,1,8,0:0:0:0:
256,192,42401,1,8,0:0:0:0:
256,192,42643,1,0,0:0:0:0:
256,192,42764,1,8,0:0:0:0:
256,192,43007,1,8,0:0:0:0:
256,192,43128,1,4,0:0:0:0:
256,192,43491,12,0,47491,0:0:0:0:
