osu file format v14

[General]
AudioFilename: audio.mp3
AudioLeadIn: 0
PreviewTime: 29240
Countdown: 0
SampleSet: Soft
StackLeniency: 0.7
Mode: 0
LetterboxInBreaks: 0
WidescreenStoryboard: 1

[Editor]
Bookmarks: 97,210,19896,47582
DistanceSpacing: 0.9
BeatDivisor: 3
GridSize: 8
TimelineZoom: 1

[Metadata]
Title:Cherries and Wine
TitleUnicode:Cherries and Wine
Artist:YonKaGor
ArtistUnicode:YonKaGor
Creator:bluirre
Version:normal
Source:
Tags:pop english waltz 3/4 5/4 complex time jazz
BeatmapID:3598907
BeatmapSetID:1758567

[Difficulty]
HPDrainRate:3.5
CircleSize:3.2
OverallDifficulty:4.5
ApproachRate:5.5
SliderMultiplier:1.2
SliderTickRate:1

[Events]
//Background and Video events
0,0,"paint.jpg",0,0
//Break Periods
//Storyboard Layer 0 (Background)
//Storyboard Layer 1 (Fail)
//Storyboard Layer 2 (Pass)
//Storyboard Layer 3 (Foreground)
//Storyboard Layer 4 (Overlay)
//Storyboard Sound Samples

[TimingPoints]
97,363.636363636364,3,2,1,40,1,0
222,363.636363636364,3,2,1,40,1,1
595,363.636363636364,3,2,1,40,1,0
8958,363.636363636364,3,2,1,40,1,0
17321,363.636363636364,3,2,1,50,1,0
29311,363.636363636364,3,2,1,25,1,8
30401,363.636363636364,5,2,1,60,1,1
30401,-100,5,2,1,60,0,1
43007,-100,5,2,1,60,0,0
43128,727.272727272727,6,2,1,45,1,1
43128,-100,6,2,1,45,0,1
43370,-100,6,2,1,45,0,0
47491,-100,6,2,1,35,0,0

[Colours]
Combo1 : 110,110,110
Combo2 : 102,123,157
Combo3 : 207,92,133
Combo4 : 109,172,94
Combo5 : 160,160,160

[HitObjects]
512,98,595,70,0,P|445:119|406:90,1,120,0|2,3:0|2:0,0:0:0:0:
374,51,1140,2,0,P|314:46|244:44,1,120,2|0,2:0|0:0,0:0:0:0:
204,23,1686,2,0,P|153:-4|100:18,2,120,0|2|2,3:0|2:0|2:0,0:0:0:0:
217,130,2777,53,0,3:0:0:0:
165,225,3140,1,2,2:0:0:0:
75,167,3504,1,2,2:0:0:0:
6,250,3868,2,0,P|11:310|13:380,2,120,0|2|2,3:0|2:0|2:0,0:0:0:0:
75,167,4958,6,0,P|142:146|181:175,1,120,0|2,3:0|2:0,0:0:0:0:
201,221,5504,2,0,P|261:226|331:228,1,120,2|2,2:0|2:0,0:0:0:0:
363,195,6049,2,0,P|413:167|466:190,2,120,0|2|2,3:0|2:0|2:0,0:0:0:0:
349,302,7140,53,0,3:0:0:0:
427,376,7504,1,2,2:0:0:0:
495,294,7868,1,2,2:0:0:0:
466,190,8231,2,0,P|471:130|473:60,1,120,0|4,3:0|3:0,0:0:0:0:
366,47,8958,6,0,P|299:26|260:55,1,120,0|2,3:0|2:0,0:0:0:0:
249,104,9503,2,0,P|254:164|256:234,1,120,2|2,2:0|2:0,0:0:0:0:
284,269,10049,2,0,P|334:296|387:273,2,120,0|2|2,3:0|2:0|2:0,0:0:0:0:
179,239,11140,53,0,3:0:0:0:
114,151,11503,1,2,2:0:0:0:
156,51,11867,1,2,2:0:0:0:
260,25,12231,2,0,P|320:30|390:32,2,120,0|2|2,3:0|2:0|2:0,0:0:0:0:
206,31,13140,1,0,0:0:0:0:
206,31,13321,6,0,P|164:165|238:253,1,240,0|2,3:0|2:0,0:0:0:0:
322,237,14412,2,0,P|376:134|330:28,1,240,0|2,3:0|2:0,0:0:0:0:
206,31,15503,54,0,B|133:91|149:210|233:247|233:247|259:293|237:348,1,360,0|0,3:0|3:0,0:0:0:0:
130,341,16958,1,2,3:0:0:0:
44,275,17321,6,0,P|17:224|39:171,2,120,0|2|2,3:0|2:0|2:0,0:0:0:0:
130,341,18412,1,0,3:0:0:0:
212,271,18775,1,2,2:0:0:0:
191,165,19139,1,2,2:0:0:0:
273,95,19502,54,0,B|307:60|354:110|397:76,2,120,0|2|2,3:0|2:0|2:0,0:0:0:0:
191,165,20594,2,0,P|199:271|203:394,1,210,0|2,3:0|2:0,0:0:0:0:
328,323,21684,6,0,P|329:263|334:203,2,120,0|2|2,3:0|2:0|2:0,0:0:0:0:
419,381,22775,1,0,3:0:0:0:
485,295,23139,1,2,2:0:0:0:
429,202,23503,1,2,2:0:0:0:
376,108,23866,54,0,P|325:81|272:103,1,120,0|2,3:0|2:0,0:0:0:0:
198,183,24594,1,2,2:0:0:0:
119,257,24957,2,0,B|86:253|65:229|65:229|32:223|7:254,2,120,0|4|4,3:0|3:0|3:0,0:0:0:0:
198,183,26048,6,0,P|199:123|204:63,1,120,0|2,3:0|2:0,0:0:0:0:
300,12,26775,1,2,2:0:0:0:
396,61,27139,2,0,P|423:112|401:165,2,120,0|2|6,3:0|2:0|2:3,0:0:0:0:
300,12,28230,53,10,2:3:0:0:
300,12,29311,54,0,P|255:30|207:-22,2,120,2|2|10,2:0|2:0|2:3,0:0:0:0:
301,119,30401,38,0,P|269:126|170:92,1,120,4|2,2:0|2:0,0:0:0:0:
148,66,30946,2,0,P|92:45|33:51,1,120
8,99,31492,1,0,3:0:0:0:
94,163,31856,1,2,2:0:0:0:
80,270,32219,22,0,P|131:297|184:275,2,120,0|2|2,3:0|2:0|2:0,0:0:0:0:
50,225,33128,1,0,0:0:0:0:
50,225,33310,1,0,3:0:0:0:
37,117,33674,1,4,3:0:0:0:
139,81,34037,38,0,P|166:132|143:185,1,120,0|2,3:0|2:0,0:0:0:0:
86,277,34765,1,0,0:0:0:0:
147,366,35128,2,0,P|176:373|222:372,1,60,0|0,3:0|0:0,0:0:0:0:
258,362,35492,1,2,2:0:0:0:
373,376,35856,22,2,B|381:345|381:345|357:160|357:160|373:119,1,240,0|0,0:0|0:0,0:1:0:0:
469,74,36946,1,0,3:0:0:0:
377,16,37310,1,2,2:0:0:0:
292,83,37674,38,0,P|262:83|232:76,1,60,0|0,3:0|0:0,0:0:0:0:
189,43,38037,1,2,2:0:0:0:
189,43,38219,2,0,P|161:94|185:147,1,120
218,190,38765,2,0,P|245:241|221:294,1,120,0|2,3:0|2:0,0:0:0:0:
113,305,39492,22,0,P|112:245|107:185,1,120,0|0,3:0|0:0,0:0:0:0:
47,94,40219,1,2,2:0:0:0:
136,34,40583,2,0,P|187:6|240:30,1,120,0|2,3:0|3:0,0:0:0:0:
297,122,41310,38,0,P|327:122|357:115,1,60,0|0,3:0|0:0,0:0:0:0:
400,82,41674,1,2,2:0:0:0:
400,82,41856,1,0,0:0:0:0:
451,235,42401,2,0,P|421:235|391:228,1,60,0|0,3:0|0:0,0:0:0:0:
338,218,42765,22,0,P|344:247|353:345,1,120,8|4,2:3|2:0,0:0:0:0:
256,192,43370,12,0,47491,0:0:0:0:
