osu file format v14

[General]
AudioFilename: Seiso Pharmaceutical.mp3
AudioLeadIn: 0
PreviewTime: 9328
Countdown: 1
SampleSet: Soft
StackLeniency: 0.7
Mode: 0
LetterboxInBreaks: 1
WidescreenStoryboard: 1

[Editor]
DistanceSpacing: 2
BeatDivisor: 4
GridSize: 8
TimelineZoom: 1

[Metadata]
Title:Seiso Pharmaceutical
TitleUnicode:セイソ製薬
Artist:Yomos
ArtistUnicode:よもす
Creator:Mirai Akari
Version:Insane
Source:Nico Nico Douga
Tags:月ノ美兎 バーチャルyoutuber tsukino mito virtual rohto hicca hicari
BeatmapID:1778571
BeatmapSetID:850722

[Difficulty]
HPDrainRate:6
CircleSize:3.5
OverallDifficulty:8
ApproachRate:9
SliderMultiplier:2
SliderTickRate:1

[Events]
//Background and Video events
0,0,"BG.jpg",0,0
Video,0,"Seiso Pharmaceutical.avi"
//Break Periods
//Storyboard Layer 0 (Background)
//Storyboard Layer 1 (Fail)
//Storyboard Layer 2 (Pass)
//Storyboard Layer 3 (Foreground)
//Storyboard Sound Samples

[TimingPoints]
605,425.531914893617,4,2,1,70,1,0
2307,-100,4,2,1,70,0,1
14222,-100,4,2,1,70,0,0

[HitObjects]
383,92,2307,5,2,0:0:0:0:
348,267,2519,1,0,0:0:0:0:
450,150,2732,5,8,0:0:0:0:
281,208,2944,1,2,0:0:0:0:
433,238,3158,5,0,0:0:0:0:
298,121,3370,1,2,0:0:0:0:
323,194,3477,5,0,0:0:0:0:
348,267,3583,5,8,0:0:0:0:
383,92,3796,1,2,0:0:0:0:
281,208,4009,5,2,0:0:0:0:
161,47,4222,1,0,0:0:0:0:
164,248,4434,1,8,0:0:0:0:
280,84,4647,1,2,0:0:0:0:
89,149,4860,5,8,0:0:0:0:
333,236,5073,1,2,0:0:0:0:
60,257,5285,5,8,0:0:0:0:
362,128,5498,1,2,0:0:0:0:
144,71,5711,5,2,0:0:0:0:
163,276,5924,1,0,0:0:0:0:
368,257,6136,1,8,0:0:0:0:
349,52,6349,1,2,0:0:0:0:
91,185,6562,5,0,0:0:0:0:
381,158,6775,1,2,0:0:0:0:
302,93,6881,1,0,0:0:0:0:
222,27,6987,1,8,0:0:0:0:
249,317,7200,1,2,0:0:0:0:
422,111,7413,5,2,0:0:0:0:
411,277,7626,1,0,0:0:0:0:
306,73,7839,5,8,0:0:0:0:
313,282,8051,1,2,0:0:0:0:
173,57,8264,5,8,0:0:0:0:
211,307,8477,1,2,0:0:0:0:
39,70,8690,5,8,0:0:0:0:
126,364,8902,1,2,0:0:0:0:
422,111,9115,5,2,0:0:0:0:
238,173,9328,1,0,0:0:0:0:
384,302,9541,1,8,0:0:0:0:
279,92,9753,5,0,0:0:0:0:
292,305,9966,1,2,0:0:0:0:
471,187,10179,1,2,0:0:0:0:
220,238,10392,5,8,0:0:0:0:
448,284,10605,1,0,0:0:0:0:
374,62,10818,5,2,0:0:0:0:
340,145,10924,1,0,0:0:0:0:
260,186,11030,1,0,0:0:0:0:
170,175,11136,1,2,0:0:0:0:
110,107,11243,1,8,0:0:0:0:
309,342,11456,5,0,0:0:0:0:
194,52,11668,5,2,0:0:0:0:
110,107,11775,1,0,0:0:0:0:
84,203,11881,1,0,0:0:0:0:
131,290,11987,1,2,0:0:0:0:
208,353,12094,1,8,0:0:0:0:
357,110,12307,5,0,0:0:0:0:
88,91,12519,5,8,0:0:0:0:
362,358,12732,1,2,0:0:0:0:
303,26,12945,5,8,0:0:0:0:
134,341,13158,1,2,0:0:0:0:
469,179,13370,5,8,0:0:0:0:
44,223,13583,1,2,0:0:0:0:
465,347,13796,5,8,0:0:0:0:
226,0,14009,1,2,0:0:0:0:
18,370,14222,1,10,0:0:0:0:
