osu file format v14

[General]
AudioFilename: audio.mp3
AudioLeadIn: 0
PreviewTime: 71229
Countdown: 0
SampleSet: Soft
StackLeniency: 1
Mode: 0
LetterboxInBreaks: 0
WidescreenStoryboard: 1

[Editor]
DistanceSpacing: 1.2
BeatDivisor: 4
GridSize: 4
TimelineZoom: 2.600001

[Metadata]
Title:Chilly
TitleUnicode:散り散り
Artist:Yomitan Akane
ArtistUnicode:読谷あかね
Creator:Tuffiii
Version:aika's Extra
Source:
Tags:Ryuusei Aika ryuusei_aika leominexd leomine take tritobandito nyan_kot_nyan chirijiri pop kasane teto vocaloid utau female japanese vocal cold dnb drum and bass electronic 重音テト chiri chir
BeatmapID:4570598
BeatmapSetID:2066909

[Difficulty]
HPDrainRate:6
CircleSize:4
OverallDifficulty:8.2
ApproachRate:9.2
SliderMultiplier:1.80000000596047
SliderTickRate:1

[Events]
//Background and Video events
0,0,"107718626_p02000.jpg",0,0
//Break Periods
//Storyboard Layer 0 (Background)
//Storyboard Layer 1 (Fail)
//Storyboard Layer 2 (Pass)
//Storyboard Layer 3 (Foreground)
//Storyboard Layer 4 (Overlay)
//Storyboard Sound Samples

[TimingPoints]
1365,326.086956521739,4,2,1,75,1,0
2669,-500,4,2,1,80,0,0
9680,-333.333333333333,4,2,1,80,0,0
10332,-500,4,2,1,80,0,0
12044,-250,4,2,1,80,0,0
13104,-500,4,2,1,80,0,0
20114,-333.333333333333,4,2,1,80,0,0
20930,-500,4,2,1,80,0,0
23538,-133.333333333333,4,2,1,60,0,0
26147,-200,4,2,1,60,0,0
28756,-133.333333333333,4,2,1,60,0,0
32669,-200,4,2,1,60,0,0
33973,-133.333333333333,4,2,1,60,0,0
37071,-200,4,2,1,60,0,0
39191,-133.333333333333,4,2,1,60,0,0
42288,-200,4,2,1,60,0,0
43104,-200,4,2,1,65,0,0
43267,-100,4,2,1,65,0,0
44408,-200,4,2,1,75,0,1
47017,-333.333333333333,4,2,1,75,0,0
49625,-200,4,2,1,75,0,1
52234,-333.333333333333,4,2,1,75,0,0
54843,-200,4,2,1,75,0,1
57451,-333.333333333333,4,2,1,75,0,0
60060,-200,4,2,1,75,0,1
62669,-250.000000000001,4,2,1,75,0,0
63973,-133.333333333333,4,2,1,75,0,0
65278,-133.333333333333,4,2,1,55,0,0
65441,-80,4,2,1,65,0,0
67723,-100,4,2,1,65,0,0
69191,-50,4,2,1,80,0,0
70495,-666.666666666667,4,2,1,50,0,0
71310,-666.666666666667,4,2,1,45,0,0
71392,-666.666666666667,4,2,1,45,0,0
71473,-166.666666666667,4,2,1,45,0,0
71555,-166.666666666667,4,2,1,45,0,0
71636,-166.666666666667,4,2,1,45,0,0
71718,-166.666666666667,4,2,1,45,0,0
71799,-100,4,2,1,85,0,0
74734,-83.3333333333333,4,2,1,85,0,0
74979,-83.3333333333333,4,2,1,85,0,0
75060,-83.3333333333333,4,2,1,85,0,0
76528,-100,4,2,1,85,0,0
80033,-100,4,2,1,85,0,0
80114,-100,4,2,1,85,0,0
81093,-83.3333333333333,4,2,1,85,0,0
81582,-100,4,2,1,85,0,0
81745,-83.3333333333333,4,2,1,85,0,0
81908,-71.4285714285714,4,2,1,85,0,0
82071,-58.8235294117647,4,2,1,85,0,0
82234,-50,4,2,1,85,0,0
82560,-100,4,2,1,85,0,0
82805,-100,4,2,1,85,0,0
82886,-100,4,2,1,85,0,0
85169,-83.3333333333333,4,2,1,85,0,0
85413,-83.3333333333333,4,2,1,5,0,0
85495,-83.3333333333333,4,2,1,85,0,0
86962,-100,4,2,1,85,0,0
92017,-83.3333333333333,4,2,1,85,0,0
92669,-100,4,2,1,85,0,1
92750,-100,4,2,1,85,0,0
93973,-100,4,2,1,85,0,1
94054,-100,4,2,1,85,0,0
95278,-100,4,2,1,85,0,1
95359,-100,4,2,1,85,0,0
96582,-100,4,2,1,85,0,1
96745,-100,4,2,0,85,0,1
97723,-100,4,2,1,85,0,1
97886,-133.333333333333,4,2,1,85,0,0
98131,-133.333333333333,4,2,1,85,0,0
98212,-133.333333333333,4,2,1,85,0,0
99191,-200,4,2,1,85,0,0
99435,-200,4,2,1,85,0,0
99517,-200,4,2,1,85,0,0
100495,-250,4,2,1,85,0,0
101473,-133.333333333333,4,2,1,85,0,0
101636,-66.6666666666667,4,2,1,85,0,0
101962,-83.3333333333333,4,2,1,85,0,0
103104,-83.3333333333333,4,2,1,60,0,0

[Colours]
Combo1 : 194,107,114
Combo2 : 101,75,79
Combo3 : 158,82,91
Combo4 : 116,96,144

[HitObjects]
494,204,1365,5,4,0:1:0:0:
391,115,1528,1,0,1:1:0:0:
341,241,1691,1,8,2:2:0:0:
489,177,1854,5,0,3:3:0:0:
450,187,1935,1,0,3:3:0:0:
411,197,2017,1,0,3:3:0:0:
372,207,2098,1,0,3:3:0:0:
333,217,2180,1,8,1:2:0:0:
450,187,2343,5,0,3:3:0:0:
411,197,2424,1,0,3:3:0:0:
372,207,2506,1,0,3:3:0:0:
333,217,2587,1,0,3:3:0:0:
294,227,2669,6,0,L|241:241,1,54.0000001788141,4|0,1:2|3:3,0:0:0:0:
38,220,3321,2,0,L|90:205,1,54.0000001788141,2|0,3:2|0:0,0:0:0:0:
314,23,3973,2,0,L|261:37,1,54.0000001788141,2|0,1:2|3:3,0:0:0:0:
90,205,4625,2,0,L|142:219,1,54.0000001788141,2|0,3:2|0:0,0:0:0:0:
56,184,5278,6,0,L|108:198,1,54.0000001788141,2|0,1:2|3:3,0:0:0:0:
255,263,5930,2,0,L|269:211,1,54.0000001788141,2|0,3:2|0:0,0:0:0:0:
115,0,6582,6,0,L|101:52,1,54.0000001788141,2|0,1:2|3:3,0:0:0:0:
176,259,7234,2,0,L|190:207,1,54.0000001788141,2|0,3:2|0:0,0:0:0:0:
115,0,7886,6,0,L|124:36,1,36.0000001192094,2|8,1:2|2:2,0:0:0:0:
174,152,8375,1,2,3:2:0:0:
176,160,8456,1,0,3:3:0:0:
178,169,8538,2,0,P|197:175|226:178,1,45.0000001490117,0|0,3:3|0:0,0:0:0:0:
271,184,9028,5,2,1:2:0:0:
320,178,9109,1,2,1:2:0:0:
366,163,9191,2,0,L|375:122,1,36.0000001192094,2|8,1:2|2:2,0:0:0:0:
227,304,9680,6,0,P|225:348|231:388,1,80.9999977962974,2|10,3:2|2:2,0:0:0:0:
159,384,10332,1,0,1:1:0:0:
159,384,10413,1,0,1:1:0:0:
159,384,10495,6,0,L|150:346,1,36.0000001192094,2|8,1:2|2:2,0:0:0:0:
24,346,10984,2,0,L|32:381,1,36.0000001192094,2|0,3:2|1:1,0:0:0:0:
85,231,11473,2,0,L|79:206,1,18.0000000596047,10|0,2:2|1:1,0:0:0:0:
71,169,11718,1,0,1:1:0:0:
71,169,11799,5,2,1:2:0:0:
256,220,12044,6,0,P|279:228|314:229,1,54.0000001788141,2|2,3:2|3:2,0:0:0:0:
467,203,12451,1,2,3:2:0:0:
352,161,12614,1,0,1:1:0:0:
225,143,12778,1,10,2:2:0:0:
119,155,12941,1,2,1:2:0:0:
53,186,13104,6,0,L|45:244,1,54.0000001788141,4|0,1:2|3:3,0:0:0:0:
183,76,13756,2,0,P|185:51|175:22,1,54.0000001788141,2|0,3:2|0:0,0:0:0:0:
45,239,14408,2,0,L|39:185,1,54.0000001788141,2|0,1:2|3:3,0:0:0:0:
31,46,15060,2,0,P|19:21|0:4,1,54.0000001788141,2|0,3:2|0:0,0:0:0:0:
51,23,15712,6,0,P|71:40|82:64,1,54.0000001788141,2|0,1:2|3:3,0:0:0:0:
134,211,16364,2,0,L|128:157,1,54.0000001788141,2|0,3:2|0:0,0:0:0:0:
335,23,17017,2,0,P|327:49|329:76,1,54.0000001788141,2|0,1:2|3:3,0:0:0:0:
378,211,17669,2,0,L|383:157,1,54.0000001788141,2|0,3:2|0:0,0:0:0:0:
256,1,18321,6,0,P|256:21|249:38,1,36.0000001192094,2|8,1:2|2:2,0:0:0:0:
129,131,18810,1,2,3:2:0:0:
122,135,18892,1,0,3:3:0:0:
116,140,18973,2,0,P|90:146|64:147,1,45.0000001490117,0|0,3:3|0:0,0:0:0:0:
19,152,19462,5,2,1:2:0:0:
49,195,19544,1,2,1:2:0:0:
41,246,19625,2,1,P|32:264|19:279,1,36.0000001192094,2|8,1:2|2:2,0:0:0:0:
203,333,20114,6,0,P|236:343|284:345,1,80.9999977962974,2|10,3:2|2:2,0:0:0:0:
322,274,20767,1,0,1:1:0:0:
322,274,20848,1,0,1:1:0:0:
322,274,20930,6,0,P|303:273|288:263,1,36.0000001192094,2|8,1:2|2:2,0:0:0:0:
319,118,21419,2,0,P|338:119|353:129,1,36.0000001192094,2|0,3:2|1:1,0:0:0:0:
467,216,21908,2,0,P|473:223|475:231,1,18.0000000596047,10|0,2:2|1:1,0:0:0:0:
477,273,22153,1,0,1:1:0:0:
477,273,22234,1,0,1:1:0:0:
388,215,22397,6,0,L|318:195,1,72.0000002384188,2|0,3:2|1:1,0:0:0:0:
247,172,23212,1,10,2:2:0:0:
113,223,23375,1,2,1:2:0:0:
201,380,23538,6,0,B|223:318|223:318|203:245,1,135.000005596877,4|8,1:2|2:2,0:0:0:0:
31,229,24028,2,0,L|49:365,1,135.000005596877,2|0,2:2|1:1,0:0:0:0:
135,299,24517,1,8,2:2:0:0:
123,224,24843,5,0,1:1:0:0:
111,149,25169,1,8,2:2:0:0:
267,197,25332,6,0,P|196:208|119:185,1,135.000005596877,2|2,2:2|1:2,0:0:0:0:
257,125,25821,1,10,2:2:0:0:
377,220,25984,1,2,1:2:0:0:
316,337,26147,5,0,1:1:0:0:
173,281,26473,1,8,2:2:0:0:
229,327,26636,1,0,2:2:0:0:
229,327,26962,5,0,1:1:0:0:
173,281,27125,1,8,2:2:0:0:
59,301,27451,5,0,1:1:0:0:
59,301,27614,2,0,L|90:339,1,45.0000001490117,0|8,2:2|2:2,0:0:0:0:
160,355,27941,2,0,P|175:307|167:256,1,90.0000002980235,0|0,2:2|1:1,0:0:0:0:
140,168,28430,1,8,2:2:0:0:
140,168,28756,6,0,P|145:114|161:81,2,67.5000027984384,2|0|8,1:2|0:0|2:2,0:0:0:0:
207,230,29245,2,0,P|264:213|307:152,1,135.000005596877,2|0,2:2|1:1,0:0:0:0:
214,43,29734,1,10,2:2:0:0:
205,113,29897,2,0,L|123:118,1,67.5000027984384,2|0,2:2|1:1,0:0:0:0:
298,75,30223,6,0,P|336:63|443:51,1,135.000005596877,2|2,2:2|2:2,0:0:0:0:
314,259,30875,1,2,1:2:0:0:
459,231,31038,1,10,2:2:0:0:
384,239,31201,1,2,1:2:0:0:
336,258,31364,5,2,1:2:0:0:
336,258,31528,2,0,P|297:275|278:290,1,67.5000027984384,2|8,2:2|2:2,0:0:0:0:
257,310,31854,2,0,L|135:399,1,135.000005596877,2|0,2:2|1:1,0:0:0:0:
5,319,32343,1,8,2:2:0:0:
85,91,32669,5,0,1:1:0:0:
105,161,32832,2,0,L|97:220,1,45.0000001490117,0|8,2:2|2:2,0:0:0:0:
193,163,33158,2,0,P|214:146|215:80,1,90.0000002980235,0|0,2:2|1:1,0:0:0:0:
107,20,33647,5,10,2:2:0:0:
107,20,33810,1,2,1:2:0:0:
194,119,33973,6,0,P|199:190|174:266,1,135.000005596877,2|8,1:2|2:2,0:0:0:0:
85,359,34462,2,0,B|60:295|60:295|82:221,1,135.000005596877,2|0,2:2|1:1,0:0:0:0:
185,297,34951,1,8,2:2:0:0:
257,310,35278,5,0,1:1:0:0:
329,323,35604,1,10,2:2:0:0:
310,174,35767,6,0,P|309:243|324:331,1,135.000005596877,2|2,2:2|1:2,0:0:0:0:
394,195,36256,1,10,2:2:0:0:
235,109,36419,2,0,P|201:99|153:110,1,67.5000027984384,2|0,1:2|1:1,0:0:0:0:
398,333,36908,1,8,2:2:0:0:
325,332,37071,6,0,P|318:283|318:234,1,90.0000002980235,0|0,2:2|1:2,0:0:0:0:
394,317,37560,1,8,2:2:0:0:
255,368,37723,1,0,2:2:0:0:
81,206,38049,6,0,B|67:163|67:163|79:120,2,90.0000002980235,0|0|0,0:0|2:2|1:1,0:0:0:0:
0,40,38864,1,8,2:2:0:0:
0,40,39027,1,0,1:1:0:0:
148,168,39191,6,0,L|134:308,1,135.000000447035,2|8,1:2|2:2,0:0:0:0:
250,384,39680,2,0,P|289:346|276:254,1,135.000005596877,2|0,2:2|1:1,0:0:0:0:
222,117,40169,1,10,2:2:0:0:
215,192,40332,5,2,2:2:0:0:
428,161,40658,1,2,2:2:0:0:
215,192,40984,2,0,B|278:214|278:214|358:208,1,135.000005596877,2|2,2:2|1:2,0:0:0:0:
143,257,41473,6,0,P|110:266|58:269,1,67.5000027984384,10|2,2:2|1:2,0:0:0:0:
257,290,41799,1,2,1:2:0:0:
321,335,41962,1,2,2:2:0:0:
61,182,42288,6,1,B|46:201|46:201|59:221|59:221|41:323,1,135.000000447035,2|8,2:2|2:2,0:0:0:0:
101,364,42941,5,0,3:3:0:0:
101,364,43022,1,0,3:3:0:0:
101,364,43104,2,0,L|109:327,1,22.5000000745059,0|0,1:1|0:0,0:0:0:0:
152,200,43267,6,0,P|173:191|201:188,1,45.0000001490117,0|0,1:1|0:0,0:0:0:0:
400,228,43430,2,0,P|382:214|361:206,1,45.0000001490117,8|0,2:2|0:0,0:0:0:0:
203,160,43593,5,0,3:3:0:0:
167,165,43674,1,0,3:3:0:0:
133,178,43756,1,0,3:3:0:0:
108,204,43837,1,0,3:3:0:0:
91,236,43919,1,8,2:2:0:0:
320,143,44082,5,0,3:3:0:0:
342,103,44164,1,0,3:3:0:0:
343,58,44245,1,2,3:2:0:0:
331,339,44408,5,4,1:2:0:0:
343,343,44489,1,0,0:0:0:0:
355,347,44571,1,0,3:2:0:0:
368,349,44653,1,0,3:2:0:0:
380,352,44734,1,8,2:2:0:0:
393,355,44816,1,0,0:0:0:0:
406,356,44897,1,0,3:2:0:0:
419,358,44979,1,0,3:2:0:0:
410,340,45060,5,0,3:2:0:0:
397,339,45141,1,0,3:2:0:0:
384,338,45223,1,0,1:2:0:0:
371,337,45304,1,0,0:0:0:0:
358,336,45386,1,8,2:2:0:0:
344,334,45468,1,0,0:0:0:0:
330,330,45549,1,0,1:2:0:0:
258,345,45712,5,0,1:1:0:0:
244,347,45794,1,0,2:2:0:0:
230,349,45875,1,0,3:2:0:0:
216,351,45957,1,0,3:3:0:0:
202,354,46038,1,8,2:2:0:0:
188,353,46120,1,0,0:0:0:0:
174,352,46201,1,0,3:2:0:0:
160,349,46283,1,0,3:2:0:0:
146,349,46364,1,0,3:2:0:0:
132,352,46446,1,0,3:2:0:0:
118,355,46528,1,0,1:2:0:0:
106,361,46609,1,0,2:2:0:0:
93,367,46691,1,8,2:2:0:0:
80,371,46772,1,0,2:2:0:0:
69,379,46854,1,0,1:2:0:0:
283,126,47017,6,0,P|290:90|292:42,2,80.9999977962974,2|2|10,1:2|2:2|2:2,0:0:0:0:
204,156,48158,2,0,L|141:168,1,53.9999985308649,2|2,1:2|2:2,0:0:0:0:
175,10,48810,2,0,L|228:0,1,53.9999985308649,2|2,2:2|1:2,0:0:0:0:
288,63,49299,5,10,2:2:0:0:
384,37,49462,1,2,1:2:0:0:
308,306,49625,5,0,1:1:0:0:
323,305,49707,1,0,2:2:0:0:
338,304,49788,1,0,3:2:0:0:
353,303,49870,1,0,3:2:0:0:
368,302,49951,1,8,2:2:0:0:
383,302,50033,1,0,0:0:0:0:
398,301,50114,1,0,3:2:0:0:
413,301,50196,1,0,3:2:0:0:
428,297,50278,1,0,3:2:0:0:
405,260,50359,5,0,3:2:0:0:
389,257,50441,1,0,1:2:0:0:
373,256,50522,1,0,2:2:0:0:
357,256,50604,1,8,2:2:0:0:
341,255,50685,1,0,0:0:0:0:
325,252,50767,1,0,1:2:0:0:
309,248,50848,1,0,1:2:0:0:
295,239,50930,5,0,1:2:0:0:
263,305,51093,1,0,3:2:0:0:
189,310,51256,5,8,2:2:0:0:
173,310,51337,1,0,2:2:0:0:
157,309,51419,1,0,3:2:0:0:
141,306,51500,1,0,3:3:0:0:
125,301,51582,1,0,3:2:0:0:
77,264,51663,5,8,3:2:0:0:
94,289,51745,1,0,1:2:0:0:
98,308,51826,1,0,2:2:0:0:
94,323,51908,1,8,2:2:0:0:
89,337,51989,1,0,0:0:0:0:
81,350,52071,1,0,1:2:0:0:
253,67,52234,6,0,P|287:45|330:26,1,80.9999977962974,2|2,1:2|2:2,0:0:0:0:
96,144,53212,5,10,2:2:0:0:
96,144,53375,1,2,1:2:0:0:
144,86,53538,5,2,1:2:0:0:
224,52,53701,2,0,P|248:45|278:44,1,53.9999985308649,2|2,2:2|2:2,0:0:0:0:
377,52,54191,1,2,2:2:0:0:
374,72,54680,5,2,1:2:0:0:
215,325,54843,5,4,1:2:0:0:
200,329,54924,1,0,0:0:0:0:
184,332,55006,1,0,3:2:0:0:
168,331,55087,1,0,3:2:0:0:
152,327,55169,1,8,2:2:0:0:
136,330,55250,1,0,0:0:0:0:
123,339,55332,1,0,3:2:0:0:
113,351,55413,1,0,3:2:0:0:
89,312,55495,5,0,3:2:0:0:
103,307,55576,1,0,3:3:0:0:
117,300,55658,1,0,1:2:0:0:
130,293,55739,1,0,2:2:0:0:
145,290,55821,1,8,2:2:0:0:
160,290,55903,1,0,0:0:0:0:
175,292,55984,1,0,1:2:0:0:
189,298,56066,1,0,1:2:0:0:
201,307,56147,1,0,1:2:0:0:
257,353,56310,5,0,3:2:0:0:
272,354,56392,1,0,3:2:0:0:
287,356,56473,1,8,2:2:0:0:
302,357,56555,1,0,0:0:0:0:
317,356,56636,1,0,3:2:0:0:
332,353,56718,1,0,3:2:0:0:
346,346,56799,1,0,3:2:0:0:
361,345,56881,1,0,3:2:0:0:
376,349,56962,1,0,1:2:0:0:
390,355,57044,1,0,0:0:0:0:
402,364,57125,1,8,2:2:0:0:
414,374,57207,1,0,2:2:0:0:
425,383,57288,1,0,1:2:0:0:
228,127,57451,6,0,P|193:130|182:138,1,40.4999988981487,2|0,1:2|0:0,0:0:0:0:
132,154,57778,2,0,P|150:146|170:148,1,40.4999988981487,10|0,2:2|0:0,0:0:0:0:
243,166,58104,6,0,L|247:105,2,53.9999985308649,2|10|2,2:2|2:2|1:2,0:0:0:0:
396,132,59082,1,10,2:2:0:0:
272,42,59245,2,0,L|293:45,1,13.4999996327162,2|2,2:2|2:2,0:0:0:0:
353,64,59408,6,0,P|366:88|367:126,1,53.9999985308649,2|8,2:2|2:2,0:0:0:0:
363,131,59897,1,2,1:2:0:0:
198,365,60060,5,0,1:1:0:0:
182,366,60142,1,0,2:2:0:0:
166,367,60223,1,0,3:2:0:0:
150,369,60305,1,0,3:3:0:0:
134,371,60386,1,8,2:2:0:0:
118,371,60468,1,0,2:2:0:0:
103,375,60549,1,0,3:2:0:0:
87,375,60631,1,0,3:3:0:0:
107,338,60712,5,0,3:2:0:0:
122,334,60794,1,0,3:2:0:0:
137,337,60875,1,0,1:2:0:0:
152,334,60957,1,0,0:0:0:0:
167,335,61038,1,8,2:2:0:0:
182,331,61120,1,0,2:2:0:0:
197,333,61201,1,0,1:2:0:0:
212,328,61283,1,0,1:1:0:0:
227,332,61364,5,0,1:2:0:0:
242,333,61446,1,0,2:2:0:0:
257,336,61528,1,0,3:2:0:0:
272,339,61609,1,0,3:3:0:0:
286,344,61691,1,8,2:2:0:0:
299,351,61772,1,0,2:2:0:0:
313,357,61854,1,0,3:2:0:0:
326,364,61935,1,0,3:3:0:0:
340,324,62017,6,0,P|310:308|278:298,1,67.5000002235176,0|0,3:2|0:0,0:0:0:0:
229,294,62343,1,8,2:2:0:0:
225,309,62424,1,0,2:2:0:0:
223,324,62506,1,0,1:2:0:0:
254,70,62669,6,0,P|236:81|232:103,1,36.0000001192094,2|2,1:2|2:2,0:0:0:0:
237,139,62913,1,2,2:2:0:0:
239,155,62995,1,8,2:2:0:0:
140,42,63158,6,0,P|122:73|126:123,1,72.0000002384188,2|2,2:2|1:2,0:0:0:0:
313,162,63647,2,0,L|363:156,1,36.0000001192094,10|2,2:2|1:2,0:0:0:0:
143,180,63973,6,0,B|106:192|106:192|93:223,1,67.5000027984384,2|2,1:2|2:2,0:0:0:0:
89,256,64218,1,2,2:2:0:0:
85,299,64299,1,8,2:2:0:0:
249,367,64462,6,0,B|274:322|274:322|242:217,1,135.000005596877,2|2,2:2|1:2,0:0:0:0:
119,368,64951,1,10,2:2:0:0:
181,269,65114,1,2,1:2:0:0:
410,29,65441,6,0,B|388:177|388:177|354:134,1,168.750000558794,0|0,2:2|0:0,0:0:0:0:
327,86,65767,2,0,L|58:114,1,225.000000745059,0|0,2:2|1:2,0:0:0:0:
350,178,66256,1,8,2:2:0:0:
187,235,66419,1,0,2:2:0:0:
363,219,66582,5,0,1:2:0:0:
286,185,66745,1,0,2:2:0:0:
117,255,66908,1,8,2:2:0:0:
308,335,67071,1,0,2:2:0:0:
142,325,67234,5,0,2:2:0:0:
187,170,67397,1,0,1:2:0:0:
180,342,67560,1,8,2:2:0:0:
153,225,67723,2,0,B|0:251|0:251|41:281,1,180.000000596047,0|0,1:2|2:2,0:0:0:0:
210,283,68212,6,0,L|223:179,1,90.0000002980235,8|0,2:2|2:2,0:0:0:0:
235,48,68538,1,0,2:2:0:0:
125,162,68701,1,0,1:2:0:0:
229,122,68864,5,8,2:2:0:0:
79,94,69028,1,0,1:2:0:0:
228,322,69191,6,0,P|310:335|410:290,1,180.000000596047,8|0,2:2|0:0,0:0:0:0:
398,300,69408,2,0,P|316:334|228:322,1,180.000000596047,8|0,2:2|0:0,0:0:0:0:
227,321,69625,2,0,P|316:334|398:300,1,180.000000596047,8|0,2:2|0:0,0:0:0:0:
398,300,69843,6,0,P|309:287|227:321,1,180.000000596047,8|0,2:2|0:0,0:0:0:0:
319,140,70060,6,0,P|235:173|181:243,1,180.000000596047,8|0,2:2|0:0,0:0:0:0:
162,65,70278,6,0,P|106:135|94:223,1,180.000000596047,8|0,2:2|0:0,0:0:0:0:
96,231,70495,6,0,P|91:248|86:226,1,60.749998347223,4|0,0:1|0:0,0:0:0:0:
69,321,71473,6,0,B|64:345|64:345|68:349|68:349|62:373,1,53.9999985308649,2|0,2:2|0:0,0:0:0:0:
256,192,71799,1,4,1:2:0:0:
256,192,72125,6,0,B|293:228|293:228|347:222|438:266,1,180.000000596047,10|2,2:2|2:2,0:0:0:0:
163,284,72614,2,0,L|96:287,2,45.0000001490117,2|0|8,1:2|0:0|2:2,0:0:0:0:
320,135,72941,2,0,B|283:186|273:254|319:314,1,180.000000596047,2|2,2:2|2:2,0:0:0:0:
391,180,73430,1,10,2:2:0:0:
218,151,73593,2,0,B|173:145|173:145|116:171,1,90.0000002980235,2|0,2:2|0:0,0:0:0:0:
327,232,73919,5,2,1:2:0:0:
197,319,74082,1,10,2:2:0:0:
57,195,74245,1,2,1:2:0:0:
269,281,74408,5,2,1:2:0:0:
124,233,74571,1,2,2:2:0:0:
287,80,74734,1,10,2:2:0:0:
354,376,75060,5,2,2:2:0:0:
197,290,75223,1,2,1:2:0:0:
362,175,75386,1,10,2:2:0:0:
218,258,75549,6,0,B|292:262|292:262|347:311|430:290,1,215.99999412346,2|2,2:2|2:2,0:0:0:0:
132,317,76038,1,10,2:2:0:0:
71,158,76201,2,0,B|57:103|57:103|88:59,1,107.99999706173,2|0,2:2|0:0,0:0:0:0:
33,290,76528,5,2,1:2:0:0:
219,210,76691,1,10,2:2:0:0:
182,286,76854,1,2,1:2:0:0:
173,307,76935,1,0,1:1:0:0:
164,328,77017,6,0,P|151:229|168:141,1,180.000000596047,4|8,1:2|2:2,0:0:0:0:
276,38,77506,1,2,2:2:0:0:
313,32,77587,1,2,2:2:0:0:
350,26,77669,2,0,B|419:94|433:192|387:281,1,270.00000089407,2|2,2:2|2:2,0:0:0:0:
383,288,78239,1,2,2:2:0:0:
369,284,78321,5,0,1:1:0:0:
275,236,78484,1,2,2:2:0:0:
460,321,78647,5,10,2:2:0:0:
337,351,78810,1,2,2:2:0:0:
182,251,78973,5,2,2:2:0:0:
241,372,79136,1,2,1:2:0:0:
258,268,79299,1,10,2:2:0:0:
275,164,79462,2,0,P|265:89|165:88,1,180.000000596047,2|2,1:2|2:2,0:0:0:0:
174,79,80114,5,2,2:2:0:0:
134,200,80278,1,2,2:2:0:0:
127,13,80441,5,2,1:2:0:0:
97,98,80604,1,10,2:2:0:0:
12,68,80767,1,2,2:2:0:0:
12,68,80848,1,0,0:0:0:0:
12,68,80930,1,0,1:1:0:0:
0,187,81093,6,0,B|8:241|8:241|59:281,1,107.99999706173,2|8,1:2|2:2,0:0:0:0:
169,339,81419,1,2,3:2:0:0:
215,351,81500,1,0,3:3:0:0:
261,362,81582,6,0,P|290:365|323:357,1,45.0000001490117,2|0,3:2|3:3,0:0:0:0:
432,308,81745,6,0,P|440:286|443:251,1,53.9999985308649,10|0,2:2|0:0,0:0:0:0:
440,123,81908,6,0,P|420:91|389:82,1,62.9999982860091,2|0,3:2|3:3,0:0:0:0:
208,51,82071,6,0,P|171:55|145:82,1,76.5000017124417,2|0,3:2|3:3,0:0:0:0:
249,286,82234,6,0,L|258:185,1,90.0000002980235,4|0,1:2|0:0,0:0:0:0:
256,196,82560,6,1,B|201:233|201:233|129:241|60:211,1,180.000000596047,10|2,2:2|2:2,0:0:0:0:
322,303,83049,2,0,P|363:316|424:309,1,90.0000002980235,2|8,1:2|2:2,0:0:0:0:
358,63,83375,2,0,B|337:112|337:112|389:183|374:246,1,180.000000596047,2|2,2:2|2:2,0:0:0:0:
203,367,83864,1,10,2:2:0:0:
190,273,84028,1,2,2:2:0:0:
190,273,84354,5,2,1:2:0:0:
77,343,84517,1,10,2:2:0:0:
269,304,84680,1,2,1:2:0:0:
125,160,84843,5,2,1:2:0:0:
115,278,85006,1,2,2:2:0:0:
291,195,85169,6,0,B|367:167|395:210|465:168,1,161.999995592595,10|0,2:2|0:0,0:0:0:0:
496,157,85495,1,2,2:2:0:0:
361,236,85658,1,2,1:2:0:0:
235,119,85821,1,10,2:2:0:0:
405,31,85984,6,0,B|440:78|440:78|400:270,1,215.99999412346,2|2,2:2|2:2,0:0:0:0:
236,369,86473,1,10,2:2:0:0:
131,192,86636,2,0,B|187:180|187:180|246:212,1,107.99999706173,2|0,2:2|0:0,0:0:0:0:
374,327,86962,5,2,1:2:0:0:
302,145,87125,1,10,2:2:0:0:
162,283,87288,1,2,1:2:0:0:
319,244,87451,6,0,B|348:199|359:136|311:70,1,180.000000596047,4|8,1:2|2:2,0:0:0:0:
141,34,87941,2,0,L|67:44,1,45.0000001490117,2|2,2:2|2:2,0:0:0:0:
96,40,88104,2,0,B|69:127|69:127|128:220,1,180.000000596047,2|8,2:2|2:2,0:0:0:0:
247,326,88593,1,2,2:2:0:0:
279,210,88756,5,2,1:2:0:0:
178,270,88919,1,2,2:2:0:0:
370,294,89082,5,10,2:2:0:0:
259,185,89245,1,2,2:2:0:0:
135,344,89408,5,2,2:2:0:0:
248,289,89571,1,2,1:2:0:0:
404,257,89734,1,10,2:2:0:0:
274,310,89897,1,2,1:2:0:0:
174,0,90223,6,0,P|93:34|16:92,1,180.000000596047,2|2,2:2|2:2,0:0:0:0:
189,19,90712,1,2,2:2:0:0:
144,214,90875,1,2,1:2:0:0:
123,69,91038,1,10,2:2:0:0:
212,123,91201,6,0,P|276:143|394:133,1,180.000000596047,2|2,2:2|1:2,0:0:0:0:
399,146,91854,5,2,3:2:0:0:
399,146,91935,1,0,3:3:0:0:
399,146,92017,2,0,B|407:175|407:175|395:212,1,53.9999985308649,2|0,3:2|3:3,0:0:0:0:
328,366,92180,6,0,L|315:240,1,107.99999706173,10|2,2:2|3:2,0:0:0:0:
312,212,92424,1,0,3:3:0:0:
307,165,92506,2,0,L|226:173,1,53.9999985308649,2|0,3:2|3:3,0:0:0:0:
121,185,92669,5,6,1:2:0:0:
263,57,92832,1,2,2:2:0:0:
263,57,92913,1,2,2:2:0:0:
263,57,92995,1,10,2:2:0:0:
263,57,93076,1,2,0:0:0:0:
263,57,93158,1,2,1:2:0:0:
391,199,93321,1,2,2:2:0:0:
391,199,93402,1,2,2:2:0:0:
391,199,93484,1,2,1:2:0:0:
249,327,93647,1,10,2:2:0:0:
220,356,93729,1,2,2:2:0:0:
191,385,93810,1,2,1:2:0:0:
104,133,93973,5,6,1:2:0:0:
264,29,94136,1,2,2:2:0:0:
412,149,94299,1,10,2:2:0:0:
437,187,94381,1,2,2:2:0:0:
421,228,94462,2,0,L|385:280,1,45.0000001490117,2|2,1:2|0:0,0:0:0:0:
344,327,94625,1,2,2:2:0:0:
310,357,94706,1,2,2:2:0:0:
265,347,94788,1,2,1:2:0:0:
153,318,94951,1,10,2:2:0:0:
101,303,95033,1,2,2:2:0:0:
48,287,95114,1,2,1:2:0:0:
133,39,95278,5,6,1:2:0:0:
326,9,95441,2,0,P|346:19|373:51,1,45.0000001490117,2|2,2:2|2:2,0:0:0:0:
449,162,95604,2,0,P|447:189|428:215,1,45.0000001490117,10|2,2:2|2:2,0:0:0:0:
378,344,95767,2,0,L|243:365,1,135.000000447035,2|2,1:2|0:0,0:0:0:0:
185,374,96093,2,0,L|144:327,1,45.0000001490117,2|2,1:2|2:2,0:0:0:0:
62,221,96256,1,10,2:2:0:0:
48,173,96337,1,2,0:0:0:0:
64,126,96419,1,2,1:2:0:0:
277,0,96582,5,6,1:2:0:0:
356,256,96745,1,2,1:3:0:0:
305,300,96826,1,2,1:3:0:0:
238,310,96908,1,2,1:3:0:0:
177,282,96989,1,2,1:3:0:0:
141,225,97071,1,2,1:3:0:0:
141,158,97153,1,2,1:3:0:0:
177,101,97234,1,2,1:3:0:0:
238,73,97316,1,2,1:3:0:0:
305,83,97397,1,2,1:3:0:0:
356,127,97479,1,2,1:3:0:0:
375,192,97560,1,2,1:3:0:0:
256,192,97723,5,0,1:1:0:0:
237,193,97805,1,0,1:1:0:0:
219,194,97886,2,0,L|78:214,1,135.000005596877,4|10,1:2|2:2,0:0:0:0:
184,344,98375,2,0,P|240:371|331:357,1,135.000005596877,0|0,2:2|1:2,0:0:0:0:
479,248,98864,1,10,2:2:0:0:
424,79,99028,1,0,2:2:0:0:
339,123,99191,6,0,B|323:165|323:165|353:220,1,90.0000002980235,0|8,1:2|2:2,0:0:0:0:
173,261,99680,2,0,B|189:219|189:219|159:164,1,90.0000002980235,0|0,2:2|1:2,0:0:0:0:
128,84,100169,2,0,P|109:99|76:116,1,45.0000001490117,8|0,2:2|1:1,0:0:0:0:
22,148,100495,5,0,1:2:0:0:
67,205,100658,1,0,2:2:0:0:
37,270,100821,2,0,L|27:221,1,36.0000001192094,8|0,2:2|0:0,0:0:0:0:
67,205,101147,5,0,2:2:0:0:
126,250,101310,1,0,1:2:0:0:
183,328,101473,2,0,P|192:310|193:276,1,33.7500013992192,8|0,2:2|0:0,0:0:0:0:
258,22,101636,6,0,L|248:224,1,202.500008395315,2|0,1:2|0:0,0:0:0:0:
246,303,101962,2,0,L|202:299,1,26.9999992654325,2|0,2:2|0:0,0:0:0:0:
246,303,102044,2,0,L|272:304,1,26.9999992654325,2|0,2:2|0:0,0:0:0:0:
246,257,102125,6,0,L|252:135,1,107.99999706173,10|2,2:2|2:2,0:0:0:0:
254,112,102370,1,2,2:2:0:0:
245,170,102451,5,2,2:2:0:0:
226,138,102533,1,2,2:2:0:0:
257,120,102614,1,2,1:2:0:0:
274,151,102696,1,2,2:2:0:0:
211,165,102778,6,0,L|169:178,2,26.9999992654325,10|2|2,2:2|0:0|2:2,0:0:0:0:
295,137,102941,2,0,L|398:105,1,107.99999706173,2|4,2:2|2:2,0:0:0:0:
