osu file format v14

[General]
AudioFilename: audio.mp3
AudioLeadIn: 0
PreviewTime: 71229
Countdown: 0
SampleSet: Soft
StackLeniency: 0.4
Mode: 0
LetterboxInBreaks: 0
WidescreenStoryboard: 1

[Editor]
Bookmarks: 22599,43469,63523,64339,70860,91730,102165
DistanceSpacing: 0.4
BeatDivisor: 4
GridSize: 32
TimelineZoom: 3.3

[Metadata]
Title:Chilly
TitleUnicode:散り散り
Artist:Yomitan Akane
ArtistUnicode:読谷あかね
Creator:Tuffiii
Version:Trito's Expert
Source:
Tags:Ryuusei Aika ryuusei_aika leominexd leomine take tritobandito nyan_kot_nyan chirijiri pop kasane teto vocaloid utau female japanese vocal cold dnb drum and bass electronic 重音テト chiri chir
BeatmapID:4519304
BeatmapSetID:2066909

[Difficulty]
HPDrainRate:4.5
CircleSize:3.7
OverallDifficulty:8.8
ApproachRate:9.2
SliderMultiplier:1.8
SliderTickRate:1

[Events]
//Background and Video events
0,0,"107718626_p02000.jpg",0,0
//Break Periods
//Storyboard Layer 0 (Background)
//Storyboard Layer 1 (Fail)
//Storyboard Layer 2 (Pass)
//Storyboard Layer 3 (Foreground)
//Storyboard Layer 4 (Overlay)
//Storyboard Sound Samples

[TimingPoints]
1365,326.086956521739,4,2,1,75,1,0
1365,-166.666666666667,4,2,1,75,0,0
2669,-125,4,2,1,80,0,0
6500,-125,4,2,1,5,0,0
6582,-125,4,2,1,80,0,0
23538,-166.666666666667,4,2,1,60,0,0
43104,-166.666666666667,4,2,1,65,0,0
44408,-125,4,2,1,75,0,0
65278,-166.666666666667,4,2,1,55,0,0
69191,-166.666666666667,4,2,1,70,0,0
69299,-166.666666666667,4,2,1,70,0,0
69408,-166.666666666667,4,2,1,70,0,0
69517,-166.666666666667,4,2,1,70,0,0
69626,-166.666666666667,4,2,1,70,0,0
69734,-166.666666666667,4,2,1,70,0,0
69843,-166.666666666667,4,2,1,70,0,0
69951,-166.666666666667,4,2,1,70,0,0
70060,-166.666666666667,4,2,1,70,0,0
70169,-166.666666666667,4,2,1,70,0,0
70278,-166.666666666667,4,2,1,70,0,0
70386,-166.666666666667,4,2,1,70,0,0
70495,-166.666666666667,4,2,1,50,0,0
71310,-166.666666666667,4,2,1,50,0,0
71799,-100,4,2,1,85,0,1
92343,-100,4,2,1,85,0,0
92669,-100,4,2,1,85,0,1
103104,-100,4,2,1,60,0,0

[Colours]
Combo1 : 194,107,114
Combo2 : 101,75,79
Combo3 : 158,82,91
Combo4 : 116,96,144

[HitObjects]
81,106,1365,6,0,L|17:100,1,53.9999983520508,4|0,0:1|1:1,0:0:0:0:
184,25,1691,1,8,2:2:0:0:
174,152,1854,2,0,L|176:124,1,26.9999991760254,0|0,3:3|3:3,0:0:0:0:
184,150,2017,2,0,L|186:122,1,26.9999991760254,0|0,3:3|3:3,0:0:0:0:
193,26,2180,1,8,1:2:0:0:
286,132,2343,1,0,3:3:0:0:
299,130,2424,1,0,3:3:0:0:
312,129,2506,1,0,3:3:0:0:
326,128,2587,1,0,3:3:0:0:
339,126,2669,6,0,L|426:119,1,72,4|0,1:2|3:3,0:0:0:0:
423,126,2913,1,0,3:3:0:0:
436,131,2995,1,8,2:2:0:0:
490,245,3158,1,0,3:3:0:0:
490,245,3239,1,0,3:3:0:0:
490,245,3321,2,0,L|426:239,1,36,2|0,3:2|3:3,0:0:0:0:
302,221,3484,1,0,1:1:0:0:
302,221,3566,1,0,1:0:0:0:
302,221,3647,2,0,P|346:250|362:300,1,108,8|0,2:2|1:1,0:0:0:0:
356,310,3973,6,0,L|260:301,1,72,2|0,1:2|3:3,0:0:0:0:
134,358,4299,1,8,2:2:0:0:
188,285,4462,2,0,L|182:221,1,36,0|0,3:3|3:3,0:0:0:0:
102,197,4625,1,2,3:2:0:0:
103,179,4706,1,0,3:3:0:0:
105,161,4788,1,0,1:1:0:0:
106,143,4869,1,0,1:0:0:0:
108,125,4951,1,8,2:2:0:0:
32,251,5114,1,0,1:1:0:0:
78,48,5278,6,0,P|113:41|147:51,1,72,2|0,1:2|3:3,0:0:0:0:
161,49,5522,1,0,3:3:0:0:
175,46,5604,1,8,2:2:0:0:
253,141,5767,2,0,L|189:135,1,36,0|0,3:3|3:3,0:0:0:0:
274,53,5930,2,0,L|337:47,1,36,2|0,3:2|3:3,0:0:0:0:
460,158,6093,1,0,1:1:0:0:
460,158,6174,1,0,1:0:0:0:
460,158,6256,2,0,P|405:140|384:90,1,108,8|0,2:2|1:1,0:0:0:0:
387,84,6582,6,0,P|395:41|385:11,1,72,2|0,1:2|3:3,0:0:0:0:
217,137,6908,1,8,2:2:0:0:
309,49,7071,2,0,L|274:53,1,36,0|0,3:3|3:3,0:0:0:0:
150,87,7234,1,2,3:2:0:0:
136,110,7315,1,0,3:3:0:0:
131,136,7397,1,0,1:1:0:0:
135,162,7478,1,0,1:2:0:0:
148,186,7560,1,8,2:2:0:0:
311,151,7723,1,0,1:1:0:0:
212,261,7886,6,0,B|142:277|142:277|76:249,1,144,2|8,1:2|2:2,0:0:0:0:
298,167,8375,2,0,L|292:230,1,36,2|0,3:2|3:3,0:0:0:0:
351,316,8538,1,0,3:3:0:0:
351,316,8620,1,0,3:3:0:0:
351,316,8701,2,0,L|356:252,1,36,0|0,1:1|1:0,0:0:0:0:
413,180,8864,1,8,2:2:0:0:
220,268,9028,5,2,1:2:0:0:
220,268,9109,1,2,1:2:0:0:
220,268,9191,2,0,P|273:294|361:275,1,144,2|8,1:2|2:2,0:0:0:0:
484,120,9680,5,2,3:2:0:0:
453,101,9761,1,0,3:3:0:0:
418,92,9843,1,0,3:3:0:0:
383,94,9924,1,0,3:3:0:0:
349,108,10006,1,0,1:1:0:0:
220,268,10169,1,10,2:2:0:0:
409,176,10332,1,0,1:1:0:0:
248,98,10495,6,0,L|256:193,1,72,2|0,1:2|3:3,0:0:0:0:
240,167,10739,1,0,3:3:0:0:
225,164,10821,1,8,2:2:0:0:
90,222,10984,1,2,3:2:0:0:
90,222,11066,1,0,3:3:0:0:
90,222,11147,2,0,L|153:216,1,36,0|0,3:3|3:3,0:0:0:0:
255,271,11310,2,0,L|191:265,1,36,0|0,1:1|1:0,0:0:0:0:
128,384,11473,6,0,L|136:288,1,72,10|0,2:2|1:1,0:0:0:0:
120,316,11718,1,0,1:1:0:0:
106,320,11799,1,2,1:2:0:0:
225,164,11962,5,0,3:3:0:0:
234,157,12044,2,0,L|228:93,1,36,2|8,3:2|2:2,0:0:0:0:
123,72,12207,5,0,1:0:0:0:
112,68,12289,2,0,L|109:104,1,36,2|0,3:2|3:3,0:0:0:0:
90,222,12451,6,0,L|153:216,1,36,2|0,3:2|3:3,0:0:0:0:
322,201,12614,1,0,1:1:0:0:
336,200,12696,1,0,1:0:0:0:
350,199,12778,1,10,2:2:0:0:
230,121,12941,2,0,L|234:157,1,36,2|0,1:2|1:1,0:0:0:0:
429,233,13104,6,0,P|436:199|426:164,1,72,4|0,1:2|3:3,0:0:0:0:
417,153,13348,1,0,3:3:0:0:
405,143,13430,1,8,2:2:0:0:
314,202,13593,1,0,3:3:0:0:
314,202,13674,1,0,3:3:0:0:
314,202,13756,2,0,L|349:198,1,36,2|0,3:2|3:3,0:0:0:0:
500,316,13919,2,0,L|464:312,1,36,0|0,1:1|1:0,0:0:0:0:
358,372,14082,2,0,L|366:276,1,72,8|0,2:2|1:1,0:0:0:0:
381,52,14408,5,2,1:2:0:0:
504,147,14571,1,0,3:3:0:0:
365,39,14734,2,0,L|237:50,1,108,8|0,2:2|3:3,0:0:0:0:
251,56,15060,2,0,L|187:61,1,36,2|0,3:2|3:3,0:0:0:0:
103,136,15223,1,0,1:1:0:0:
103,136,15305,1,0,1:0:0:0:
103,136,15386,1,8,2:2:0:0:
110,1,15549,1,0,1:1:0:0:
21,101,15712,6,0,P|13:136|20:171,1,72,2|0,1:2|3:3,0:0:0:0:
16,184,15957,1,0,3:3:0:0:
11,197,16038,1,8,2:2:0:0:
138,132,16201,2,0,L|74:137,1,36,0|0,3:3|3:3,0:0:0:0:
200,211,16364,2,0,L|263:216,1,36,2|0,3:2|3:3,0:0:0:0:
105,298,16528,1,0,1:1:0:0:
105,298,16609,1,0,1:0:0:0:
105,298,16691,2,0,L|113:202,1,72,8|0,2:2|1:1,0:0:0:0:
187,346,17017,5,2,1:2:0:0:
3,306,17180,1,0,3:3:0:0:
211,351,17343,2,0,L|306:342,1,72,8|0,2:2|3:3,0:0:0:0:
294,336,17587,1,0,3:3:0:0:
305,327,17669,2,0,L|368:332,1,36,2|0,3:2|3:3,0:0:0:0:
439,377,17832,1,0,1:1:0:0:
439,377,17913,1,0,1:0:0:0:
439,377,17995,1,8,2:2:0:0:
354,239,18158,1,0,1:1:0:0:
467,137,18321,6,0,L|453:296,1,144,2|8,1:2|2:2,0:0:0:0:
361,234,18810,2,0,L|366:170,1,36,2|0,3:2|3:3,0:0:0:0:
475,144,18973,1,0,3:3:0:0:
475,144,19055,1,0,3:3:0:0:
475,144,19136,2,0,L|480:80,1,36,0|0,1:1|1:0,0:0:0:0:
401,20,19299,1,8,2:2:0:0:
236,92,19462,5,2,1:2:0:0:
236,92,19544,1,2,1:2:0:0:
236,92,19625,2,1,P|287:116|382:91,1,144,2|8,1:2|2:2,0:0:0:0:
180,28,20114,5,2,3:2:0:0:
157,55,20195,1,0,3:3:0:0:
147,89,20277,1,0,3:3:0:0:
154,124,20358,1,0,3:3:0:0:
175,153,20440,1,0,1:1:0:0:
372,228,20604,1,10,2:2:0:0:
309,31,20767,1,0,1:1:0:0:
203,231,20930,6,0,P|144:230|123:218,1,72,2|0,1:2|3:3,0:0:0:0:
120,218,21174,1,0,3:3:0:0:
107,210,21256,1,8,2:2:0:0:
278,118,21419,6,0,L|272:181,1,36,2|0,3:2|3:3,0:0:0:0:
380,235,21582,1,0,3:3:0:0:
380,235,21663,1,0,3:3:0:0:
380,235,21745,2,0,L|385:298,1,36,0|0,1:1|1:0,0:0:0:0:
291,319,21908,6,0,L|282:223,1,72,10|0,2:2|1:1,0:0:0:0:
272,254,22153,1,0,1:1:0:0:
259,261,22234,1,0,1:1:0:0:
179,336,22397,6,0,L|107:329,1,72,2|8,3:2|2:2,0:0:0:0:
32,254,22723,1,0,3:3:0:0:
32,254,22805,1,0,3:3:0:0:
32,254,22886,2,0,L|67:250,1,36,0|0,3:3|3:3,0:0:0:0:
259,261,23049,1,0,1:1:0:0:
155,175,23212,2,0,L|163:270,1,72,10|2,2:2|1:2,0:0:0:0:
94,110,23538,6,0,P|143:87|195:95,1,107.999996704102,4|8,1:2|2:2,0:0:0:0:
273,156,24028,2,0,B|297:178|297:178|376:172,1,107.999996704102,2|0,2:2|1:1,0:0:0:0:
456,165,24517,1,8,2:2:0:0:
456,165,24843,6,0,P|410:140|390:91,1,107.999996704102,0|8,1:1|2:2,0:0:0:0:
478,26,25332,2,0,L|471:101,1,53.9999983520508,2|0,2:2|0:0,0:0:0:0:
302,96,25658,1,2,1:2:0:0:
462,172,25821,1,10,2:2:0:0:
368,7,25984,1,2,1:2:0:0:
247,163,26147,6,0,P|302:182|364:156,1,107.999996704102,0|8,1:1|2:2,0:0:0:0:
188,95,26636,2,0,B|161:115|161:115|154:194,1,107.999996704102,2|0,2:2|1:1,0:0:0:0:
71,251,27125,2,0,L|65:187,1,53.9999983520508,8|2,2:2|2:2,0:0:0:0:
29,352,27451,5,0,1:1:0:0:
158,281,27614,2,0,L|154:335,1,53.9999983520508,2|8,2:2|2:2,0:0:0:0:
248,239,27941,6,0,P|298:222|348:240,1,107.999996704102,2|0,2:2|1:1,0:0:0:0:
417,374,28430,1,8,2:2:0:0:
296,308,28593,1,0,1:1:0:0:
439,184,28756,6,0,L|427:311,1,107.999996704102,2|8,1:2|2:2,0:0:0:0:
496,117,29245,2,0,B|446:95|446:95|394:108,1,107.999996704102,2|0,2:2|1:1,0:0:0:0:
344,180,29734,2,0,L|280:174,1,53.9999983520508,10|2,2:2|2:2,0:0:0:0:
163,94,30060,5,0,1:1:0:0:
305,37,30223,2,0,L|300:90,1,53.9999983520508,2|8,2:2|2:2,0:0:0:0:
205,168,30549,2,0,P|152:177|103:156,1,107.999996704102,2|2,2:2|1:2,0:0:0:0:
167,40,31038,2,0,L|162:93,1,53.9999983520508,10|2,2:2|1:2,0:0:0:0:
149,258,31364,5,2,1:2:0:0:
28,186,31528,2,0,P|22:159|26:133,1,53.9999983520508,2|8,2:2|2:2,0:0:0:0:
95,310,31854,2,0,P|148:304|201:312,1,107.999996704102,2|0,2:2|1:1,0:0:0:0:
286,357,32343,1,8,2:2:0:0:
286,357,32669,5,0,1:1:0:0:
274,268,32832,2,0,L|276:236,2,26.9999991760254,2|2|8,2:2|0:0|2:2,0:0:0:0:
286,357,33158,2,0,P|343:328|361:280,1,107.999996704102,2|0,2:2|1:1,0:0:0:0:
365,202,33647,1,10,2:2:0:0:
365,202,33810,1,2,1:2:0:0:
467,299,33973,6,0,L|339:287,1,107.999996704102,2|8,1:2|2:2,0:0:0:0:
395,122,34462,2,0,P|427:142|448:216,1,107.999996704102,2|0,2:2|1:1,0:0:0:0:
365,202,34951,1,8,2:2:0:0:
365,202,35278,6,0,L|237:190,1,107.999996704102,0|10,1:1|2:2,0:0:0:0:
330,286,35767,2,0,L|266:280,1,53.9999983520508,2|0,2:2|0:0,0:0:0:0:
152,270,36093,1,2,1:2:0:0:
269,378,36256,1,10,2:2:0:0:
257,192,36419,1,2,1:2:0:0:
79,316,36582,6,0,P|66:265|86:216,1,107.999996704102,0|8,1:1|2:2,0:0:0:0:
166,154,37071,2,0,P|185:104|172:53,1,107.999996704102,2|2,2:2|1:2,0:0:0:0:
41,95,37560,2,0,L|104:100,1,53.9999983520508,10|2,2:2|2:2,0:0:0:0:
276,69,37886,5,0,1:1:0:0:
166,154,38049,2,0,L|229:148,1,53.9999983520508,0|8,0:0|2:2,0:0:0:0:
331,22,38375,2,0,L|319:149,1,107.999996704102,2|0,2:2|1:1,0:0:0:0:
312,230,38864,1,8,2:2:0:0:
312,230,39028,1,0,1:1:0:0:
410,176,39191,6,0,P|462:162|512:179,1,107.999996704102,2|8,1:2|2:2,0:0:0:0:
508,283,39680,2,0,P|456:297|406:280,1,107.999996704102,2|0,2:2|1:1,0:0:0:0:
392,365,40169,5,10,2:2:0:0:
334,240,40332,2,0,L|280:235,1,53.9999983520508,2|0,2:2|1:1,0:0:0:0:
262,368,40658,2,0,L|292:323,1,53.9999983520508,2|8,2:2|2:2,0:0:0:0:
187,241,40984,2,0,L|209:289,1,53.9999983520508,2|0,2:2|0:0,0:0:0:0:
277,149,41310,5,2,1:2:0:0:
187,241,41473,2,0,L|133:245,1,53.9999983520508,10|2,2:2|1:2,0:0:0:0:
1,346,41799,5,2,1:2:0:0:
47,267,41962,2,0,L|43:213,1,53.9999983520508,2|8,2:2|2:2,0:0:0:0:
163,159,42288,2,1,L|171:51,1,107.999996704102,2|0,2:2|1:1,0:0:0:0:
65,130,42778,5,8,2:2:0:0:
181,48,42941,2,0,L|211:50,1,26.9999991760254,0|0,3:3|3:3,0:0:0:0:
364,124,43104,5,0,1:1:0:0:
298,40,43267,2,0,L|295:71,1,26.9999991760254,0|0,1:1|1:0,0:0:0:0:
371,125,43430,5,8,2:2:0:0:
305,41,43593,2,0,L|302:72,1,26.9999991760254,0|0,3:3|3:3,0:0:0:0:
245,144,43756,1,0,3:3:0:0:
246,157,43837,1,0,3:3:0:0:
247,170,43919,1,8,2:2:0:0:
334,221,44082,1,0,3:3:0:0:
333,234,44163,1,0,3:3:0:0:
332,247,44245,2,0,L|329:278,1,26.9999991760254,2|0,3:2|3:3,0:0:0:0:
230,265,44408,5,4,1:2:0:0:
359,373,44571,1,2,3:2:0:0:
390,375,44653,1,2,3:2:0:0:
422,378,44734,1,10,2:2:0:0:
335,208,44897,1,2,3:2:0:0:
334,221,44978,1,2,3:2:0:0:
332,237,45060,6,0,L|329:273,1,36,2|2,3:2|3:2,0:0:0:0:
210,384,45223,2,0,L|204:320,1,36,2|2,1:2|1:2,0:0:0:0:
190,182,45386,1,10,2:2:0:0:
187,153,45468,1,0,1:2:0:0:
184,124,45549,1,2,1:2:0:0:
122,279,45712,5,0,1:1:0:0:
150,274,45794,1,2,1:2:0:0:
178,269,45875,1,2,3:2:0:0:
206,264,45957,1,0,3:3:0:0:
234,259,46038,1,10,2:2:0:0:
441,184,46201,5,2,3:2:0:0:
413,179,46283,1,2,3:2:0:0:
385,174,46364,1,2,3:2:0:0:
357,169,46446,1,2,3:2:0:0:
329,164,46528,2,0,L|264:153,1,36,2|2,1:2|1:2,0:0:0:0:
182,89,46691,5,10,2:2:0:0:
183,103,46772,1,2,2:2:0:0:
184,117,46854,2,0,L|189:180,1,36,2|0,1:2|1:1,0:0:0:0:
79,319,47017,6,0,P|67:286|79:235,1,72,2|0,1:2|1:2,0:0:0:0:
78,242,47261,1,0,1:0:0:0:
85,234,47343,1,8,2:2:0:0:
83,145,47506,6,0,L|77:73,1,72,2|0,2:2|1:0,0:0:0:0:
68,67,47750,1,0,1:0:0:0:
58,61,47832,1,0,1:1:0:0:
186,152,47995,1,10,2:2:0:0:
271,15,48158,5,2,1:2:0:0:
271,15,48239,1,0,1:1:0:0:
271,15,48321,1,0,1:1:0:0:
77,73,48484,1,2,2:2:0:0:
210,164,48647,1,8,2:2:0:0:
178,28,48810,6,0,L|183:91,1,36,2|0,1:2|1:0,0:0:0:0:
169,238,48973,1,0,1:0:0:0:
194,246,49054,1,0,1:0:0:0:
221,246,49136,1,2,1:2:0:0:
246,238,49217,1,0,1:0:0:0:
268,222,49299,1,10,2:2:0:0:
322,109,49462,1,2,1:2:0:0:
436,234,49625,5,0,1:1:0:0:
426,239,49707,1,2,1:2:0:0:
416,237,49788,1,2,3:2:0:0:
409,229,49870,1,2,3:2:0:0:
409,218,49951,1,10,2:2:0:0:
416,210,50033,1,2,1:2:0:0:
426,208,50114,1,2,3:2:0:0:
436,213,50196,1,2,3:2:0:0:
439,223,50278,5,2,3:2:0:0:
410,239,50360,1,2,3:2:0:0:
379,233,50441,1,2,1:2:0:0:
358,208,50523,1,2,1:2:0:0:
358,176,50604,1,10,2:2:0:0:
379,151,50686,1,2,1:2:0:0:
410,145,50767,1,2,1:2:0:0:
439,162,50849,1,2,1:2:0:0:
450,192,50930,5,2,1:2:0:0:
425,379,51093,1,2,3:2:0:0:
265,294,51256,5,10,2:2:0:0:
247,290,51337,1,2,1:2:0:0:
229,286,51419,1,2,1:2:0:0:
211,282,51500,1,0,3:3:0:0:
181,262,51582,5,2,3:2:0:0:
208,255,51663,1,2,3:2:0:0:
235,249,51745,1,2,1:2:0:0:
262,243,51826,1,2,1:2:0:0:
293,215,51908,5,10,2:2:0:0:
181,384,52071,1,2,1:2:0:0:
160,180,52234,6,0,L|151:84,1,72,2|0,1:2|1:0,0:0:0:0:
162,102,52479,1,0,1:0:0:0:
171,96,52560,1,8,2:2:0:0:
39,100,52723,6,0,L|47:4,1,72,2|0,2:2|1:0,0:0:0:0:
37,22,52968,1,0,1:0:0:0:
28,16,53049,1,0,1:1:0:0:
23,203,53212,5,10,2:2:0:0:
153,108,53375,1,2,1:2:0:0:
162,102,53456,1,0,1:1:0:0:
171,96,53538,5,2,1:2:0:0:
16,208,53701,1,2,2:2:0:0:
28,16,53864,1,8,2:2:0:0:
239,46,54028,5,2,1:2:0:0:
253,68,54109,1,0,1:2:0:0:
258,95,54191,1,2,1:2:0:0:
255,121,54272,1,0,1:2:0:0:
243,145,54354,1,0,1:1:0:0:
99,102,54517,2,0,L|194:93,1,72,8|2,2:2|1:2,0:0:0:0:
344,87,54843,5,4,1:2:0:0:
358,86,54925,1,2,1:2:0:0:
372,85,55006,1,2,1:2:0:0:
386,84,55088,1,2,1:2:0:0:
412,72,55169,5,8,2:2:0:0:
417,85,55251,1,2,1:2:0:0:
422,98,55332,1,2,1:2:0:0:
427,111,55414,1,2,1:2:0:0:
449,143,55495,5,2,1:2:0:0:
427,159,55577,1,0,1:2:0:0:
405,177,55658,1,2,1:2:0:0:
383,195,55740,1,2,1:2:0:0:
346,191,55821,5,10,2:2:0:0:
354,216,55903,1,2,1:2:0:0:
364,243,55984,1,2,1:2:0:0:
375,269,56066,1,2,1:2:0:0:
421,284,56147,5,2,1:2:0:0:
493,384,56310,2,0,L|429:378,1,36,2|2,3:2|3:2,0:0:0:0:
315,330,56473,5,10,2:2:0:0:
303,331,56554,1,2,1:2:0:0:
291,332,56636,1,2,1:2:0:0:
279,333,56717,1,2,1:2:0:0:
240,353,56799,5,2,1:2:0:0:
226,333,56880,1,2,1:2:0:0:
212,313,56962,1,2,1:2:0:0:
198,293,57043,1,2,1:2:0:0:
155,304,57125,5,10,2:2:0:0:
143,305,57206,1,2,1:2:0:0:
131,306,57288,1,2,1:2:0:0:
119,307,57369,1,2,1:2:0:0:
79,342,57451,5,2,1:2:0:0:
23,228,57614,1,2,1:2:0:0:
24,210,57695,1,0,1:2:0:0:
25,192,57777,1,10,2:2:0:0:
168,65,57941,5,2,1:2:0:0:
167,83,58022,1,0,1:2:0:0:
166,101,58104,2,0,L|161:165,1,36,2|0,1:2|1:2,0:0:0:0:
39,82,58267,2,0,L|44:18,1,36,2|0,1:2|1:2,0:0:0:0:
122,206,58430,2,0,P|166:218|205:205,1,72,10|2,2:2|1:2,0:0:0:0:
302,125,58756,5,2,1:2:0:0:
318,117,58837,1,2,1:2:0:0:
335,113,58919,1,2,1:2:0:0:
353,113,59000,1,2,1:2:0:0:
370,118,59082,1,10,2:2:0:0:
464,227,59245,1,2,1:2:0:0:
469,235,59326,1,2,1:2:0:0:
488,213,59408,5,2,1:2:0:0:
466,210,59489,1,2,1:2:0:0:
445,206,59571,1,2,1:2:0:0:
423,203,59653,1,2,1:2:0:0:
384,227,59734,5,8,2:2:0:0:
362,224,59815,1,2,1:2:0:0:
341,220,59897,1,2,1:2:0:0:
174,266,60060,5,0,1:2:0:0:
169,256,60142,1,2,1:2:0:0:
171,246,60223,1,2,1:2:0:0:
179,239,60305,1,0,1:2:0:0:
190,239,60386,1,10,2:2:0:0:
198,246,60468,1,2,1:2:0:0:
200,256,60549,1,2,1:2:0:0:
195,266,60631,1,0,1:2:0:0:
185,269,60713,5,2,1:2:0:0:
169,240,60795,1,2,1:2:0:0:
175,209,60876,1,2,1:2:0:0:
200,188,60958,1,2,1:2:0:0:
232,188,61039,1,10,2:2:0:0:
257,209,61121,1,2,1:2:0:0:
263,240,61202,1,2,1:2:0:0:
246,269,61284,1,0,1:2:0:0:
216,280,61364,5,2,1:2:0:0:
206,275,61446,1,2,1:2:0:0:
196,277,61527,1,2,1:2:0:0:
189,285,61609,1,0,1:2:0:0:
189,296,61690,1,10,2:2:0:0:
196,304,61772,1,2,1:2:0:0:
206,306,61853,1,2,1:2:0:0:
216,301,61935,1,0,1:2:0:0:
219,291,62017,5,2,1:2:0:0:
190,275,62099,1,2,1:2:0:0:
159,281,62180,1,2,1:2:0:0:
138,306,62262,1,2,1:2:0:0:
138,338,62343,1,10,2:2:0:0:
159,363,62425,1,2,1:2:0:0:
190,369,62506,1,2,1:2:0:0:
219,352,62588,1,0,1:2:0:0:
230,322,62669,5,2,1:2:0:0:
103,217,62832,1,2,1:2:0:0:
63,221,62913,1,2,1:2:0:0:
23,225,62995,1,8,2:2:0:0:
184,104,63158,2,0,L|192:199,1,72,2|2,2:2|1:2,0:0:0:0:
197,173,63403,1,0,1:2:0:0:
203,170,63484,5,2,1:2:0:0:
99,50,63647,1,10,2:2:0:0:
280,90,63810,2,0,L|335:84,1,36,2|0,1:2|1:1,0:0:0:0:
65,138,63973,5,2,1:2:0:0:
297,183,64136,1,2,1:2:0:0:
337,179,64217,1,2,1:2:0:0:
377,175,64299,1,8,2:2:0:0:
239,332,64462,2,0,L|247:236,1,72,2|2,2:2|1:2,0:0:0:0:
252,263,64707,1,0,1:2:0:0:
258,266,64788,5,2,1:2:0:0:
352,299,64951,1,10,2:2:0:0:
446,332,65114,1,2,1:2:0:0:
439,339,65278,6,0,L|448:231,1,107.999996704102,4|8,1:2|2:2,0:0:0:0:
512,163,65767,2,0,L|505:86,1,53.9999983520508,2|0,2:2|0:0,0:0:0:0:
301,86,66093,1,2,1:2:0:0:
421,150,66256,1,10,2:2:0:0:
424,13,66419,1,2,2:2:0:0:
324,169,66582,6,0,P|297:173|271:167,1,53.9999983520508,2|2,1:2|2:2,0:0:0:0:
195,104,66908,1,10,2:2:0:0:
195,104,67071,1,2,2:2:0:0:
228,240,67234,2,0,P|206:224|191:201,1,53.9999983520508,2|2,2:2|1:2,0:0:0:0:
179,14,67560,1,10,2:2:0:0:
271,167,67723,1,2,1:2:0:0:
199,108,67886,6,0,L|71:119,1,107.999996704102,0|10,1:1|2:2,0:0:0:0:
35,207,68375,1,2,2:2:0:0:
35,207,68538,2,0,L|98:212,1,53.9999983520508,2|2,2:2|1:2,0:0:0:0:
215,311,68864,1,10,2:2:0:0:
191,201,69028,1,2,1:2:0:0:
126,332,69191,6,0,P|123:314|127:296,1,35.9999989013672,8|0,2:2|0:0,0:0:0:0:
241,286,69408,6,0,P|226:296|214:311,1,35.9999989013672,8|0,2:2|0:0,0:0:0:0:
289,360,69625,6,0,P|306:358|324:361,1,35.9999989013672,8|0,2:2|0:0,0:0:0:0:
334,234,69843,6,0,L|328:297,1,35.9999989013672,8|0,2:2|0:0,0:0:0:0:
194,165,70060,6,0,L|188:228,1,35.9999989013672,8|0,2:2|0:0,0:0:0:0:
453,88,70278,6,0,L|447:151,1,35.9999989013672,8|0,2:2|0:0,0:0:0:0:
413,368,70495,5,4,0:1:0:0:
403,254,71799,6,0,L|411:158,1,90,4|0,1:2|0:0,0:0:0:0:
288,214,72125,1,10,2:2:0:0:
494,301,72288,1,0,0:0:0:0:
462,97,72451,2,0,P|417:80|371:93,1,90,2|2,2:2|1:2,0:0:0:0:
288,214,72778,1,8,2:2:0:0:
198,87,72941,6,0,B|168:46|168:46|156:175,1,180,2|2,2:2|2:2,0:0:0:0:
67,278,73430,1,10,2:2:0:0:
75,146,73593,2,0,L|83:50,1,90,2|0,2:2|0:0,0:0:0:0:
214,258,73919,1,2,1:2:0:0:
100,353,74082,2,0,P|56:360|15:343,1,90,10|2,2:2|1:2,0:0:0:0:
165,174,74408,5,2,1:2:0:0:
67,278,74571,1,2,2:2:0:0:
313,169,74734,2,0,B|378:174|378:174|409:210|409:210|476:216,1,180,10|2,2:2|2:2,0:0:0:0:
325,274,75223,1,2,1:2:0:0:
468,117,75386,1,10,2:2:0:0:
274,84,75549,6,0,P|223:154|250:237,1,180,2|2,2:2|2:2,0:0:0:0:
436,322,76038,1,10,2:2:0:0:
402,176,76201,2,0,L|312:168,1,90,2|0,2:2|0:0,0:0:0:0:
196,328,76528,1,2,1:2:0:0:
344,265,76691,1,10,2:2:0:0:
147,209,76854,1,2,1:2:0:0:
147,209,76935,1,0,1:1:0:0:
147,209,77017,6,0,B|118:175|118:175|104:16,1,180,4|8,1:2|2:2,0:0:0:0:
350,115,77506,1,2,1:2:0:0:
357,135,77587,1,2,1:2:0:0:
365,155,77669,2,0,B|345:171|345:171|218:160|218:160|201:140,1,180,6|8,1:2|2:2,0:0:0:0:
94,28,78158,1,2,1:2:0:0:
100,34,78239,1,2,1:2:0:0:
106,40,78321,6,0,L|97:135,1,90,0|2,1:1|2:2,0:0:0:0:
193,229,78647,2,0,L|200:139,1,90,10|2,2:2|2:2,0:0:0:0:
94,272,78973,1,2,2:2:0:0:
295,218,79136,1,2,1:2:0:0:
98,129,79299,1,10,2:2:0:0:
252,291,79462,6,0,P|294:303|337:291,1,90,2|0,1:2|1:1,0:0:0:0:
199,139,79788,1,2,2:2:0:0:
208,357,79951,2,0,P|293:381|379:358,1,180,8|2,2:2|2:2,0:0:0:0:
467,218,80441,1,2,1:2:0:0:
337,291,80604,2,0,P|294:303|252:291,1,90,10|2,2:2|2:2,0:0:0:0:
199,139,80930,5,0,1:1:0:0:
379,358,81093,1,2,1:2:0:0:
472,120,81256,1,8,2:2:0:0:
344,201,81419,5,2,3:2:0:0:
344,201,81500,1,0,3:3:0:0:
344,201,81582,2,0,L|338:137,1,45,2|0,3:2|3:3,0:0:0:0:
330,28,81745,1,10,2:2:0:0:
136,79,81908,5,2,3:2:0:0:
118,107,81989,1,0,3:3:0:0:
112,140,82071,1,2,3:2:0:0:
119,173,82152,1,0,3:3:0:0:
137,200,82234,6,0,L|232:191,1,90,4|0,1:2|0:0,0:0:0:0:
97,288,82560,2,0,L|288:271,1,180,10|2,2:2|2:2,0:0:0:0:
42,206,83049,1,2,1:2:0:0:
191,376,83212,1,8,2:2:0:0:
317,190,83375,6,0,P|366:260|336:342,1,180,2|2,2:2|2:2,0:0:0:0:
222,177,83864,1,10,2:2:0:0:
186,280,84028,2,0,L|276:272,1,90,2|0,2:2|0:0,0:0:0:0:
417,151,84354,1,2,1:2:0:0:
214,87,84517,2,0,L|222:177,1,90,10|2,2:2|1:2,0:0:0:0:
310,28,84843,5,2,1:2:0:0:
111,135,85006,1,2,2:2:0:0:
326,208,85169,2,0,L|310:28,1,180,10|2,2:2|2:2,0:0:0:0:
111,135,85658,1,2,1:2:0:0:
312,204,85821,1,10,2:2:0:0:
145,56,85984,6,0,P|102:49|60:65,1,90,2|0,2:2|1:1,0:0:0:0:
163,235,86310,1,2,2:2:0:0:
224,17,86473,1,10,2:2:0:0:
53,71,86636,2,0,B|22:103|22:103|182:89,1,180,2|2,2:2|1:2,0:0:0:0:
312,204,87125,1,10,2:2:0:0:
118,323,87288,1,2,1:2:0:0:
99,335,87370,1,0,1:1:0:0:
80,348,87451,6,0,B|67:209|67:209|96:174,1,180,4|8,1:2|2:2,0:0:0:0:
312,204,87941,1,2,1:2:0:0:
324,216,88022,1,2,1:2:0:0:
336,228,88104,2,0,L|144:244,1,180,6|8,1:2|2:2,0:0:0:0:
259,320,88593,1,2,2:2:0:0:
335,124,88756,5,2,1:2:0:0:
459,294,88919,1,2,2:2:0:0:
242,197,89082,1,10,2:2:0:0:
481,156,89245,1,2,2:2:0:0:
361,339,89408,1,2,2:2:0:0:
213,99,89571,1,2,1:2:0:0:
354,328,89734,1,10,2:2:0:0:
485,168,89897,6,0,L|357:179,1,90,2|0,1:2|1:1,0:0:0:0:
186,275,90223,1,2,2:2:0:0:
126,48,90386,2,0,B|208:12|208:12|295:33,1,180,8|2,2:2|2:2,0:0:0:0:
407,190,90875,1,2,1:2:0:0:
222,189,91038,2,0,L|213:93,1,90,10|2,2:2|2:2,0:0:0:0:
296,310,91364,5,0,1:1:0:0:
99,189,91528,1,2,1:2:0:0:
308,314,91691,2,0,L|317:218,1,90,8|2,2:2|3:2,0:0:0:0:
324,227,91935,1,0,3:3:0:0:
332,229,92017,2,0,L|338:154,1,45,2|0,3:2|3:3,0:0:0:0:
345,71,92180,1,10,2:2:0:0:
213,99,92343,6,0,L|216:143,1,45,2|0,3:2|3:3,0:0:0:0:
333,66,92506,2,0,L|336:21,1,45,2|0,3:2|3:3,0:0:0:0:
223,249,92669,5,6,1:2:0:0:
62,122,92832,1,2,1:2:0:0:
33,148,92913,1,2,1:2:0:0:
20,185,92995,1,10,2:2:0:0:
27,223,93076,1,2,1:2:0:0:
52,253,93158,1,2,1:2:0:0:
190,284,93321,5,2,1:2:0:0:
186,265,93403,1,2,1:2:0:0:
192,248,93485,1,2,1:2:0:0:
208,240,93566,1,0,1:2:0:0:
246,248,93647,5,10,2:2:0:0:
244,198,93729,1,2,1:2:0:0:
205,168,93810,1,2,1:2:0:0:
155,165,93892,1,2,1:2:0:0:
114,191,93973,5,2,1:2:0:0:
160,358,94136,1,2,2:2:0:0:
329,260,94299,5,10,2:2:0:0:
364,254,94381,1,2,1:2:0:0:
399,248,94462,1,2,1:2:0:0:
434,243,94544,1,2,1:2:0:0:
463,263,94625,5,2,1:2:0:0:
458,280,94707,1,2,1:2:0:0:
453,297,94788,1,2,1:2:0:0:
346,153,94951,5,10,2:2:0:0:
336,119,95033,1,2,1:2:0:0:
326,85,95114,1,2,1:2:0:0:
461,151,95278,5,2,1:2:0:0:
380,25,95441,1,2,1:2:0:0:
347,3,95522,1,2,1:2:0:0:
308,2,95604,1,10,2:2:0:0:
273,17,95685,1,2,1:2:0:0:
250,49,95767,1,2,1:2:0:0:
161,164,95930,5,2,1:2:0:0:
147,161,96011,1,2,1:2:0:0:
133,158,96093,1,2,1:2:0:0:
119,155,96174,1,2,1:2:0:0:
69,159,96256,5,10,2:2:0:0:
106,144,96337,1,2,1:2:0:0:
144,129,96419,1,2,1:2:0:0:
76,32,96582,5,2,1:2:0:0:
259,139,96745,5,2,1:2:0:0:
269,145,96826,2,0,L|263:208,1,45,2|10,1:2|2:2,0:0:0:0:
158,315,96989,5,2,1:2:0:0:
168,309,97070,2,0,L|162:245,1,45,2|0,1:2|1:2,0:0:0:0:
291,288,97234,5,2,1:2:0:0:
326,293,97316,1,2,1:2:0:0:
356,297,97397,1,2,1:2:0:0:
382,301,97479,1,2,1:2:0:0:
404,304,97560,1,8,2:2:0:0:
503,384,97723,2,0,L|508:320,1,45,0|0,1:1|1:1,0:0:0:0:
474,149,97886,6,0,B|519:171|519:171|383:183,1,180,4|10,1:2|2:2,0:0:0:0:
505,258,98375,2,0,L|409:266,1,90,2|0,2:2|0:0,0:0:0:0:
313,143,98701,1,2,1:2:0:0:
313,143,98783,1,0,1:2:0:0:
313,143,98864,2,0,P|301:195|318:231,1,90,10|2,2:2|2:2,0:0:0:0:
385,88,99191,6,0,P|313:51|225:102,1,180,2|10,1:2|2:2,0:0:0:0:
168,169,99680,2,0,B|133:198|133:198|-26:184,1,180,2|2,2:2|1:2,0:0:0:0:
86,14,100169,2,0,L|77:109,1,90,10|0,2:2|1:1,0:0:0:0:
91,324,100495,5,2,1:2:0:0:
0,186,100658,1,2,2:2:0:0:
97,335,100821,2,0,L|192:326,1,90,10|0,2:2|0:0,0:0:0:0:
272,250,101147,5,2,2:2:0:0:
130,200,101310,1,2,1:2:0:0:
301,363,101473,1,10,2:2:0:0:
344,143,101636,1,2,1:2:0:0:
344,143,101962,5,2,2:2:0:0:
347,151,102044,1,2,2:2:0:0:
350,159,102125,1,10,2:2:0:0:
432,213,102288,5,2,2:2:0:0:
429,221,102370,1,2,2:2:0:0:
426,229,102451,1,2,2:2:0:0:
423,237,102533,1,2,2:2:0:0:
420,245,102614,1,2,1:2:0:0:
417,253,102697,1,2,2:2:0:0:
414,261,102778,2,0,L|378:257,7,22.5,10|0|2|0|2|2|2|2,2:2|0:0|2:2|0:0|2:2|0:0|2:2|0:0,0:0:0:0:
311,248,103104,5,4,2:2:0:0:
