osu file format v14

[General]
AudioFilename: audio.mp3
AudioLeadIn: 0
PreviewTime: 71229
Countdown: 0
SampleSet: Soft
StackLeniency: 0.5
Mode: 0
LetterboxInBreaks: 0
WidescreenStoryboard: 1

[Editor]
Bookmarks: 12179,22613,33048,50005,50331,50657,50738,50983,54570,55222,56526,57831,58958,59135,59787,60439,61092,61567,61744,64353,71689,93849,94012,95317,96947
DistanceSpacing: 1
BeatDivisor: 2
GridSize: 8
TimelineZoom: 2.600001

[Metadata]
Title:Chilly
TitleUnicode:散り散り
Artist:Yomitan Akane
ArtistUnicode:読谷あかね
Creator:Tuffiii
Version:Take's Normal
Source:
Tags:Ryuusei Aika ryuusei_aika leominexd leomine take tritobandito nyan_kot_nyan chirijiri pop kasane teto vocaloid utau female japanese vocal cold dnb drum and bass electronic 重音テト chiri chir
BeatmapID:4338067
BeatmapSetID:2066909

[Difficulty]
HPDrainRate:3.5
CircleSize:3.2
OverallDifficulty:4
ApproachRate:5.5
SliderMultiplier:1.04
SliderTickRate:1

[Events]
//Background and Video events
0,0,"107718626_p02000.jpg",0,0
//Break Periods
2,65478,68066
//Storyboard Layer 0 (Background)
//Storyboard Layer 1 (Fail)
//Storyboard Layer 2 (Pass)
//Storyboard Layer 3 (Foreground)
//Storyboard Layer 4 (Overlay)
//Storyboard Sound Samples

[TimingPoints]
1365,326.086956521739,4,2,1,75,1,0
1365,-100,4,2,1,75,0,0
1691,-100,4,2,1,75,0,0
2669,-100,4,2,1,80,0,0
5278,-100,4,2,1,80,0,0
5930,-100,4,2,1,80,0,0
6582,-100,4,2,1,80,0,0
7234,-100,4,2,1,80,0,0
7723,-100,4,2,1,80,0,0
15712,-100,4,2,1,80,0,0
16364,-100,4,2,1,80,0,0
17016,-100,4,2,1,80,0,0
17668,-100,4,2,1,80,0,0
18321,-100,4,2,1,80,0,0
23212,-100,4,2,1,80,0,0
23538,-100,4,2,1,60,0,0
43104,-100,4,2,1,65,0,0
44408,-100,4,2,1,75,0,1
45386,-100,4,2,1,75,0,1
45712,-100,4,2,1,75,0,1
46691,-100,4,2,1,75,0,0
47017,-100,4,2,1,75,0,0
49462,-100,4,2,1,75,0,0
49625,-100,4,2,1,75,0,1
50278,-100,4,2,1,75,0,1
51256,-100,4,2,1,75,0,1
52234,-100,4,2,1,75,0,0
54843,-100,4,2,1,75,0,1
57451,-100,4,2,1,75,0,0
57614,-100,4,2,1,75,0,0
60060,-100,4,2,1,75,0,1
60712,-100,4,2,1,75,0,1
61364,-100,4,2,1,75,0,1
62017,-100,4,2,1,75,0,1
62669,-100,4,2,1,75,0,0
65278,-100,4,2,1,55,0,0
69191,-100,4,2,1,70,0,0
69843,-100,4,2,1,70,0,0
70495,-100,4,2,1,50,0,0
71310,-100,4,2,1,50,0,0
71392,-100,4,2,1,50,0,0
71473,-100,4,2,1,50,0,0
71555,-100,4,2,1,50,0,0
71636,-100,4,2,1,50,0,0
71718,-100,4,2,1,50,0,0
71799,-90.9090909090909,4,2,1,85,0,1
72125,-90.9090909090909,4,2,1,85,0,1
74979,-90.9090909090909,4,2,1,85,0,1
75060,-90.9090909090909,4,2,1,85,0,1
79462,-90.9090909090909,4,2,1,85,0,1
80033,-90.9090909090909,4,2,1,85,0,1
80114,-90.9090909090909,4,2,1,85,0,1
81419,-90.9090909090909,4,2,1,85,0,1
82560,-90.9090909090909,4,2,1,85,0,1
82805,-90.9090909090909,4,2,1,85,0,1
82886,-90.9090909090909,4,2,1,85,0,1
85169,-90.9090909090909,4,2,1,85,0,1
85413,-90.9090909090909,4,2,1,85,0,1
85495,-90.9090909090909,4,2,1,85,0,1
87696,-90.9090909090909,4,2,1,85,0,1
87778,-90.9090909090909,4,2,1,85,0,1
88348,-90.9090909090909,4,2,1,85,0,1
88430,-90.9090909090909,4,2,1,85,0,1
89897,-90.9090909090909,4,2,1,85,0,1
91528,-90.9090909090909,4,2,1,85,0,1
91772,-90.9090909090909,4,2,1,85,0,1
91854,-90.9090909090909,4,2,1,85,0,1
92669,-90.9090909090909,4,2,1,85,0,1
93647,-90.9090909090909,4,2,1,85,0,1
94788,-90.9090909090909,4,2,1,85,0,1
94951,-90.9090909090909,4,2,1,85,0,1
97234,-90.9090909090909,4,2,1,85,0,1
97886,-90.9090909090909,4,2,1,85,0,1
98131,-90.9090909090909,4,2,1,85,0,1
98212,-90.9090909090909,4,2,1,85,0,1
99435,-90.9090909090909,4,2,1,85,0,1
99517,-90.9090909090909,4,2,1,85,0,1
101799,-90.9090909090909,4,2,1,85,0,1
102941,-90.9090909090909,4,2,1,85,0,1
103104,-90.9090909090909,4,2,1,60,0,0

[Colours]
Combo1 : 194,107,114
Combo2 : 101,75,79
Combo3 : 158,82,91
Combo4 : 116,96,144

[HitObjects]
106,124,23212,6,0,P|135:123|167:136,1,52,10|2,2:2|1:2,0:0:0:0:
203,152,23538,2,0,P|231:227|246:312,2,156,4|2|8,1:2|2:2|2:2,0:0:0:0:
285,81,24843,2,0,P|335:68|396:91,1,104,0|8,1:1|2:2,0:0:0:0:
430,106,25332,2,0,P|445:161|425:208,1,104,2|2,2:2|1:2,0:0:0:0:
395,243,25821,2,0,P|405:279|409:310,1,52,10|2,2:2|1:2,0:0:0:0:
413,344,26147,5,0,1:1:0:0:
310,360,26473,1,8,2:2:0:0:
310,360,26636,2,0,P|250:364|204:328,1,104,2|0,2:2|1:1,0:0:0:0:
178,303,27125,1,8,2:2:0:0:
89,260,27451,1,0,1:1:0:0:
89,260,27614,2,0,P|34:271|-7:315,2,104,2|2|0,2:2|2:2|1:1,0:0:0:0:
129,226,28430,1,8,2:2:0:0:
221,179,28756,6,0,P|216:123|200:72,1,104,2|8,1:2|2:2,0:0:0:0:
170,34,29245,2,0,P|123:15|71:35,1,104,2|0,2:2|1:1,0:0:0:0:
38,65,29734,1,10,2:2:0:0:
38,65,29897,1,2,2:2:0:0:
50,169,30223,2,0,P|31:224|24:281,2,104,2|2|2,2:2|2:2|1:2,0:0:0:0:
95,144,31038,1,10,2:2:0:0:
195,187,31364,5,2,1:2:0:0:
195,187,31528,1,2,2:2:0:0:
287,139,31854,2,0,P|335:163|385:172,1,104,2|0,2:2|1:1,0:0:0:0:
435,177,32343,2,0,P|475:211|494:270,1,104,8|0,2:2|1:1,0:0:0:0:
499,309,32832,1,2,2:2:0:0:
409,361,33158,2,0,P|352:369|306:335,1,104,2|0,2:2|1:1,0:0:0:0:
284,303,33647,2,0,L|295:248,1,52,10|2,2:2|1:2,0:0:0:0:
305,201,33973,5,2,1:2:0:0:
372,122,34299,1,8,2:2:0:0:
372,122,34462,2,0,P|352:72|309:37,1,104,2|0,2:2|1:1,0:0:0:0:
265,23,34951,1,8,2:2:0:0:
172,70,35278,1,0,1:1:0:0:
77,40,35604,1,10,2:2:0:0:
77,40,35767,2,0,P|43:86|37:148,1,104,2|2,2:2|1:2,0:0:0:0:
30,182,36256,2,0,P|63:186|97:195,1,52,10|2,2:2|1:2,0:0:0:0:
131,204,36582,5,0,1:1:0:0:
232,225,36908,1,8,2:2:0:0:
232,225,37071,2,0,P|288:236|341:206,1,104,2|2,2:2|1:2,0:0:0:0:
368,183,37560,2,0,P|397:189|421:198,1,52,10|2,2:2|2:2,0:0:0:0:
466,214,37886,1,0,1:1:0:0:
509,119,38212,1,8,2:2:0:0:
509,119,38375,2,0,P|483:51|438:29,1,104,2|0,2:2|1:1,0:0:0:0:
408,23,38864,1,8,2:2:0:0:
317,74,39191,6,0,B|323:106|350:152|350:152|329:190|325:240,2,156,2|2|10,1:2|2:2|2:2,0:0:0:0:
274,38,40332,1,2,2:2:0:0:
192,102,40658,1,2,2:2:0:0:
251,187,40984,2,0,P|237:249|220:296,1,104,2|2,2:2|1:2,0:0:0:0:
207,336,41473,2,0,P|173:336|136:348,1,52,10|2,2:2|1:2,0:0:0:0:
109,358,41799,5,2,1:2:0:0:
109,358,41962,1,2,2:2:0:0:
7,333,42288,2,1,P|35:286|44:224,1,104,2|0,2:2|1:1,0:0:0:0:
52,186,42778,2,0,P|37:160|26:130,1,52,8|0,2:2|3:3,0:0:0:0:
7,92,43104,5,0,1:1:0:0:
100,46,43430,1,8,2:2:0:0:
196,84,43756,1,0,3:3:0:0:
221,184,44082,2,0,L|272:198,1,52,0|2,3:3|3:2,0:0:0:0:
321,208,44408,6,0,P|373:199|426:239,1,104,4|10,1:2|2:2,0:0:0:0:
458,262,44897,1,2,3:2:0:0:
458,262,45060,2,0,L|443:324,1,52,2|2,3:2|1:2,0:0:0:0:
436,363,45386,1,10,2:2:0:0:
335,335,45712,2,0,P|281:337|228:352,1,104,0|10,1:1|2:2,0:0:0:0:
185,345,46201,1,2,3:2:0:0:
185,345,46364,2,0,P|178:320|170:294,1,52,2|2,3:2|1:2,0:0:0:0:
152,245,46691,1,10,2:2:0:0:
117,146,47017,6,0,B|207:127|184:180|277:151,2,156,2|2|10,1:2|2:2|2:2,0:0:0:0:
65,154,48158,1,2,1:2:0:0:
8,66,48484,1,2,2:2:0:0:
100,17,48810,2,0,P|152:33|217:34,1,104,2|2,2:2|1:2,0:0:0:0:
253,36,49299,2,0,P|264:61|269:88,1,52,10|2,2:2|1:2,0:0:0:0:
274,136,49625,6,0,P|323:149|374:133,1,104,0|10,1:1|2:2,0:0:0:0:
474,114,50278,1,2,3:2:0:0:
502,215,50604,2,0,L|485:277,1,52,10|2,2:2|1:2,0:0:0:0:
480,316,50930,2,0,P|445:310|388:346,1,104,2|10,1:2|2:2,0:0:0:0:
288,372,51582,2,0,L|227:362,1,52,2|2,3:2|1:2,0:0:0:0:
185,352,51908,1,10,2:2:0:0:
153,253,52234,6,0,B|183:220|223:215|223:215|256:245|313:238,2,156,2|2|10,1:2|2:2|2:2,0:0:0:0:
90,337,53538,1,2,1:2:0:0:
90,337,53701,1,2,2:2:0:0:
4,287,54028,1,2,2:2:0:0:
4,287,54191,2,0,P|20:236|25:181,1,104,2|8,2:2|2:2,0:0:0:0:
36,138,54680,1,2,1:2:0:0:
36,138,54843,6,0,P|86:141|125:109,1,104,4|8,1:2|2:2,0:0:0:0:
210,47,55495,2,0,L|226:103,1,52,2|2,3:2|1:2,0:0:0:0:
257,137,55821,2,0,L|241:193,1,52,10|2,2:2|1:2,0:0:0:0:
213,229,56147,1,2,1:2:0:0:
259,322,56473,1,10,2:2:0:0:
359,348,56799,2,0,P|378:331|389:307,1,52,2|2,3:2|1:2,0:0:0:0:
434,280,57125,2,0,P|442:255|440:229,1,52,10|2,2:2|1:2,0:0:0:0:
434,179,57451,6,0,P|474:153|498:81,2,104,2|10|2,1:2|2:2|2:2,0:0:0:0:
342,128,58430,1,10,2:2:0:0:
306,30,58756,2,0,P|264:22|203:45,1,104,2|10,1:2|2:2,0:0:0:0:
117,93,59408,2,0,L|61:85,1,52,2|2,2:2|1:2,0:0:0:0:
13,80,59734,1,8,2:2:0:0:
34,181,60060,6,0,P|93:205|142:202,1,104,0|10,1:1|2:2,0:0:0:0:
183,195,60549,1,2,3:2:0:0:
183,195,60712,2,0,L|197:247,1,52,2|2,3:2|1:2,0:0:0:0:
208,295,61038,1,10,2:2:0:0:
289,359,61364,2,0,P|328:366|389:344,1,104,2|10,1:2|2:2,0:0:0:0:
434,319,61854,1,2,3:2:0:0:
434,319,62017,2,0,L|443:255,1,52,2|2,3:2|1:2,0:0:0:0:
447,215,62343,1,10,2:2:0:0:
379,135,62669,6,0,P|339:125|275:154,1,104,2|8,1:2|2:2,0:0:0:0:
238,175,63158,1,2,2:2:0:0:
138,143,63484,2,0,P|122:169|116:195,2,52,2|10|2,1:2|2:2|1:2,0:0:0:0:
124,92,63973,2,0,P|144:62|214:33,1,104,2|8,1:2|2:2,0:0:0:0:
255,30,64462,1,2,2:2:0:0:
350,70,64788,2,0,P|373:58|405:51,2,52,2|10|2,1:2|2:2|1:2,0:0:0:0:
312,106,65278,5,4,1:2:0:0:
295,108,69191,6,0,B|258:96|258:96|250:98|250:98|215:89,2,69.3333333333333,8|8|8,2:2|2:2|2:2,0:0:0:0:
349,150,69843,2,0,B|360:186|360:186|359:195|359:195|368:230,2,69.3333333333333,8|8|8,2:2|2:2|2:2,0:0:0:0:
395,98,70495,1,4,0:1:0:0:
500,145,71799,5,4,1:2:0:0:
395,98,72125,2,0,P|344:72|289:98,1,114.400003491211,10|2,2:2|2:2,0:0:0:0:
244,121,72614,1,2,1:2:0:0:
300,220,72941,2,0,P|287:275|263:329,1,114.400003491211,2|2,2:2|2:2,0:0:0:0:
227,371,73430,1,10,2:2:0:0:
227,371,73593,1,2,2:2:0:0:
131,320,73919,1,2,1:2:0:0:
131,320,74082,2,0,L|72:308,1,57.2000017456055,10|2,2:2|1:2,0:0:0:0:
17,304,74408,6,0,P|8:277|13:249,1,57.2000017456055,2|2,1:2|2:2,0:0:0:0:
30,194,74734,1,10,2:2:0:0:
55,82,75060,2,0,P|29:80|0:66,2,57.2000017456055,2|2|10,2:2|1:2|2:2,0:0:0:0:
108,103,75549,2,0,P|153:134|209:125,1,114.400003491211,2|2,2:2|2:2,0:0:0:0:
263,102,76038,1,10,2:2:0:0:
263,102,76201,1,2,2:2:0:0:
368,57,76528,2,0,P|364:28|350:3,2,57.2000017456055,2|10|2,1:2|2:2|1:2,0:0:0:0:
394,107,77017,6,0,P|449:108|485:150,1,114.400003491211,4|8,1:2|2:2,0:0:0:0:
505,209,77506,1,2,2:2:0:0:
505,209,77669,2,0,P|481:262|464:318,1,114.400003491211,2|8,2:2|2:2,0:0:0:0:
358,357,78321,2,0,L|303:338,1,57.2000017456055,0|2,1:1|2:2,0:0:0:0:
262,299,78647,2,0,L|280:244,1,57.2000017456055,10|2,2:2|2:2,0:0:0:0:
309,195,78973,2,0,P|335:205|363:211,2,57.2000017456055,2|2|10,2:2|1:2|2:2,0:0:0:0:
292,141,79462,5,2,1:2:0:0:
201,71,79788,2,0,P|147:56|96:86,1,114.400003491211,2|2,2:2|2:2,0:0:0:0:
57,124,80278,2,0,P|31:113|-3:110,2,57.2000017456055,2|2|10,2:2|1:2|2:2,0:0:0:0:
86,172,80767,2,0,B|76:217|76:217|80:237|80:237|69:282,1,114.400003491211,2|2,2:2|1:2,0:0:0:0:
165,355,81419,1,2,3:2:0:0:
165,355,81582,2,0,L|228:336,1,57.2000017456055,2|10,3:2|2:2,0:0:0:0:
268,308,81908,2,0,L|326:325,1,57.2000017456055,2|2,3:2|3:2,0:0:0:0:
374,350,82234,5,4,1:2:0:0:
486,370,82560,2,1,P|511:319|491:268,1,114.400003491211,10|2,2:2|2:2,0:0:0:0:
456,223,83049,1,2,1:2:0:0:
345,191,83375,2,0,P|367:136|381:79,1,114.400003491211,2|2,2:2|2:2,0:0:0:0:
372,30,83864,1,10,2:2:0:0:
372,30,84028,1,2,2:2:0:0:
264,57,84354,1,2,1:2:0:0:
264,57,84517,2,0,L|205:45,1,57.2000017456055,10|2,2:2|1:2,0:0:0:0:
150,41,84843,6,0,P|136:66|133:94,1,57.2000017456055,2|2,1:2|2:2,0:0:0:0:
112,147,85169,1,10,2:2:0:0:
52,244,85495,2,0,P|28:230|-3:228,2,57.2000017456055,2|2|10,2:2|1:2|2:2,0:0:0:0:
89,287,85984,2,0,P|143:296|187:262,1,114.400003491211,2|2,2:2|2:2,0:0:0:0:
234,228,86473,1,10,2:2:0:0:
234,228,86636,1,2,2:2:0:0:
257,116,86962,2,0,P|230:107|200:101,2,57.2000017456055,2|10|2,1:2|2:2|1:2,0:0:0:0:
310,95,87451,6,0,P|364:76|420:65,1,114.400003491211,4|8,1:2|2:2,0:0:0:0:
481,61,87941,1,2,2:2:0:0:
481,61,88104,2,0,P|505:110|487:163,1,114.400003491211,2|8,2:2|2:2,0:0:0:0:
414,251,88756,2,0,P|387:241|359:236,1,57.2000017456055,2|2,1:2|2:2,0:0:0:0:
307,260,89082,2,0,P|274:266|245:277,1,57.2000017456055,10|2,2:2|2:2,0:0:0:0:
205,307,89408,2,0,P|216:333|224:360,2,57.2000017456055,2|2|10,2:2|1:2|2:2,0:0:0:0:
152,284,89897,5,2,1:2:0:0:
51,339,90223,2,0,P|14:296|21:241,1,114.400003491211,2|2,2:2|2:2,0:0:0:0:
52,193,90712,2,0,P|26:179|-1:178,2,57.2000017456055,2|2|10,2:2|1:2|2:2,0:0:0:0:
105,173,91201,1,2,2:2:0:0:
209,126,91528,1,2,1:2:0:0:
317,176,91854,1,2,3:2:0:0:
317,176,92017,2,0,P|331:150|337:115,1,57.2000017456055,2|10,3:2|2:2,0:0:0:0:
347,67,92343,1,2,3:2:0:0:
456,34,92669,6,0,P|476:86|463:141,1,114.400003491211,6|10,1:2|2:2,0:0:0:0:
435,192,93158,1,2,1:2:0:0:
435,192,93321,2,0,L|454:256,1,57.2000017456055,2|2,2:2|1:2,0:0:0:0:
459,303,93647,2,0,P|427:309|399:311,1,57.2000017456055,10|2,2:2|1:2,0:0:0:0:
360,349,93973,1,2,1:2:0:0:
261,290,94299,2,0,P|207:282|154:319,1,114.400003491211,10|2,2:2|2:2,0:0:0:0:
122,356,94788,1,2,1:2:0:0:
122,356,94951,2,0,L|60:344,1,57.2000017456055,10|2,2:2|1:2,0:0:0:0:
9,333,95278,5,2,1:2:0:0:
60,229,95604,2,0,P|74:175|53:123,1,114.400003491211,10|2,2:2|0:0,0:0:0:0:
33,76,96093,1,2,1:2:0:0:
33,76,96256,2,0,P|59:60|88:56,1,57.2000017456055,10|2,2:2|1:2,0:0:0:0:
135,28,96582,6,0,L|190:39,1,57.2000017456055,2|2,1:2|2:2,0:0:0:0:
237,72,96908,1,10,2:2:0:0:
344,32,97234,2,0,P|369:19|397:14,1,57.2000017456055,2|2,0:0|1:2,0:0:0:0:
454,16,97560,1,8,2:2:0:0:
508,116,97886,6,0,P|453:131|400:154,1,114.400003491211,4|10,1:2|2:2,0:0:0:0:
349,178,98375,2,0,P|300:205|246:190,1,114.400003491211,2|2,2:2|1:2,0:0:0:0:
195,165,98864,2,0,L|138:175,1,57.2000017456055,10|2,2:2|2:2,0:0:0:0:
82,186,99191,1,2,1:2:0:0:
47,299,99517,1,10,2:2:0:0:
47,299,99680,2,0,P|87:319|156:301,1,114.400003491211,2|2,2:2|1:2,0:0:0:0:
205,284,100169,1,10,2:2:0:0:
316,310,100495,6,0,P|327:336|331:364,2,57.2000017456055,2|2|10,1:2|2:2|2:2,0:0:0:0:
254,213,101147,2,0,P|228:200|200:193,2,57.2000017456055,2|2|10,2:2|1:2|2:2,0:0:0:0:
306,190,101636,2,0,P|363:170|422:159,1,114.400003491211,2|2,1:2|2:2,0:0:0:0:
471,146,102125,2,0,P|485:121|491:93,1,57.2000017456055,10|2,2:2|2:2,0:0:0:0:
482,37,102451,1,2,2:2:0:0:
369,14,102778,1,10,2:2:0:0:
292,99,103104,5,4,2:2:0:0:
