osu file format v14

[General]
AudioFilename: audio.mp3
AudioLeadIn: 0
PreviewTime: 71229
Countdown: 0
SampleSet: Soft
StackLeniency: 0.5
Mode: 0
LetterboxInBreaks: 0
WidescreenStoryboard: 1

[Editor]
DistanceSpacing: 1.7
BeatDivisor: 4
GridSize: 32
TimelineZoom: 2.8

[Metadata]
Title:Chilly
TitleUnicode:散り散り
Artist:Yomitan Akane
ArtistUnicode:読谷あかね
Creator:Tuffiii
Version:NYAN_KOT_NYAN's Insane
Source:
Tags:Ryuusei Aika ryuusei_aika leominexd leomine take tritobandito nyan_kot_nyan chirijiri pop kasane teto vocaloid utau female japanese vocal cold dnb drum and bass electronic 重音テト chiri chir
BeatmapID:4368560
BeatmapSetID:2066909

[Difficulty]
HPDrainRate:4
CircleSize:3.5
OverallDifficulty:8
ApproachRate:9
SliderMultiplier:1.62
SliderTickRate:1

[Events]
//Background and Video events
0,0,"107718626_p02000.jpg",0,0
//Break Periods
//Storyboard Layer 0 (Background)
//Storyboard Layer 1 (Fail)
//Storyboard Layer 2 (Pass)
//Storyboard Layer 3 (Foreground)
//Storyboard Layer 4 (Overlay)
//Storyboard Sound Samples

[TimingPoints]
1365,326.086956521739,4,2,1,75,1,0
1365,-111.111111111111,4,2,1,75,0,0
2669,-100,4,2,1,80,0,0
23538,-142.857142857143,4,2,1,60,0,0
43104,-142.857142857143,4,2,1,65,0,0
44408,-100,4,2,1,75,0,1
47017,-100,4,2,1,75,0,0
49625,-100,4,2,1,75,0,1
52234,-100,4,2,1,75,0,0
54843,-100,4,2,1,75,0,1
65278,-125,4,2,1,55,0,0
69191,-125,4,2,1,70,0,0
70495,-125,4,2,1,50,0,0
71310,-125,4,2,1,50,0,0
71799,-90.9090909090909,4,2,1,85,0,1
103104,-90.9090909090909,4,2,1,60,0,0

[Colours]
Combo1 : 194,107,114
Combo2 : 101,75,79
Combo3 : 158,82,91
Combo4 : 116,96,144

[HitObjects]
457,90,1365,6,0,P|420:83|367:102,1,72.8999977752686,4|0,0:1|1:1,0:0:0:0:
305,164,1691,1,8,2:2:0:0:
221,93,1854,1,0,3:3:0:0:
221,93,1935,1,0,3:3:0:0:
221,93,2017,2,0,P|224:44|227:-4,1,72.8999977752686,0|8,3:3|1:2,0:0:0:0:
131,13,2343,2,0,P|128:49|126:85,1,72.8999977752686,0|0,3:3|3:3,0:0:0:0:
5,198,2669,6,0,P|58:171|169:208,1,162,4|8,1:2|2:2,0:0:0:0:
275,288,3158,1,0,3:3:0:0:
275,288,3239,1,0,3:3:0:0:
275,288,3321,2,0,P|323:293|369:276,1,81,2|0,3:2|1:1,0:0:0:0:
492,200,3647,1,8,2:2:0:0:
351,119,3810,1,0,1:1:0:0:
351,119,3892,1,0,1:1:0:0:
351,119,3973,2,0,P|335:77|339:18,1,81,2|0,1:2|3:3,0:0:0:0:
396,199,4299,1,8,2:2:0:0:
244,127,4462,5,0,3:3:0:0:
244,127,4544,1,0,3:3:0:0:
244,127,4625,2,0,P|189:121|148:114,1,81,2|0,3:2|1:1,0:0:0:0:
76,223,4951,1,8,2:2:0:0:
11,113,5114,1,0,1:1:0:0:
11,113,5196,1,0,1:1:0:0:
11,113,5277,2,0,P|17:58|24:17,1,81,2|0,1:2|3:3,0:0:0:0:
138,131,5604,1,8,2:2:0:0:
44,276,5767,5,0,3:3:0:0:
44,276,5848,1,0,3:3:0:0:
44,276,5930,2,0,P|86:266|137:280,1,81,2|0,3:2|1:1,0:0:0:0:
247,331,6256,1,8,2:2:0:0:
247,201,6419,1,0,1:1:0:0:
247,201,6500,1,0,1:1:0:0:
247,201,6582,2,0,P|237:159|251:108,1,81,2|0,1:2|3:3,0:0:0:0:
317,5,6908,1,8,2:2:0:0:
397,129,7071,5,0,3:3:0:0:
397,129,7153,1,0,3:3:0:0:
397,129,7234,2,0,P|443:121|497:116,1,81,2|0,3:2|1:1,0:0:0:0:
482,254,7560,2,0,P|441:258|401:265,1,81,8|0,2:2|1:1,0:0:0:0:
265,342,7886,6,0,P|197:373|106:331,1,162,2|8,1:2|2:2,0:0:0:0:
31,227,8375,2,0,P|35:177|52:38,1,162,2|0,3:2|1:1,0:0:0:0:
149,170,8864,1,8,2:2:0:0:
232,49,9028,5,2,1:2:0:0:
232,40,9109,1,2,1:2:0:0:
232,31,9191,2,0,P|308:12|406:34,1,162,2|8,1:2|2:2,0:0:0:0:
490,119,9680,2,0,P|484:163|481:210,1,81,2|0,3:2|3:3,0:0:0:0:
383,296,10006,1,0,1:1:0:0:
349,154,10169,2,0,P|307:142|264:147,1,81,10|0,2:2|1:1,0:0:0:0:
130,8,10495,6,0,B|96:55|96:55|127:188,1,162,2|8,1:2|2:2,0:0:0:0:
20,294,10984,2,0,P|65:285|111:277,1,81,2|0,3:2|3:3,0:0:0:0:
250,307,11310,1,0,1:1:0:0:
136,169,11473,5,10,2:2:0:0:
277,64,11636,1,0,1:1:0:0:
277,64,11799,2,0,L|268:161,1,81,2|0,1:2|3:3,0:0:0:0:
318,217,12044,2,0,P|359:226|404:214,1,81,2|0,3:2|0:0,0:0:0:0:
399,210,12288,1,2,3:2:0:0:
490,84,12451,2,0,P|450:75|411:84,1,81,2|0,3:2|1:1,0:0:0:0:
269,144,12778,1,10,2:2:0:0:
355,4,12941,1,2,1:2:0:0:
317,243,13104,6,0,P|228:237|137:233,1,162,4|8,1:2|2:2,0:0:0:0:
84,104,13593,1,0,3:3:0:0:
84,104,13674,1,0,3:3:0:0:
84,104,13756,2,0,P|132:101|181:98,1,81,2|0,3:2|1:1,0:0:0:0:
57,194,14082,1,8,2:2:0:0:
76,10,14245,1,0,1:1:0:0:
76,10,14326,1,0,1:1:0:0:
76,10,14408,2,0,P|124:7|173:4,1,81,2|0,1:2|3:3,0:0:0:0:
269,98,14734,1,8,2:2:0:0:
168,203,14897,5,0,3:3:0:0:
168,203,14979,1,0,3:3:0:0:
168,203,15060,2,0,P|156:252|181:292,1,81,2|0,3:2|1:1,0:0:0:0:
262,366,15386,1,8,2:2:0:0:
376,300,15549,1,0,1:1:0:0:
376,300,15631,1,0,1:1:0:0:
376,300,15712,2,0,P|425:312|465:287,1,81,2|0,1:2|3:3,0:0:0:0:
499,180,16038,1,8,2:2:0:0:
405,107,16201,5,0,3:3:0:0:
405,107,16283,1,0,3:3:0:0:
405,107,16364,2,0,P|411:63|420:4,1,81,2|0,3:2|1:1,0:0:0:0:
499,180,16691,1,8,2:2:0:0:
313,90,16854,1,0,1:1:0:0:
313,90,16936,1,0,1:1:0:0:
313,90,17017,2,0,P|319:46|328:-13,1,81,2|0,1:2|3:3,0:0:0:0:
334,179,17343,1,8,2:2:0:0:
220,49,17506,5,0,3:3:0:0:
220,49,17587,1,0,3:3:0:0:
220,49,17669,2,0,P|174:34|135:46,1,81,2|0,3:2|1:1,0:0:0:0:
45,125,17995,1,8,2:2:0:0:
138,236,18158,5,0,1:1:0:0:
137,244,18239,1,0,1:1:0:0:
136,252,18321,2,0,P|196:222|299:265,1,162,2|8,1:2|2:2,0:0:0:0:
353,356,18810,2,0,P|392:348|534:325,1,162,2|0,3:2|1:1,0:0:0:0:
387,253,19299,1,8,2:2:0:0:
459,145,19462,5,2,1:2:0:0:
459,136,19544,1,2,1:2:0:0:
459,127,19625,2,0,P|391:146|301:101,1,162,2|8,1:2|2:2,0:0:0:0:
223,14,20114,2,0,P|176:19|121:27,1,81,2|0,3:2|3:3,0:0:0:0:
28,86,20441,1,0,1:1:0:0:
149,131,20604,2,0,P|162:186|148:235,1,81,10|0,2:2|1:1,0:0:0:0:
93,357,20930,6,0,B|155:348|155:348|187:327|187:327|276:318,1,162,2|8,1:2|2:2,0:0:0:0:
371,360,21419,2,0,P|426:363|456:352,1,81,2|0,3:2|3:3,0:0:0:0:
500,235,21745,1,0,1:1:0:0:
500,235,21826,1,0,0:0:0:0:
500,235,21908,1,10,2:2:0:0:
394,160,22071,2,0,P|381:111|388:69,1,81,0|0,1:1|1:1,0:0:0:0:
311,214,22397,2,0,P|284:113|298:27,1,162,2|0,3:2|3:3,0:0:0:0:
194,162,22886,5,0,3:3:0:0:
194,162,22968,1,0,3:3:0:0:
194,162,23049,1,0,1:1:0:0:
194,162,23131,1,0,3:3:0:0:
194,162,23212,2,0,L|136:157,1,40.5,10|0,2:2|3:3,0:0:0:0:
157,65,23375,2,0,L|197:61,1,40.5,2|0,1:2|1:1,0:0:0:0:
68,43,23538,6,0,L|63:180,1,113.399996539307,4|8,1:2|2:2,0:0:0:0:
153,158,24028,2,0,L|157:44,1,113.399996539307,2|0,2:2|1:1,0:0:0:0:
233,7,24517,1,8,2:2:0:0:
153,170,24843,1,0,1:1:0:0:
285,277,25169,5,8,2:2:0:0:
354,227,25332,2,0,P|395:204|469:226,1,113.399996539307,2|2,2:2|1:2,0:0:0:0:
498,291,25821,1,10,2:2:0:0:
498,291,25984,1,2,1:2:0:0:
457,216,26147,6,0,P|462:150|470:89,1,113.399996539307,0|8,1:1|2:2,0:0:0:0:
383,93,26636,2,0,P|376:149|371:205,1,113.399996539307,2|0,2:2|1:1,0:0:0:0:
298,249,27125,1,8,2:2:0:0:
382,83,27451,1,0,1:1:0:0:
313,32,27614,2,0,P|270:13|197:37,2,113.399996539307,2|2|0,2:2|2:2|1:1,0:0:0:0:
382,83,28430,1,8,2:2:0:0:
442,23,28593,1,0,1:1:0:0:
333,161,28756,6,0,P|275:157|201:155,1,113.399996539307,2|8,1:2|2:2,0:0:0:0:
211,240,29245,2,0,P|267:242|324:245,1,113.399996539307,2|0,2:2|1:1,0:0:0:0:
399,294,29734,1,10,2:2:0:0:
399,294,29897,2,0,P|406:330|392:366,1,56.6999982696534,2|0,2:2|1:1,0:0:0:0:
319,371,30223,2,0,P|262:368|205:365,1,113.399996539307,2|2,2:2|2:2,0:0:0:0:
128,329,30712,2,0,P|83:344|20:309,1,113.399996539307,2|10,2:2|2:2,0:0:0:0:
15,232,31201,1,2,1:2:0:0:
81,150,31364,5,2,1:2:0:0:
81,150,31528,2,0,L|75:85,1,56.6999982696534,2|8,2:2|2:2,0:0:0:0:
136,34,31854,2,0,P|173:20|253:34,1,113.399996539307,2|0,2:2|1:1,0:0:0:0:
311,82,32343,1,8,2:2:0:0:
125,30,32669,5,0,1:1:0:0:
75,93,32832,2,0,L|81:150,1,56.6999982696534,2|8,2:2|2:2,0:0:0:0:
39,224,33158,2,0,P|27:261|62:338,1,113.399996539307,2|0,2:2|1:1,0:0:0:0:
127,366,33647,1,10,2:2:0:0:
127,366,33810,1,2,1:2:0:0:
211,314,33973,6,0,P|266:317|340:321,1,113.399996539307,2|8,1:2|2:2,0:0:0:0:
330,235,34462,2,0,P|273:231|216:228,1,113.399996539307,2|0,2:2|1:1,0:0:0:0:
151,174,34951,1,8,2:2:0:0:
337,237,35278,1,0,1:1:0:0:
444,105,35604,5,10,2:2:0:0:
444,105,35767,2,0,P|403:78|334:86,1,113.399996539307,2|2,2:2|1:2,0:0:0:0:
273,134,36256,1,10,2:2:0:0:
273,134,36419,1,2,1:2:0:0:
173,91,36582,6,0,P|116:96|40:103,1,113.399996539307,0|8,1:1|2:2,0:0:0:0:
70,186,37071,2,0,P|126:180|182:175,1,113.399996539307,2|2,2:2|1:2,0:0:0:0:
244,234,37560,1,10,2:2:0:0:
264,131,37723,1,2,2:2:0:0:
242,247,37886,1,0,1:1:0:0:
44,359,38212,5,8,2:2:0:0:
44,359,38375,2,0,P|81:345|173:368,1,113.399996539307,2|0,2:2|1:1,0:0:0:0:
234,378,38864,2,0,P|273:377|297:377,1,56.6999982696534,8|0,2:2|1:1,0:0:0:0:
384,318,39191,6,0,B|395:258|395:258|361:194,1,113.399996539307,2|8,1:2|2:2,0:0:0:0:
303,159,39680,2,0,P|277:114|292:47,1,113.399996539307,2|0,2:2|1:1,0:0:0:0:
219,2,40169,1,10,2:2:0:0:
150,52,40332,1,2,2:2:0:0:
150,52,40658,6,0,L|162:120,1,56.6999982696534,2|8,2:2|2:2,0:0:0:0:
98,166,40984,1,2,2:2:0:0:
153,230,41147,2,0,L|141:298,1,56.6999982696534,0|2,0:0|1:2,0:0:0:0:
197,351,41473,1,10,2:2:0:0:
197,351,41636,1,2,1:2:0:0:
267,304,41799,5,2,1:2:0:0:
267,304,41962,2,0,L|339:317,1,56.6999982696534,2|8,2:2|2:2,0:0:0:0:
400,278,42288,2,0,P|416:238|400:162,1,113.399996539307,2|0,2:2|1:1,0:0:0:0:
338,116,42778,1,8,2:2:0:0:
408,47,42941,5,0,3:3:0:0:
408,47,43022,1,0,3:3:0:0:
408,47,43104,2,0,P|446:41|470:50,1,56.6999982696534,0|0,1:1|1:1,0:0:0:0:
338,116,43430,1,8,2:2:0:0:
270,64,43593,5,0,3:3:0:0:
270,64,43674,1,0,3:3:0:0:
270,64,43756,2,0,L|272:27,1,28.3499991348267,0|0,3:3|3:3,0:0:0:0:
248,146,43919,2,0,P|207:136|178:144,1,56.6999982696534,8|0,2:2|3:3,0:0:0:0:
166,153,44163,1,0,3:3:0:0:
166,153,44245,2,0,L|167:181,1,28.3499991348267,2|0,3:2|3:3,0:0:0:0:
130,329,44408,6,0,P|185:338|214:318,1,81,4|2,1:2|3:2,0:0:0:0:
205,326,44653,1,2,3:2:0:0:
205,326,44734,1,10,2:2:0:0:
77,238,44897,1,2,3:2:0:0:
249,152,45060,5,2,3:2:0:0:
249,152,45142,1,2,3:2:0:0:
249,152,45223,1,2,1:2:0:0:
126,66,45386,2,0,L|144:160,1,81,10|2,2:2|1:2,0:0:0:0:
224,6,45712,5,0,1:1:0:0:
224,6,45794,1,2,2:2:0:0:
224,6,45875,1,2,3:2:0:0:
339,99,46038,2,0,L|433:80,1,81,10|2,2:2|3:2,0:0:0:0:
418,83,46283,1,2,3:2:0:0:
418,83,46364,2,0,L|411:132,3,40.5,2|2|2|2,3:2|3:2|1:2|2:2,0:0:0:0:
351,245,46691,5,10,2:2:0:0:
351,245,46772,1,2,2:2:0:0:
351,245,46854,1,2,1:2:0:0:
351,245,46935,1,0,1:1:0:0:
351,245,47017,2,0,P|429:212|509:226,1,162,2|8,1:2|2:2,0:0:0:0:
265,317,47506,2,0,P|187:284|107:298,1,162,2|0,2:2|1:1,0:0:0:0:
112,295,47913,1,0,0:0:0:0:
112,295,47995,1,10,2:2:0:0:
0,138,48158,2,0,L|18:232,1,81,2|0,1:2|1:1,0:0:0:0:
156,33,48484,6,0,P|114:32|63:55,1,81,2|8,2:2|2:2,0:0:0:0:
206,171,48810,2,0,P|244:157|284:159,1,81,2|0,2:2|1:2,0:0:0:0:
414,72,49136,1,2,1:2:0:0:
289,13,49299,1,10,2:2:0:0:
382,171,49462,1,2,1:2:0:0:
512,149,49625,6,0,L|499:211,3,40.5,0|2|2|2,1:1|2:2|3:2|3:2,0:0:0:0:
442,263,49951,1,10,2:2:0:0:
442,263,50033,1,2,0:0:0:0:
442,263,50114,1,2,3:2:0:0:
284,159,50278,5,2,3:2:0:0:
284,159,50359,1,2,3:2:0:0:
284,159,50441,1,2,1:2:0:0:
332,305,50604,2,0,L|313:399,1,81,10|2,2:2|1:2,0:0:0:0:
135,307,50930,1,2,1:2:0:0:
242,254,51093,1,2,3:2:0:0:
114,147,51256,5,10,2:2:0:0:
114,147,51337,1,2,2:2:0:0:
114,147,51419,1,2,3:2:0:0:
218,7,51582,2,0,L|199:101,1,81,2|2,3:2|1:2,0:0:0:0:
318,39,51908,2,0,L|330:-24,3,40.5,10|2|2|0,2:2|0:0|1:2|1:1,0:0:0:0:
412,66,52234,6,0,P|421:114|398:156,1,81,2|0,1:2|0:0,0:0:0:0:
289,125,52560,1,8,2:2:0:0:
441,222,52723,2,0,P|434:285|427:408,1,162,2|0,2:2|1:1,0:0:0:0:
334,292,53212,1,10,2:2:0:0:
334,292,53375,1,2,1:2:0:0:
238,343,53538,5,2,1:2:0:0:
238,343,53701,2,0,P|187:336|138:329,1,81,2|8,2:2|2:2,0:0:0:0:
57,261,54028,1,2,2:2:0:0:
155,189,54191,2,0,P|165:148|161:101,1,81,2|0,2:2|1:1,0:0:0:0:
79,21,54517,1,8,2:2:0:0:
64,141,54680,1,2,1:2:0:0:
188,16,54843,5,4,1:2:0:0:
188,16,54924,1,2,0:0:0:0:
188,16,55006,1,2,3:2:0:0:
273,87,55169,2,0,L|335:74,3,40.5,8|2|2|2,2:2|0:0|3:2|3:2,0:0:0:0:
407,94,55495,6,0,P|427:150|398:184,1,81,2|2,3:2|1:2,0:0:0:0:
419,165,55739,1,2,2:2:0:0:
419,165,55821,1,10,2:2:0:0:
302,285,55984,5,2,1:2:0:0:
302,285,56066,1,2,1:2:0:0:
302,285,56147,2,0,L|396:266,1,81,2|2,1:2|3:2,0:0:0:0:
223,374,56473,2,0,L|128:355,1,81,10|2,2:2|3:2,0:0:0:0:
18,234,56799,1,2,3:2:0:0:
18,234,56881,1,2,3:2:0:0:
18,234,56962,2,0,L|30:299,1,40.5,2|2,1:2|0:0,0:0:0:0:
119,216,57125,2,0,L|111:176,1,40.5,10|2,2:2|2:2,0:0:0:0:
28,95,57288,1,2,1:2:0:0:
28,95,57370,1,2,1:2:0:0:
28,95,57451,1,2,1:2:0:0:
193,14,57614,5,2,2:2:0:0:
193,14,57696,1,0,0:0:0:0:
193,14,57778,2,0,L|209:99,1,81,10|2,2:2|2:2,0:0:0:0:
395,13,58104,2,0,L|315:28,1,81,2|2,2:2|1:2,0:0:0:0:
433,133,58430,2,0,L|512:117,1,81,10|2,2:2|1:2,0:0:0:0:
355,222,58756,6,0,L|367:285,3,40.5,2|2|2|2,1:2|2:2|2:2|2:2,0:0:0:0:
409,331,59082,2,0,P|360:349|312:330,1,81,10|2,2:2|2:2,0:0:0:0:
131,303,59408,1,2,2:2:0:0:
131,303,59489,1,2,0:0:0:0:
131,303,59571,1,2,1:2:0:0:
246,210,59734,1,8,2:2:0:0:
246,210,59816,1,2,0:0:0:0:
246,210,59897,2,0,L|231:138,1,40.5,2|2,1:2|1:2,0:0:0:0:
275,47,60060,6,0,L|283:86,3,40.5,0|2|2|0,1:1|2:2|3:2|3:3,0:0:0:0:
191,0,60386,2,0,L|112:16,1,81,10|2,2:2|3:2,0:0:0:0:
20,132,60712,1,2,3:2:0:0:
20,132,60794,1,2,3:2:0:0:
20,132,60875,1,2,1:2:0:0:
138,193,61038,2,0,L|146:232,3,40.5,10|2|2|0,2:2|2:2|1:2|1:1,0:0:0:0:
92,306,61364,5,2,1:2:0:0:
92,306,61446,1,2,2:2:0:0:
92,306,61528,1,2,3:2:0:0:
231,291,61691,2,0,L|215:370,1,81,10|2,2:2|3:2,0:0:0:0:
350,305,62017,6,0,L|358:265,3,40.5,2|2|2|2,3:2|3:2|1:2|0:0,0:0:0:0:
443,322,62343,2,0,L|451:282,1,40.5,10|2,2:2|2:2,0:0:0:0:
482,163,62506,5,2,1:2:0:0:
482,163,62587,1,0,1:1:0:0:
482,163,62669,1,2,1:2:0:0:
394,54,62832,1,2,2:2:0:0:
394,54,62913,1,2,2:2:0:0:
394,54,62995,1,8,2:2:0:0:
293,167,63158,2,0,L|372:151,1,81,2|2,2:2|0:0,0:0:0:0:
208,91,63484,1,2,1:2:0:0:
298,35,63647,1,10,2:2:0:0:
204,181,63810,1,2,1:2:0:0:
94,48,63973,6,0,L|110:127,1,81,2|2,1:2|2:2,0:0:0:0:
110,127,64218,1,2,2:2:0:0:
110,127,64299,1,8,2:2:0:0:
0,234,64462,2,0,P|54:220|101:228,1,81,2|2,2:2|1:2,0:0:0:0:
197,283,64788,1,2,1:2:0:0:
110,127,64951,1,10,2:2:0:0:
204,181,65114,1,2,1:2:0:0:
197,283,65278,5,4,1:2:0:0:
242,358,65441,2,0,P|278:354|328:350,1,64.8,2|8,2:2|2:2,0:0:0:0:
156,372,65767,2,0,P|123:374|91:378,1,64.8,2|0,2:2|0:0,0:0:0:0:
28,322,66093,1,2,1:2:0:0:
67,247,66256,2,0,P|65:214|61:182,1,64.8,10|2,2:2|2:2,0:0:0:0:
41,99,66582,6,0,P|80:94|106:109,1,64.8,2|2,1:2|2:2,0:0:0:0:
151,172,66908,2,0,P|190:177|216:162,1,64.8,10|2,2:2|2:2,0:0:0:0:
258,97,67234,1,2,2:2:0:0:
258,97,67397,1,2,1:2:0:0:
326,154,67560,1,10,2:2:0:0:
326,154,67723,1,2,1:2:0:0:
389,98,67886,6,0,P|424:104|468:109,1,64.8,0|2,1:1|2:2,0:0:0:0:
465,24,68212,2,0,P|432:19|400:14,1,64.8,10|2,2:2|2:2,0:0:0:0:
319,37,68538,2,0,P|277:46|247:36,1,64.8,2|2,2:2|1:2,0:0:0:0:
172,33,68864,2,0,P|130:24|100:34,1,64.8,10|2,2:2|1:2,0:0:0:0:
56,95,69191,6,0,L|72:196,1,86.4,8|8,2:2|2:2,0:0:0:0:
173,306,69625,1,8,2:2:0:0:
185,155,69843,1,8,2:2:0:0:
68,281,70060,1,8,2:2:0:0:
290,330,70278,1,8,2:2:0:0:
227,233,70495,1,4,0:1:0:0:
290,330,71799,6,0,P|336:324|383:321,1,89.1000027191163,4|0,1:2|0:0,0:0:0:0:
459,182,72125,2,0,P|414:178|370:173,1,89.1000027191163,10|0,2:2|0:0,0:0:0:0:
202,89,72451,1,2,2:2:0:0:
262,217,72614,1,2,1:2:0:0:
318,66,72778,1,8,2:2:0:0:
172,182,72941,6,0,B|99:174|99:174|68:192|68:192|-34:182,1,178.200005438233,2|2,2:2|2:2,0:0:0:0:
126,267,73430,1,10,2:2:0:0:
141,89,73593,2,0,P|147:46|159:-21,1,89.1000027191163,2|0,2:2|0:0,0:0:0:0:
251,132,73919,1,2,1:2:0:0:
382,25,74082,1,10,2:2:0:0:
288,42,74245,1,2,1:2:0:0:
317,203,74408,6,0,P|364:197|426:194,1,89.1000027191163,2|2,1:2|2:2,0:0:0:0:
375,337,74734,2,0,P|324:362|190:320,1,178.200005438233,10|2,2:2|2:2,0:0:0:0:
112,183,75223,1,2,1:2:0:0:
236,250,75386,1,10,2:2:0:0:
101,384,75549,2,0,P|96:344|87:272,1,89.1000027191163,2|0,2:2|1:1,0:0:0:0:
32,87,75875,5,2,2:2:0:0:
134,204,76038,1,10,2:2:0:0:
181,0,76201,2,0,P|175:40|167:112,1,89.1000027191163,2|0,2:2|0:0,0:0:0:0:
317,203,76528,1,2,1:2:0:0:
153,221,76691,1,10,2:2:0:0:
287,85,76854,5,2,1:2:0:0:
287,85,76935,1,0,1:1:0:0:
287,85,77017,2,0,P|368:111|464:55,1,178.200005438233,4|8,1:2|2:2,0:0:0:0:
501,236,77506,1,2,2:2:0:0:
502,244,77587,1,2,2:2:0:0:
503,252,77669,2,0,P|408:243|298:232,1,178.200005438233,2|8,2:2|2:2,0:0:0:0:
173,328,78158,1,2,2:2:0:0:
173,328,78239,1,2,2:2:0:0:
173,328,78321,5,0,1:1:0:0:
335,323,78484,1,2,2:2:0:0:
242,197,78647,1,10,2:2:0:0:
253,382,78810,1,2,2:2:0:0:
83,277,78973,2,0,P|87:221|94:170,1,89.1000027191163,2|2,2:2|1:2,0:0:0:0:
146,35,79299,1,10,2:2:0:0:
20,126,79462,1,2,1:2:0:0:
160,26,79625,1,0,1:1:0:0:
216,162,79788,6,0,P|275:184|378:134,1,178.200005438233,2|2,2:2|2:2,0:0:0:0:
511,186,80278,2,0,P|505:228|499:297,1,89.1000027191163,2|2,2:2|1:2,0:0:0:0:
374,138,80604,1,10,2:2:0:0:
512,34,80767,2,0,L|407:44,1,89.1000027191163,2|0,2:2|1:1,0:0:0:0:
194,0,81093,6,0,B|174:53|174:53|208:175,1,178.200005438233,2|2,1:2|3:2,0:0:0:0:
202,177,81500,1,0,3:3:0:0:
197,184,81582,2,0,L|201:255,1,44.5500013595581,2|0,3:2|3:3,0:0:0:0:
117,238,81745,2,0,L|114:193,1,44.5500013595581,10|0,2:2|0:0,0:0:0:0:
94,327,81908,1,2,3:2:0:0:
102,326,81989,1,0,3:3:0:0:
110,325,82071,1,2,3:2:0:0:
118,324,82153,1,0,3:3:0:0:
126,323,82234,6,0,L|229:310,1,89.1000027191163,4|0,1:2|0:0,0:0:0:0:
374,213,82560,2,0,L|285:201,1,89.1000027191163,10|0,2:2|0:0,0:0:0:0:
138,109,82886,1,2,2:2:0:0:
199,228,83049,1,2,1:2:0:0:
36,256,83212,1,8,2:2:0:0:
252,104,83375,6,0,P|308:70|433:119,1,178.200005438233,2|2,2:2|2:2,0:0:0:0:
512,200,83864,1,10,2:2:0:0:
374,285,84028,2,0,L|385:196,1,89.1000027191163,2|0,2:2|0:0,0:0:0:0:
301,341,84354,1,2,1:2:0:0:
466,280,84517,1,10,2:2:0:0:
285,201,84680,1,2,1:2:0:0:
387,384,84843,6,0,L|487:367,1,89.1000027191163,2|2,1:2|2:2,0:0:0:0:
282,333,85169,2,0,L|106:303,1,178.200005438233,10|2,2:2|2:2,0:0:0:0:
18,158,85658,1,2,1:2:0:0:
177,215,85821,1,10,2:2:0:0:
32,358,85984,2,0,P|13:289|25:259,1,89.1000027191163,2|0,2:2|1:1,0:0:0:0:
134,104,86310,5,2,2:2:0:0:
0,157,86473,1,10,2:2:0:0:
184,220,86636,2,0,L|280:204,1,89.1000027191163,2|0,2:2|0:0,0:0:0:0:
435,96,86962,1,2,1:2:0:0:
287,34,87125,1,10,2:2:0:0:
391,203,87288,5,2,1:2:0:0:
389,211,87370,1,0,1:1:0:0:
387,219,87451,2,0,P|364:296|411:382,1,178.200005438233,4|8,1:2|2:2,0:0:0:0:
285,342,87941,1,2,2:2:0:0:
280,349,88022,1,2,2:2:0:0:
274,355,88104,2,0,P|187:314|84:362,1,178.200005438233,2|8,2:2|2:2,0:0:0:0:
2,206,88593,1,2,2:2:0:0:
145,95,88756,6,0,L|131:202,1,89.1000027191163,2|2,1:2|2:2,0:0:0:0:
274,355,89082,2,0,P|298:297|292:260,1,89.1000027191163,10|2,2:2|2:2,0:0:0:0:
286,85,89408,1,2,2:2:0:0:
136,197,89571,1,2,1:2:0:0:
92,15,89734,1,10,2:2:0:0:
247,180,89897,6,0,L|357:169,1,89.1000027191163,2|0,1:2|1:1,0:0:0:0:
448,78,90223,2,0,P|348:52|273:99,1,178.200005438233,2|2,2:2|2:2,0:0:0:0:
136,197,90712,1,2,2:2:0:0:
295,272,90875,1,2,1:2:0:0:
197,103,91038,1,10,2:2:0:0:
105,295,91201,6,0,L|204:283,1,89.1000027191163,2|0,2:2|1:1,0:0:0:0:
446,292,91528,2,0,P|383:321|287:255,1,178.200005438233,2|2,1:2|3:2,0:0:0:0:
294,271,91935,1,0,3:3:0:0:
294,271,92017,2,0,L|281:208,1,44.5500013595581,2|0,3:2|3:3,0:0:0:0:
362,103,92180,2,0,L|352:146,1,44.5500013595581,10|0,2:2|0:0,0:0:0:0:
379,231,92343,1,2,3:2:0:0:
250,137,92506,5,2,3:2:0:0:
250,137,92587,1,0,3:3:0:0:
250,137,92669,2,0,L|187:149,1,44.5500013595581,6|0,1:2|0:0,0:0:0:0:
113,83,92832,1,2,2:2:0:0:
113,83,92913,1,2,2:2:0:0:
113,83,92995,2,0,L|100:20,3,44.5500013595581,10|2|2|2,2:2|0:0|1:2|2:2,0:0:0:0:
50,172,93321,5,2,2:2:0:0:
50,172,93403,1,2,2:2:0:0:
50,172,93484,1,2,1:2:0:0:
50,172,93566,1,0,0:0:0:0:
50,172,93647,2,0,L|75:303,1,133.650004078674,10|2,2:2|1:2,0:0:0:0:
75,303,93973,1,2,1:2:0:0:
187,242,94136,1,2,2:2:0:0:
187,242,94218,1,2,2:2:0:0:
187,242,94299,2,0,L|250:255,3,44.5500013595581,10|2|2|2,2:2|2:2|1:2|0:0,0:0:0:0:
301,323,94625,1,2,2:2:0:0:
301,323,94707,1,2,2:2:0:0:
301,323,94788,1,2,1:2:0:0:
424,209,94951,6,0,L|411:146,3,44.5500013595581,10|2|2|2,2:2|2:2|1:2|1:2,0:0:0:0:
471,91,95278,1,2,1:2:0:0:
339,21,95441,1,2,2:2:0:0:
339,21,95522,1,2,2:2:0:0:
339,21,95604,2,0,L|251:39,1,89.1000027191163,10|2,2:2|1:2,0:0:0:0:
104,0,95930,1,2,0:0:0:0:
104,0,96011,1,2,0:0:0:0:
104,0,96093,1,2,1:2:0:0:
56,136,96256,6,0,P|40:187|86:283,1,133.650004078674,10|0,2:2|1:1,0:0:0:0:
63,261,96582,1,2,1:2:0:0:
192,188,96745,1,2,2:2:0:0:
192,188,96826,1,2,2:2:0:0:
192,188,96908,1,10,2:2:0:0:
264,323,97071,1,2,1:2:0:0:
369,262,97234,1,2,0:0:0:0:
369,262,97316,1,2,0:0:0:0:
369,262,97397,1,2,1:2:0:0:
478,351,97560,2,0,L|390:369,1,89.1000027191163,8|0,2:2|1:1,0:0:0:0:
431,165,97886,6,0,B|441:117|441:117|425:68,1,89.1000027191163,4|0,1:2|0:0,0:0:0:0:
369,262,98212,1,10,2:2:0:0:
292,126,98375,2,0,P|286:168|282:235,1,89.1000027191163,2|0,2:2|0:0,0:0:0:0:
139,341,98701,1,2,1:2:0:0:
183,179,98864,1,10,2:2:0:0:
36,119,99028,1,2,2:2:0:0:
0,254,99191,6,0,L|95:241,1,89.1000027191163,2|0,1:2|0:0,0:0:0:0:
245,310,99517,1,10,2:2:0:0:
195,90,99680,2,0,L|182:178,1,89.1000027191163,2|0,2:2|0:0,0:0:0:0:
132,5,100006,5,2,1:2:0:0:
292,126,100169,2,0,L|279:214,1,89.1000027191163,10|0,2:2|1:1,0:0:0:0:
421,378,100495,1,2,1:2:0:0:
382,200,100658,1,2,2:2:0:0:
214,297,100821,2,0,P|163:310|120:278,1,89.1000027191163,10|0,2:2|0:0,0:0:0:0:
0,190,101147,2,0,L|12:101,1,89.1000027191163,2|2,2:2|1:2,0:0:0:0:
160,0,101473,2,0,L|147:88,1,89.1000027191163,10|2,2:2|1:2,0:0:0:0:
305,44,101799,6,0,L|314:-26,1,44.5500013595581,0|0,1:1|0:0,0:0:0:0:
393,109,101962,1,2,2:2:0:0:
393,109,102044,1,2,2:2:0:0:
393,109,102125,2,0,L|386:153,3,44.5500013595581,10|0|2|2,2:2|2:2|2:2|2:2,0:0:0:0:
299,206,102451,1,2,2:2:0:0:
299,206,102533,1,2,2:2:0:0:
299,206,102614,1,2,1:2:0:0:
299,206,102696,1,2,2:2:0:0:
299,206,102778,2,0,L|305:250,1,44.5500013595581,10|2,2:2|2:2,0:0:0:0:
412,261,102941,1,2,2:2:0:0:
412,261,103022,1,2,2:2:0:0:
412,261,103104,1,4,2:2:0:0:
