osu file format v14

[General]
AudioFilename: audio.mp3
AudioLeadIn: 0
PreviewTime: 71229
Countdown: 0
SampleSet: Soft
StackLeniency: 0.5
Mode: 0
LetterboxInBreaks: 0
WidescreenStoryboard: 1

[Editor]
Bookmarks: 12179,14773,22613,33048,50005,50331,50657,50738,50983,54570,55222,56526,57831,58958,59135,59787,60439,61092,61567,61744,64353,71689,93849,94012,95317,96947
DistanceSpacing: 1.5
BeatDivisor: 4
GridSize: 4
TimelineZoom: 5.399998

[Metadata]
Title:Chilly
TitleUnicode:散り散り
Artist:Yomitan Akane
ArtistUnicode:読谷あかね
Creator:Tuffiii
Version:Hard
Source:
Tags:Ryuusei Aika ryuusei_aika leominexd leomine take tritobandito nyan_kot_nyan chirijiri pop kasane teto vocaloid utau female japanese vocal cold dnb drum and bass electronic 重音テト chiri chir
BeatmapID:4332294
BeatmapSetID:2066909

[Difficulty]
HPDrainRate:4
CircleSize:3.5
OverallDifficulty:6.8
ApproachRate:8
SliderMultiplier:1.5
SliderTickRate:1

[Events]
//Background and Video events
0,0,"107718626_p02000.jpg",0,0
//Break Periods
//Storyboard Layer 0 (Background)
//Storyboard Layer 1 (Fail)
//Storyboard Layer 2 (Pass)
//Storyboard Layer 3 (Foreground)
//Storyboard Layer 4 (Overlay)
//Storyboard Sound Samples

[TimingPoints]
1365,326.086956521739,4,2,1,75,1,0
1365,-100,4,2,1,75,0,0
2669,-100,4,2,1,80,0,0
23538,-125,4,2,1,60,0,0
43104,-125,4,2,1,65,0,0
44408,-100,4,2,1,75,0,1
47017,-100,4,2,1,75,0,0
49625,-100,4,2,1,75,0,1
52234,-100,4,2,1,75,0,0
54843,-100,4,2,1,75,0,1
57451,-100,4,2,1,75,0,0
60060,-100,4,2,1,75,0,1
62669,-100,4,2,1,75,0,0
65278,-125,4,2,1,55,0,0
69191,-125,4,2,1,70,0,0
70495,-125,4,2,1,50,0,0
71310,-125,4,2,1,50,0,0
71799,-100,4,2,1,85,0,1
103104,-86.9565217391304,4,2,1,60,0,0

[Colours]
Combo1 : 194,107,114
Combo2 : 101,75,79
Combo3 : 158,82,91
Combo4 : 116,96,144

[HitObjects]
14,280,1365,6,0,B|52:270|52:270|90:292,1,75,4|0,0:1|1:1,0:0:0:0:
159,359,1691,1,8,2:2:0:0:
226,276,1854,2,0,L|231:233,2,37.5,0|0|0,3:3|3:3|3:3,0:0:0:0:
322,331,2180,2,0,L|407:346,1,75,8|0,1:2|3:3,0:0:0:0:
493,297,2506,5,0,3:3:0:0:
493,297,2587,1,0,3:3:0:0:
493,297,2669,2,0,B|474:244|474:244|496:209|496:209|473:144,1,150,4|8,1:2|2:2,0:0:0:0:
492,50,3158,1,0,3:3:0:0:
389,72,3321,2,0,L|375:145,1,75,2|0,3:2|1:1,0:0:0:0:
298,216,3647,2,0,L|284:142,1,75,8|0,2:2|1:1,0:0:0:0:
207,68,3973,6,0,B|166:47|128:64|140:92|104:112|68:88,1,150,2|8,1:2|2:2,0:0:0:0:
8,175,4462,1,0,3:3:0:0:
8,175,4544,1,0,3:3:0:0:
7,174,4625,2,0,P|34:200|71:208,1,75,2|0,3:2|1:1,0:0:0:0:
163,158,4951,1,8,2:2:0:0:
163,158,5114,1,0,1:1:0:0:
260,199,5278,6,0,B|285:199|304:180|304:180|290:291,1,150,2|8,1:2|2:2,0:0:0:0:
214,351,5767,1,0,3:3:0:0:
316,375,5930,2,0,L|463:348,1,150,2|8,3:2|2:2,0:0:0:0:
486,248,6419,1,0,1:1:0:0:
486,248,6582,2,0,L|338:274,1,150,2|8,1:2|2:2,0:0:0:0:
296,183,7071,1,0,3:3:0:0:
296,183,7234,2,0,L|444:159,1,150,2|8,3:2|2:2,0:0:0:0:
417,57,7723,1,0,1:1:0:0:
314,35,7886,6,0,P|279:46|264:82,1,75,2|0,1:2|3:3,0:0:0:0:
296,183,8212,1,8,2:2:0:0:
198,143,8375,2,0,B|163:157|155:199|155:199|146:158|109:141,1,150,2|0,3:2|1:1,0:0:0:0:
9,171,8864,1,8,2:2:0:0:
63,273,9028,5,2,1:2:0:0:
63,273,9109,1,2,1:2:0:0:
63,273,9191,2,0,P|56:309|29:334,1,75,2|0,1:2|3:3,0:0:0:0:
123,378,9517,1,8,2:2:0:0:
204,308,9680,2,0,B|245:287|283:304|271:332|307:352|343:328,1,150,2|0,3:2|1:1,0:0:0:0:
441,356,10169,2,0,P|476:349|493:317,1,75,10|0,2:2|1:1,0:0:0:0:
465,215,10495,6,0,B|440:215|421:234|421:234|435:123,1,150,2|8,1:2|2:2,0:0:0:0:
374,47,10984,2,0,P|339:54|322:86,1,75,2|0,3:2|3:3,0:0:0:0:
305,190,11310,1,0,1:1:0:0:
206,172,11473,1,10,2:2:0:0:
206,172,11636,1,0,1:1:0:0:
118,229,11799,2,0,P|136:280|186:302,2,112.5,2|2|2,1:2|3:2|3:2,0:0:0:0:
76,141,12451,2,0,L|3:155,2,75,2|0|10,3:2|1:1|2:2,0:0:0:0:
125,47,12941,1,2,1:2:0:0:
222,8,13104,6,0,P|291:0|327:71,1,150,4|8,1:2|2:2,0:0:0:0:
320,166,13593,1,0,3:3:0:0:
417,127,13756,2,0,P|448:107|485:107,1,75,2|0,3:2|1:1,0:0:0:0:
506,209,14082,2,0,P|474:228|437:228,1,75,8|0,2:2|1:1,0:0:0:0:
345,279,14408,6,0,B|294:289|294:289|276:336|276:336|230:346,1,150,2|8,1:2|2:2,0:0:0:0:
134,332,14897,1,0,3:3:0:0:
134,332,14979,1,0,3:3:0:0:
134,332,15060,2,0,L|61:350,1,75,2|0,3:2|1:1,0:0:0:0:
20,258,15386,1,8,2:2:0:0:
20,258,15549,1,0,1:1:0:0:
122,234,15712,6,0,B|147:234|166:253|166:253|152:142,1,150,2|8,1:2|2:2,0:0:0:0:
85,71,16202,1,0,3:3:0:0:
175,18,16364,2,0,P|242:34|237:119,1,150,2|8,3:2|2:2,0:0:0:0:
354,84,16854,1,0,1:1:0:0:
354,84,17017,2,0,P|371:152|313:191,1,150,2|8,1:2|2:2,0:0:0:0:
388,270,17506,1,0,3:3:0:0:
388,270,17669,2,0,P|337:319|274:288,1,150,2|8,3:2|2:2,0:0:0:0:
212,203,18158,1,0,1:1:0:0:
114,163,18321,6,0,L|101:236,1,75,2|0,1:2|3:3,0:0:0:0:
17,300,18647,1,8,2:2:0:0:
97,367,18810,2,0,B|141:383|141:383|248:364,1,150,2|0,3:2|1:1,0:0:0:0:
327,302,19299,1,8,2:2:0:0:
428,357,19462,5,2,1:2:0:0:
428,357,19544,1,2,1:2:0:0:
428,357,19625,2,0,L|501:343,1,75,2|0,1:2|3:3,0:0:0:0:
506,237,19952,1,8,2:2:0:0:
403,213,20115,2,0,B|369:235|333:215|345:187|307:170|266:191,1,150,2|0,3:2|1:1,0:0:0:0:
169,224,20604,2,0,L|157:298,1,75,10|0,2:2|1:1,0:0:0:0:
62,342,20930,6,0,B|37:342|18:361|18:361|32:250,1,150,2|8,1:2|2:2,0:0:0:0:
54,158,21419,2,0,B|79:158|98:177|98:177|84:66,1,150,2|0,3:2|1:1,0:0:0:0:
189,16,21908,6,0,P|259:27|282:95,1,150,10|0,2:2|1:1,0:0:0:0:
253,203,22397,2,0,B|287:225|323:205|311:177|349:160|390:181,1,150,2|0,3:2|3:3,0:0:0:0:
452,264,22886,2,0,L|468:312,2,37.5,0|0|0,3:3|3:3|1:1,0:0:0:0:
506,175,23212,1,10,2:2:0:0:
506,175,23375,1,2,1:2:0:0:
476,71,23538,6,0,P|425:59|378:107,1,120,4|8,1:2|2:2,0:0:0:0:
337,175,24028,2,0,B|294:202|246:176|273:139|230:113|178:136,1,180,2|8,2:2|2:2,0:0:0:0:
34,47,24843,6,0,P|0:93|4:152,1,120,0|8,1:1|2:2,0:0:0:0:
94,161,25332,2,0,P|128:207|124:266,1,120,2|2,2:2|1:2,0:0:0:0:
75,343,25821,2,0,P|41:330|23:298,2,60,10|2|0,2:2|1:2|1:1,0:0:0:0:
258,346,26473,5,8,2:2:0:0:
258,346,26636,2,0,L|323:354,1,60,2|0,2:2|0:0,0:0:0:0:
382,291,26962,2,0,P|409:314|412:341,2,60,0|8|2,1:1|2:2|2:2,0:0:0:0:
302,248,27451,2,0,L|237:240,1,60,0|2,1:1|2:2,0:0:0:0:
208,162,27778,1,8,2:2:0:0:
208,162,27941,2,0,P|151:158|125:209,1,120,2|0,2:2|1:1,0:0:0:0:
155,299,28430,1,8,2:2:0:0:
155,299,28593,1,0,1:1:0:0:
72,333,28756,6,0,B|49:307|49:307|33:215,1,120,2|8,1:2|2:2,0:0:0:0:
125,209,29245,2,0,B|147:183|147:183|163:91,1,120,2|0,2:2|1:1,0:0:0:0:
131,19,29734,5,10,2:2:0:0:
131,19,29897,2,0,P|102:26|87:51,1,60,2|0,2:2|1:1,0:0:0:0:
32,123,30223,2,0,P|24:151|38:177,1,60,2|8,2:2|2:2,0:0:0:0:
125,209,30549,2,0,L|259:185,1,120,2|2,2:2|1:2,0:0:0:0:
309,127,31038,1,10,2:2:0:0:
309,127,31201,1,2,1:2:0:0:
365,197,31364,6,0,L|353:261,2,60,2|2|8,1:2|2:2|2:2,0:0:0:0:
452,175,31854,2,0,L|431:56,1,120,2|0,2:2|1:1,0:0:0:0:
350,15,32343,1,8,2:2:0:0:
178,70,32669,6,0,L|119:59,1,60,0|2,1:1|2:2,0:0:0:0:
52,119,32995,1,8,2:2:0:0:
52,119,33158,2,0,B|71:145|71:145|165:164,1,120,2|0,2:2|1:1,0:0:0:0:
248,147,33647,1,10,2:2:0:0:
248,147,33810,1,2,1:2:0:0:
287,227,33973,6,0,L|263:358,1,120,2|8,1:2|2:2,0:0:0:0:
350,375,34462,2,0,P|407:374|431:298,1,120,2|0,2:2|1:1,0:0:0:0:
410,238,34951,1,8,2:2:0:0:
266,345,35278,5,0,1:1:0:0:
128,227,35604,1,10,2:2:0:0:
67,293,35767,2,0,P|120:317|178:304,1,120,2|2,2:2|1:2,0:0:0:0:
231,232,36256,1,10,2:2:0:0:
297,292,36419,2,0,L|285:359,1,60,2|0,1:2|1:1,0:0:0:0:
431,243,36908,5,8,2:2:0:0:
431,243,37071,2,0,L|451:124,1,120,2|2,2:2|1:2,0:0:0:0:
378,73,37560,1,10,2:2:0:0:
378,73,37723,2,0,L|357:191,1,120,2|0,2:2|0:0,0:0:0:0:
316,273,38212,1,8,2:2:0:0:
316,273,38375,2,0,P|263:250|256:193,1,120,2|0,2:2|1:1,0:0:0:0:
201,128,38864,1,8,2:2:0:0:
201,128,39028,1,0,1:1:0:0:
137,192,39191,6,0,B|109:187|98:153|98:153|83:187|52:197,1,120,2|8,1:2|2:2,0:0:0:0:
9,118,39680,2,0,P|44:70|104:61,1,120,2|0,2:2|1:1,0:0:0:0:
197,69,40169,5,10,2:2:0:0:
197,69,40332,2,0,L|278:54,1,60,2|0,2:2|1:1,0:0:0:0:
309,130,40658,2,0,L|249:140,1,60,2|8,2:2|2:2,0:0:0:0:
304,211,40984,2,0,L|363:200,1,60,2|0,2:2|0:0,0:0:0:0:
444,237,41310,2,0,P|453:198|444:170,2,60,2|10|2,1:2|2:2|1:2,0:0:0:0:
415,325,41799,5,2,1:2:0:0:
415,325,41962,2,0,L|339:297,1,60,2|8,2:2|2:2,0:0:0:0:
269,296,42288,2,0,P|212:310|189:363,1,120,2|0,2:2|1:1,0:0:0:0:
99,360,42778,2,0,P|84:330|91:292,1,60,8|0,2:2|3:3,0:0:0:0:
66,216,43104,2,0,L|-9:203,2,60,0|0|8,1:1|1:1|2:2,0:0:0:0:
151,187,43593,1,0,3:3:0:0:
151,187,43674,1,0,3:3:0:0:
151,187,43756,2,0,L|194:194,3,30,0|0|8|0,3:3|3:3|2:2|0:0,0:0:0:0:
221,181,44082,2,0,L|264:188,3,30,0|0|2|0,3:3|3:3|3:2|3:3,0:0:0:0:
290,220,44408,6,0,P|336:228|381:239,1,75,4|2,1:2|3:2,0:0:0:0:
407,272,44653,1,2,3:2:0:0:
407,272,44734,2,0,P|445:264|472:230,1,75,10|2,2:2|3:2,0:0:0:0:
450,135,45060,2,0,L|392:124,3,37.5,2|2|2|2,3:2|3:2|1:2|0:0,0:0:0:0:
382,85,45386,1,10,2:2:0:0:
293,28,45549,1,2,1:2:0:0:
204,83,45712,6,0,P|186:76|176:61,3,37.5,0|2|2|0,1:1|2:2|3:2|3:3,0:0:0:0:
166,9,46038,1,10,2:2:0:0:
73,49,46201,1,2,3:2:0:0:
73,49,46283,1,2,3:2:0:0:
73,49,46364,2,0,L|3:36,3,37.5,2|2|2|2,3:2|3:2|1:2|2:2,0:0:0:0:
36,95,46691,2,0,L|-33:82,3,37.5,10|2|2|0,2:2|2:2|1:2|1:1,0:0:0:0:
10,140,47017,6,0,P|65:185|135:167,1,150,2|8,1:2|2:2,0:0:0:0:
234,131,47506,2,0,B|257:165|257:165|234:298,1,150,2|0,2:2|1:1,0:0:0:0:
198,368,47995,1,10,2:2:0:0:
301,372,48158,6,0,P|333:352|349:319,1,75,2|0,1:2|1:1,0:0:0:0:
453,309,48484,2,0,P|452:272|430:241,1,75,2|8,2:2|2:2,0:0:0:0:
358,165,48810,2,0,L|344:238,1,75,2|0,2:2|1:2,0:0:0:0:
239,272,49136,1,2,1:2:0:0:
161,204,49299,1,10,2:2:0:0:
118,303,49462,5,2,1:2:0:0:
118,303,49544,1,0,1:1:0:0:
118,302,49625,2,0,P|100:308|81:307,3,37.5,0|2|2|2,1:1|2:2|3:2|3:2,0:0:0:0:
31,322,49951,2,0,P|17:309|9:292,3,37.5,10|2|2|2,2:2|0:0|3:2|3:2,0:0:0:0:
23,241,50278,2,0,L|11:175,3,37.5,2|2|2|2,3:2|3:2|1:2|2:2,0:0:0:0:
9,151,50604,1,10,2:2:0:0:
55,60,50767,5,2,1:2:0:0:
55,60,50848,1,2,1:2:0:0:
55,60,50930,1,2,1:2:0:0:
139,122,51093,1,2,3:2:0:0:
224,61,51256,2,0,L|280:51,3,37.5,10|2|2|0,2:2|2:2|3:2|3:3,0:0:0:0:
291,97,51582,2,0,L|327:103,3,37.5,2|2|2|2,3:2|3:2|1:2|2:2,0:0:0:0:
375,80,51908,2,0,P|399:107|407:143,1,75,10|2,2:2|1:2,0:0:0:0:
334,219,52234,6,0,L|360:370,1,150,2|8,1:2|2:2,0:0:0:0:
254,369,52723,2,0,P|195:332|206:262,1,150,2|0,2:2|1:1,0:0:0:0:
262,174,53212,1,10,2:2:0:0:
262,174,53375,1,2,1:2:0:0:
163,138,53538,6,0,B|112:148|112:148|94:195|94:195|48:205,1,150,2|8,1:2|2:2,0:0:0:0:
18,103,54028,1,2,2:2:0:0:
91,28,54191,2,0,P|163:19|210:74,1,150,2|8,2:2|2:2,0:0:0:0:
282,149,54680,1,2,1:2:0:0:
365,86,54843,6,0,L|373:36,3,37.5,4|2|2|2,1:2|0:0|3:2|3:2,0:0:0:0:
425,48,55169,2,0,P|453:71|458:108,1,75,8|2,2:2|3:2,0:0:0:0:
496,205,55495,2,0,L|487:254,3,37.5,2|0|2|2,3:2|3:3|1:2|2:2,0:0:0:0:
437,243,55821,2,0,P|408:219|403:182,1,75,10|2,2:2|1:2,0:0:0:0:
309,136,56147,5,2,1:2:0:0:
223,191,56310,1,2,3:2:0:0:
223,191,56392,1,2,3:2:0:0:
223,191,56473,2,0,L|237:257,3,37.5,10|2|2|2,2:2|0:0|3:2|3:2,0:0:0:0:
181,246,56799,2,0,L|195:312,3,37.5,2|2|2|2,3:2|3:2|1:2|0:0,0:0:0:0:
144,310,57125,2,0,L|152:346,3,37.5,10|2|2|2,2:2|2:2|1:2|1:2,0:0:0:0:
112,381,57451,5,2,1:2:0:0:
38,322,57614,1,2,2:2:0:0:
38,322,57696,1,0,0:0:0:0:
38,322,57778,2,0,P|41:285|68:260,1,75,10|2,2:2|2:2,0:0:0:0:
150,194,58104,1,2,2:2:0:0:
78,117,58267,1,2,1:2:0:0:
167,62,58430,2,0,P|203:54|236:68,1,75,10|2,2:2|1:2,0:0:0:0:
329,117,58756,6,0,L|321:164,3,37.5,2|2|2|2,1:2|2:2|2:2|2:2,0:0:0:0:
313,206,59082,1,10,2:2:0:0:
425,223,59245,1,2,2:2:0:0:
425,223,59326,1,2,2:2:0:0:
425,223,59408,2,0,L|432:270,3,37.5,2|2|2|2,2:2|0:0|1:2|2:2,0:0:0:0:
471,293,59734,2,0,L|464:340,2,37.5,8|2|2,2:2|0:0|1:2,0:0:0:0:
351,349,60060,6,0,P|332:351|315:343,3,37.5,0|2|2|0,1:1|2:2|3:2|3:3,0:0:0:0:
269,316,60386,1,10,2:2:0:0:
215,225,60549,1,2,3:2:0:0:
137,295,60712,2,0,L|144:334,3,37.5,2|2|2|2,3:2|3:2|1:2|0:0,0:0:0:0:
92,345,61038,2,0,L|85:384,3,37.5,10|2|2|0,2:2|2:2|1:2|1:1,0:0:0:0:
32,378,61364,6,0,P|8:351|13:310,1,75,2|2,1:2|3:2,0:0:0:0:
44,214,61691,2,0,L|37:174,3,37.5,10|2|2|0,2:2|2:2|3:2|3:3,0:0:0:0:
89,164,62017,2,0,L|95:124,3,37.5,2|2|2|2,3:2|3:2|1:2|0:0,0:0:0:0:
149,131,62343,2,0,P|173:158|168:199,1,75,10|2,2:2|1:2,0:0:0:0:
242,271,62669,5,2,1:2:0:0:
333,215,62832,1,2,2:2:0:0:
333,215,62913,1,2,2:2:0:0:
333,215,62995,1,8,2:2:0:0:
419,273,63158,2,0,P|447:268|459:214,1,75,2|2,2:2|0:0,0:0:0:0:
432,128,63484,2,0,L|446:51,2,75,2|10|2,1:2|2:2|1:2,0:0:0:0:
343,183,63973,5,2,1:2:0:0:
298,87,64136,2,0,L|314:38,2,37.5,2|2|8,2:2|2:2|2:2,0:0:0:0:
222,159,64462,2,0,L|122:150,1,75,2|2,2:2|1:2,0:0:0:0:
47,185,64788,2,0,L|24:91,2,75,2|10|2,1:2|2:2|1:2,0:0:0:0:
125,251,65278,5,4,1:2:0:0:
105,332,65441,2,0,P|37:341|-1:299,2,120,2|2|2,2:2|2:2|1:2,0:0:0:0:
184,360,66256,6,0,L|195:299,1,60,10|2,2:2|2:2,0:0:0:0:
275,280,66582,2,0,L|264:219,1,60,2|2,1:2|2:2,0:0:0:0:
313,152,66908,2,0,P|292:131|263:125,1,60,10|2,2:2|2:2,0:0:0:0:
189,84,67234,2,0,L|201:15,2,60,2|2|10,2:2|1:2|2:2,0:0:0:0:
114,122,67723,6,0,L|136:251,1,120,2|2,1:2|2:2,0:0:0:0:
194,300,68212,2,0,P|222:293|243:272,1,60,10|2,2:2|2:2,0:0:0:0:
329,292,68538,1,2,2:2:0:0:
329,292,68701,1,2,1:2:0:0:
394,239,68864,2,0,L|405:180,1,60,10|2,2:2|1:2,0:0:0:0:
343,121,69191,6,0,P|304:127|274:153,2,80,8|8|8,2:2|2:2|2:2,0:0:0:0:
436,58,69843,2,0,P|474:64|504:90,2,80,8|8|8,2:2|2:2|2:2,0:0:0:0:
337,3,70495,1,4,0:1:0:0:
112,79,71799,6,0,B|88:108|88:108|105:201,1,112.5,4|0,1:2|0:0,0:0:0:0:
109,233,72125,2,0,P|147:237|185:202,1,75,10|0,2:2|0:0,0:0:0:0:
235,130,72451,1,2,2:2:0:0:
287,221,72614,2,0,L|271:316,1,75,2|8,1:2|2:2,0:0:0:0:
351,366,72941,6,0,P|391:366|424:342,1,75,2|0,2:2|1:1,0:0:0:0:
488,269,73267,1,2,2:2:0:0:
488,269,73430,1,10,2:2:0:0:
425,185,73593,2,0,L|438:103,1,75,2|0,2:2|0:0,0:0:0:0:
351,48,73919,2,0,P|369:15|402:-1,2,75,2|10|2,1:2|2:2|1:2,0:0:0:0:
303,142,74408,5,2,1:2:0:0:
303,142,74571,1,2,2:2:0:0:
220,77,74734,2,0,B|169:87|169:87|151:134|151:134|105:144,1,150,10|2,2:2|2:2,0:0:0:0:
38,226,75223,1,2,1:2:0:0:
38,226,75386,1,10,2:2:0:0:
74,324,75549,6,0,P|113:316|139:284,1,75,2|0,2:2|1:1,0:0:0:0:
211,222,75875,1,2,2:2:0:0:
211,222,76038,1,10,2:2:0:0:
295,284,76201,2,0,B|346:294|346:294|364:341|364:341|410:351,1,150,2|2,2:2|1:2,0:0:0:0:
493,285,76691,1,10,2:2:0:0:
493,285,76854,1,2,1:2:0:0:
450,189,77017,6,0,B|425:189|406:208|406:208|420:97,1,150,4|8,1:2|2:2,0:0:0:0:
363,31,77506,1,2,2:2:0:0:
363,31,77587,1,2,2:2:0:0:
363,31,77669,2,0,B|322:10|284:27|296:55|260:75|224:51,1,150,2|8,2:2|2:2,0:0:0:0:
138,16,78158,5,2,2:2:0:0:
138,16,78239,1,2,2:2:0:0:
138,16,78321,2,0,L|120:114,1,75,0|2,1:1|2:2,0:0:0:0:
19,92,78647,2,0,L|36:190,1,75,10|2,2:2|2:2,0:0:0:0:
94,252,78973,2,0,P|124:231|140:197,1,75,2|2,2:2|1:2,0:0:0:0:
224,134,79299,1,10,2:2:0:0:
307,197,79462,6,0,L|381:184,1,75,2|0,1:2|1:1,0:0:0:0:
415,85,79788,2,0,L|340:97,1,75,2|8,2:2|2:2,0:0:0:0:
236,81,80114,2,0,P|247:45|274:20,2,75,2|2|2,2:2|2:2|1:2,0:0:0:0:
286,174,80604,1,10,2:2:0:0:
197,229,80767,6,0,L|203:309,1,75,2|0,2:2|1:1,0:0:0:0:
108,349,81093,2,0,P|41:326|43:256,1,150,2|2,1:2|3:2,0:0:0:0:
17,164,81582,1,2,3:2:0:0:
17,164,81663,1,0,3:3:0:0:
17,163,81745,2,0,P|42:137|79:134,1,75,10|2,2:2|3:2,0:0:0:0:
170,187,82071,1,2,3:2:0:0:
274,178,82234,6,0,B|324:169|324:169|328:163|328:163|381:154,1,112.5,4|0,1:2|0:0,0:0:0:0:
433,142,82560,2,0,P|438:106|416:77,1,75,10|0,2:2|0:0,0:0:0:0:
332,13,82886,1,2,2:2:0:0:
266,94,83049,2,0,L|159:75,1,75,2|8,1:2|2:2,0:0:0:0:
110,14,83375,6,0,P|77:32|67:67,1,75,2|0,2:2|1:1,0:0:0:0:
4,151,83701,1,2,2:2:0:0:
4,151,83864,1,10,2:2:0:0:
77,227,84028,2,0,L|150:213,1,75,2|0,2:2|0:0,0:0:0:0:
239,269,84354,2,0,P|228:303|195:321,2,75,2|10|2,1:2|2:2|1:2,0:0:0:0:
289,178,84843,5,2,1:2:0:0:
289,178,85006,1,2,2:2:0:0:
374,117,85169,2,0,P|441:140|453:211,1,150,10|2,2:2|2:2,0:0:0:0:
483,317,85658,1,2,1:2:0:0:
483,317,85821,1,10,2:2:0:0:
389,364,85984,6,0,L|303:348,1,75,2|0,2:2|1:1,0:0:0:0:
248,276,86310,1,2,2:2:0:0:
248,276,86473,1,10,2:2:0:0:
171,347,86636,2,0,B|134:338|131:289,1,75,2|0,2:2|0:0,0:0:0:0:
123,184,86962,1,2,1:2:0:0:
24,164,87125,1,10,2:2:0:0:
24,164,87288,1,2,1:2:0:0:
92,78,87451,6,0,B|133:57|171:74|159:102|195:122|231:98,1,150,4|8,1:2|2:2,0:0:0:0:
341,108,87941,1,2,2:2:0:0:
341,108,88022,1,2,2:2:0:0:
341,108,88104,6,0,B|370:143|370:143|350:245,1,150,2|8,2:2|2:2,0:0:0:0:
441,296,88593,1,2,2:2:0:0:
373,376,88756,6,0,P|338:365|314:337,1,75,2|2,1:2|2:2,0:0:0:0:
211,360,89082,2,0,P|201:324|214:289,1,75,10|2,2:2|2:2,0:0:0:0:
298,227,89408,2,0,L|314:146,1,75,2|2,2:2|1:2,0:0:0:0:
320,48,89734,1,10,2:2:0:0:
221,85,89897,6,0,P|190:63|153:65,1,75,2|0,1:2|1:1,0:0:0:0:
91,149,90223,2,0,P|121:170|158:168,1,75,2|8,2:2|2:2,0:0:0:0:
240,232,90549,2,0,L|254:158,2,75,2|2|2,2:2|2:2|1:2,0:0:0:0:
256,335,91038,1,10,2:2:0:0:
151,330,91201,6,0,P|114:328|90:300,1,75,2|0,2:2|1:1,0:0:0:0:
0,237,91528,2,0,P|71:215|82:123,1,150,2|2,1:2|3:2,0:0:0:0:
143,60,92017,1,2,3:2:0:0:
143,60,92098,1,0,3:3:0:0:
143,60,92180,2,0,B|107:46|107:46|73:58,2,75,10|2|2,2:2|3:2|3:2,0:0:0:0:
212,139,92669,5,6,1:2:0:0:
296,80,92832,2,0,L|306:22,2,37.5,2|2|10,2:2|2:2|2:2,0:0:0:0:
363,160,93158,1,2,1:2:0:0:
459,119,93321,2,0,L|448:61,2,37.5,2|2|2,2:2|2:2|1:2,0:0:0:0:
493,217,93647,2,0,P|488:253|460:276,1,75,10|2,2:2|1:2,0:0:0:0:
396,360,93973,5,2,1:2:0:0:
396,360,94136,1,2,2:2:0:0:
315,292,94299,2,0,L|321:254,3,37.5,10|2|2|2,2:2|2:2|1:2|0:0,0:0:0:0:
275,228,94625,2,0,L|281:190,2,37.5,2|2|2,2:2|2:2|1:2,0:0:0:0:
186,277,94951,1,10,2:2:0:0:
186,277,95033,1,2,2:2:0:0:
186,277,95114,1,2,1:2:0:0:
91,229,95278,6,0,L|75:149,1,75,2|2,1:2|2:2,0:0:0:0:
52,109,95522,2,0,P|61:93|77:83,3,37.5,2|10|2|2,2:2|2:2|2:2|1:2,0:0:0:0:
167,27,95930,2,0,L|180:100,1,75,2|2,0:0|1:2,0:0:0:0:
198,149,96174,1,2,2:2:0:0:
198,149,96256,2,0,P|231:164|267:155,1,75,10|2,2:2|1:2,0:0:0:0:
351,218,96582,5,2,1:2:0:0:
433,152,96745,2,0,L|441:100,3,37.5,2|2|10|2,2:2|2:2|2:2|2:2,0:0:0:0:
413,68,97071,2,0,P|379:52|343:61,1,75,2|2,1:2|0:0,0:0:0:0:
275,141,97397,1,2,1:2:0:0:
275,141,97479,1,2,2:2:0:0:
275,141,97560,2,0,P|239:149|205:134,1,75,8|0,2:2|1:1,0:0:0:0:
113,83,97886,6,0,B|89:112|89:112|112:221,1,150,4|10,1:2|2:2,0:0:0:0:
59,314,98375,6,0,B|59:339|40:358|40:358|151:344,1,150,2|2,2:2|1:2,0:0:0:0:
237,302,98864,1,10,2:2:0:0:
237,302,99028,1,2,2:2:0:0:
326,356,99191,6,0,B|372:346|372:346|390:299|390:299|441:289,1,150,2|10,1:2|2:2,0:0:0:0:
499,201,99680,2,0,P|474:168|439:162,1,75,2|0,2:2|0:0,0:0:0:0:
342,191,100006,1,2,1:2:0:0:
254,133,100169,2,0,L|240:59,1,75,10|0,2:2|1:1,0:0:0:0:
151,11,100495,5,2,1:2:0:0:
151,11,100658,1,2,2:2:0:0:
54,52,100821,2,0,P|35:120|93:161,1,150,10|2,2:2|2:2,0:0:0:0:
168,233,101310,1,2,1:2:0:0:
248,166,101473,1,10,2:2:0:0:
326,235,101636,6,0,L|339:308,1,75,2|0,1:2|1:1,0:0:0:0:
250,355,101962,1,2,2:2:0:0:
250,355,102044,1,2,2:2:0:0:
250,355,102125,1,10,2:2:0:0:
148,328,102288,2,0,P|120:325|96:301,3,37.5,2|2|2|2,2:2|2:2|2:2|2:2,0:0:0:0:
59,324,102614,2,0,P|47:298|56:265,3,37.5,2|2|10|2,1:2|2:2|2:2|2:2,0:0:0:0:
54,236,102941,2,0,L|65:189,1,37.5,2|2,2:2|2:2,0:0:0:0:
81,141,103104,1,4,2:2:0:0:
