osu file format v14

[General]
AudioFilename: audio.mp3
AudioLeadIn: 0
PreviewTime: 71229
Countdown: 0
SampleSet: Soft
StackLeniency: 0.5
Mode: 0
LetterboxInBreaks: 0
WidescreenStoryboard: 0

[Editor]
Bookmarks: 12179,22613,33048,50005,50331,50657,50738,50983,54570,55222,56526,57831,58958,59135,59787,60439,61092,61567,61744,64353,71689,93849,94012,95317,96947
DistanceSpacing: 0.8
BeatDivisor: 4
GridSize: 4
TimelineZoom: 4.999998

[Metadata]
Title:Chilly
TitleUnicode:散り散り
Artist:Yomitan Akane
ArtistUnicode:読谷あかね
Creator:Tuffiii
Version:Damsel in Distress
Source:
Tags:Ryuusei Aika ryuusei_aika leominexd leomine take tritobandito nyan_kot_nyan chirijiri pop kasane teto vocaloid utau female japanese vocal cold dnb drum and bass electronic 重音テト chiri chir
BeatmapID:4324023
BeatmapSetID:2066909

[Difficulty]
HPDrainRate:5
CircleSize:4
OverallDifficulty:9
ApproachRate:9.3
SliderMultiplier:1.94
SliderTickRate:1

[Events]
//Background and Video events
0,0,"107718626_p02000.jpg",0,0
//Break Periods
//Storyboard Layer 0 (Background)
//Storyboard Layer 1 (Fail)
//Storyboard Layer 2 (Pass)
//Storyboard Layer 3 (Foreground)
//Storyboard Layer 4 (Overlay)
//Storyboard Sound Samples

[TimingPoints]
1365,326.086956521739,4,2,1,75,1,0
1365,-71.4285714285714,4,2,1,75,0,0
1691,-100,4,2,1,75,0,0
2669,-90.9090909090909,4,2,1,80,0,0
5278,-111.111111111111,4,2,1,80,0,0
5930,-90.9090909090908,4,2,1,80,0,0
6582,-76.9230769230769,4,2,1,80,0,0
7234,-66.6666666666667,4,2,1,80,0,0
7723,-90.9090909090909,4,2,1,80,0,0
15712,-111.111111111111,4,2,1,80,0,0
16364,-90.9090909090908,4,2,1,80,0,0
17016,-76.9230769230769,4,2,1,80,0,0
17668,-66.6666666666667,4,2,1,80,0,0
18321,-90.9090909090909,4,2,1,80,0,0
23538,-111.111111111111,4,2,1,60,0,0
43104,-111.111111111111,4,2,1,65,0,0
44408,-83.3333333333333,4,2,1,75,0,1
45386,-83.3333333333333,4,2,1,75,0,1
45712,-83.3333333333333,4,2,1,75,0,1
46691,-83.3333333333333,4,2,1,75,0,1
47017,-100,4,2,1,75,0,0
49462,-111.111111111111,4,2,1,75,0,0
49625,-111.111111111111,4,2,1,75,0,1
50278,-76.9230769230769,4,2,1,75,0,1
51256,-100,4,2,1,75,0,1
52234,-100,4,2,1,75,0,0
54843,-166.666666666667,4,2,1,75,0,1
57451,-166.666666666667,4,2,1,75,0,0
57614,-83.3333333333334,4,2,1,75,0,0
60060,-125,4,2,1,75,0,1
60712,-100,4,2,1,75,0,1
61364,-125,4,2,1,75,0,1
62017,-100,4,2,1,75,0,1
62669,-100,4,2,1,75,0,0
65278,-133.333333333333,4,2,1,55,0,0
69191,-133.333333333333,4,2,1,70,0,0
69843,-86.9565217391306,4,2,1,70,0,0
70495,-86.9565217391306,4,2,1,50,0,0
71310,-166.666666666667,4,2,1,50,0,0
71392,-166.666666666667,4,2,1,5,0,0
71473,-166.666666666667,4,2,1,50,0,0
71555,-166.666666666667,4,2,1,5,0,0
71636,-166.666666666667,4,2,1,50,0,0
71718,-166.666666666667,4,2,1,5,0,0
71799,-71.4285714285714,4,2,1,85,0,1
72125,-83.3333333333333,4,2,1,85,0,1
74979,-83.3333333333333,4,2,1,5,0,1
75060,-83.3333333333333,4,2,1,85,0,1
79462,-90.9090909090909,4,2,1,85,0,1
80033,-90.9090909090909,4,2,1,5,0,1
80114,-90.9090909090909,4,2,1,85,0,1
81419,-83.3333333333333,4,2,1,85,0,1
82560,-64.5161290322581,4,2,1,85,0,1
82805,-64.5161290322581,4,2,1,5,0,1
82886,-83.3333333333333,4,2,1,85,0,1
85169,-62.5,4,2,1,85,0,1
85413,-71.4285714285714,4,2,1,5,0,1
85495,-83.3333333333333,4,2,1,85,0,1
87696,-83.3333333333333,4,2,1,85,0,1
87778,-83.3333333333333,4,2,1,85,0,1
88348,-83.3333333333333,4,2,1,85,0,1
88430,-83.3333333333333,4,2,1,85,0,1
89897,-90.9090909090909,4,2,1,85,0,1
91528,-100,4,2,1,85,0,1
91772,-100,4,2,1,85,0,1
91854,-83.3333333333333,4,2,1,85,0,1
92669,-99.9999999999999,4,2,1,85,0,1
93647,-83.3333333333333,4,2,1,85,0,1
94788,-111.111111111111,4,2,1,85,0,1
94951,-83.3333333333333,4,2,1,85,0,1
97234,-71.4285714285714,4,2,1,85,0,1
97886,-90.9090909090909,4,2,1,85,0,1
98131,-90.9090909090909,4,2,1,5,0,1
98212,-90.9090909090909,4,2,1,85,0,1
99435,-90.9090909090909,4,2,1,5,0,1
99517,-90.9090909090909,4,2,1,85,0,1
101799,-83.3333333333333,4,2,1,85,0,1
102941,-166.666666666667,4,2,1,85,0,1
103104,-83.3333333333333,4,2,1,60,0,0

[Colours]
Combo1 : 194,107,114
Combo2 : 101,75,79
Combo3 : 158,82,91
Combo4 : 116,96,144

[HitObjects]
13,214,1365,6,0,B|86:227|86:227|110:285|110:285|185:300,1,203.69999378357,4|0,0:1|0:0,0:0:0:0:
235,353,1691,1,8,2:2:0:0:
313,163,1854,2,0,P|286:165|269:184,1,48.5,0|0,3:3|3:3,0:0:0:0:
244,252,2017,1,0,3:3:0:0:
244,252,2098,1,0,3:3:0:0:
244,252,2180,1,8,1:2:0:0:
419,384,2343,2,0,L|428:331,1,48.5,0|0,3:3|3:3,0:0:0:0:
511,317,2506,2,0,L|502:264,1,48.5,0|0,3:3|3:3,0:0:0:0:
487,0,2669,6,0,B|506:53|506:53|485:92|485:92|507:153,1,160.050004884339,4|0,1:2|3:3,0:0:0:0:
456,207,2995,1,8,2:2:0:0:
292,309,3158,1,0,3:3:0:0:
306,349,3239,1,0,3:3:0:0:
347,363,3321,2,0,L|369:259,1,106.700003256226,2|0,3:2|1:1,0:0:0:0:
512,384,3647,1,8,2:2:0:0:
360,145,3810,5,0,1:1:0:0:
360,145,3892,1,0,1:1:0:0:
360,145,3973,2,0,B|369:105|402:90|402:90|263:113,1,213.400006512451,2|8,1:2|2:2,0:0:0:0:
67,260,4462,1,0,3:3:0:0:
109,251,4543,1,0,3:3:0:0:
123,210,4625,2,0,L|19:188,1,106.700003256226,2|0,3:2|1:1,0:0:0:0:
173,25,4951,1,8,2:2:0:0:
269,198,5114,1,0,1:1:0:0:
116,103,5278,6,0,P|170:115|191:192,1,130.949996003723,2|0,1:2|3:3,0:0:0:0:
187,259,5604,1,8,2:2:0:0:
378,306,5767,5,0,3:3:0:0:
378,306,5848,1,0,3:3:0:0:
378,306,5930,2,0,L|220:333,1,160.050004884339,2|0,3:2|0:0,0:0:0:0:
162,381,6256,1,8,2:2:0:0:
278,191,6419,5,0,1:1:0:0:
278,191,6500,1,0,1:1:0:0:
278,191,6582,2,0,L|476:225,1,189.149991341401,2|0,1:2|3:3,0:0:0:0:
512,288,6908,1,8,2:2:0:0:
499,35,7071,5,0,3:3:0:0:
499,35,7152,1,0,3:3:0:0:
499,35,7234,2,0,L|258:76,1,218.250008325577,2|0,3:2|0:0,0:0:0:0:
211,44,7560,1,8,2:2:0:0:
259,297,7723,5,0,1:1:0:0:
296,275,7805,1,0,1:1:0:0:
287,232,7886,2,0,B|210:217|210:217|205:220|205:220|107:200,1,160.050004884339,2|0,1:2|3:3,0:0:0:0:
90,137,8212,1,8,2:2:0:0:
0,367,8375,2,0,B|51:355|51:355|56:359|56:359|132:343,1,106.700003256226,2|0,3:2|3:3,0:0:0:0:
183,373,8620,1,0,3:3:0:0:
183,373,8701,1,0,1:1:0:0:
36,193,8864,1,8,2:2:0:0:
272,377,9028,6,0,L|337:365,1,53.3500016281128,2|2,1:2|1:2,0:0:0:0:
499,221,9191,2,0,P|401:218|383:314,1,213.400006512451,2|8,1:2|2:2,0:0:0:0:
103,262,9680,2,0,L|208:280,1,106.700003256226,2|0,3:2|3:3,0:0:0:0:
287,295,9924,1,0,3:3:0:0:
287,295,10006,1,0,1:1:0:0:
376,116,10169,2,0,L|270:134,1,106.700003256226,10|0,2:2|1:1,0:0:0:0:
0,0,10495,6,0,B|53:8|53:8|84:57|84:57|159:70,1,160.050004884339,2|0,1:2|3:3,0:0:0:0:
209,56,10821,1,8,2:2:0:0:
470,17,10984,2,0,L|364:35,1,106.700003256226,2|0,3:2|3:3,0:0:0:0:
290,48,11229,1,0,3:3:0:0:
290,48,11310,1,0,1:1:0:0:
119,162,11473,5,10,2:2:0:0:
255,194,11636,1,0,1:1:0:0:
392,227,11799,1,2,1:2:0:0:
108,304,11962,5,0,3:3:0:0:
108,304,12044,1,2,3:2:0:0:
108,304,12125,1,8,2:2:0:0:
255,194,12288,1,2,3:2:0:0:
404,82,12451,5,2,3:2:0:0:
131,65,12614,1,0,1:1:0:0:
203,273,12778,1,10,2:2:0:0:
344,169,12941,1,2,1:2:0:0:
3,62,13104,6,0,B|33:55|44:31|44:31|26:138,1,160.050004884339,4|0,1:2|3:3,0:0:0:0:
18,205,13430,1,8,2:2:0:0:
203,42,13593,1,0,3:3:0:0:
184,4,13674,1,0,3:3:0:0:
143,15,13756,2,0,L|160:120,1,106.700003256226,2|0,3:2|1:1,0:0:0:0:
318,23,14082,1,8,2:2:0:0:
103,211,14245,5,0,1:1:0:0:
103,211,14327,1,0,1:1:0:0:
103,211,14408,2,0,B|155:181|215:205|186:258|243:282|297:248,1,213.400006512451,2|8,1:2|2:2,0:0:0:0:
80,339,14897,1,0,3:3:0:0:
96,376,14979,1,0,3:3:0:0:
139,381,15060,2,0,P|178:345|231:342,1,106.700003256226,2|0,3:2|1:1,0:0:0:0:
350,173,15386,1,8,2:2:0:0:
471,384,15549,1,0,1:1:0:0:
421,220,15712,6,0,L|394:377,1,130.949996003723,2|0,1:2|3:3,0:0:0:0:
327,372,16039,1,8,2:2:0:0:
270,171,16202,5,0,3:3:0:0:
270,171,16283,1,0,3:3:0:0:
270,171,16364,2,0,P|307:103|384:99,1,160.050004884339,2|0,3:2|0:0,0:0:0:0:
444,144,16691,1,8,2:2:0:0:
172,209,16854,5,0,1:1:0:0:
172,209,16935,1,0,1:1:0:0:
172,209,17017,2,0,P|128:142|191:59,1,189.149991341401,2|0,1:2|3:3,0:0:0:0:
259,45,17343,1,8,2:2:0:0:
129,302,17506,5,0,3:3:0:0:
129,302,17587,1,0,3:3:0:0:
129,302,17669,2,0,P|53:303|22:163,1,218.250008325577,2|0,3:2|0:0,0:0:0:0:
47,120,17995,1,8,2:2:0:0:
246,301,18158,5,0,1:1:0:0:
246,301,18239,1,0,1:1:0:0:
246,301,18321,2,0,B|296:309|296:309|330:358|330:358|405:371,1,160.050004884339,2|0,1:2|3:3,0:0:0:0:
456,375,18647,1,8,2:2:0:0:
296,190,18810,1,2,3:2:0:0:
275,152,18891,1,0,3:3:0:0:
309,126,18973,2,0,B|363:136|363:136|397:195,1,106.700003256226,0|0,3:3|1:1,0:0:0:0:
379,366,19299,1,8,2:2:0:0:
154,195,19462,6,0,L|209:205,1,53.3500016281128,2|2,1:2|1:2,0:0:0:0:
466,268,19625,2,1,B|480:241|513:240|513:240|461:205|435:259|413:239|427:303|342:278,1,213.400006512451,2|8,1:2|2:2,0:0:0:0:
173,384,20114,2,0,L|193:269,1,106.700003256226,2|0,3:2|3:3,0:0:0:0:
206,204,20359,1,0,3:3:0:0:
206,204,20441,1,0,1:1:0:0:
0,152,20604,2,0,P|18:257|18:257,1,106.700003256226,10|0,2:2|1:1,0:0:0:0:
92,31,20930,6,0,P|167:23|207:88,1,160.050004884339,2|0,1:2|3:3,0:0:0:0:
149,142,21256,1,8,2:2:0:0:
407,92,21419,2,0,P|331:84|291:149,1,160.050004884339,2|0,3:2|3:3,0:0:0:0:
349,203,21745,1,0,1:1:0:0:
206,288,21908,6,0,L|96:267,1,106.700003256226,10|0,2:2|1:1,0:0:0:0:
86,194,22153,1,0,1:1:0:0:
86,194,22234,1,0,1:1:0:0:
235,365,22397,2,0,L|345:344,1,106.700003256226,2|8,3:2|2:2,0:0:0:0:
260,190,22723,5,0,3:3:0:0:
260,190,22805,1,0,3:3:0:0:
260,190,22886,1,0,3:3:0:0:
217,185,22968,1,0,3:3:0:0:
185,212,23049,1,0,1:1:0:0:
182,254,23131,1,0,3:3:0:0:
206,288,23212,2,0,L|270:277,1,53.3500016281128,10|0,2:2|3:3,0:0:0:0:
387,148,23375,2,0,L|323:137,1,53.3500016281128,2|0,1:2|1:1,0:0:0:0:
144,91,23538,6,0,B|201:81|201:81|235:32|235:32|291:22,1,174.599994671631,4|8,1:2|2:2,0:0:0:0:
460,82,24028,2,0,L|360:63,1,87.2999973358155,2|0,2:2|0:0,0:0:0:0:
440,209,24354,1,0,1:1:0:0:
335,139,24517,1,8,2:2:0:0:
335,139,24843,6,0,B|300:130|288:103|288:103|308:225,1,174.599994671631,0|8,1:1|2:2,0:0:0:0:
351,374,25332,2,0,P|391:359|408:320,1,87.2999973358155,2|0,2:2|0:0,0:0:0:0:
414,160,25658,1,2,1:2:0:0:
308,297,25821,1,10,2:2:0:0:
209,156,25984,1,2,1:2:0:0:
306,214,26147,5,0,1:1:0:0:
306,214,26473,1,8,2:2:0:0:
214,305,26636,2,0,L|127:289,1,87.2999973358155,2|0,2:2|0:0,0:0:0:0:
67,369,26962,1,0,1:1:0:0:
36,273,27125,1,8,2:2:0:0:
8,182,27288,1,2,2:2:0:0:
136,197,27451,5,0,1:1:0:0:
97,72,27614,2,0,P|66:38|20:35,1,87.2999973358155,2|8,2:2|2:2,0:0:0:0:
183,117,27941,2,0,P|213:83|260:80,1,87.2999973358155,2|0,2:2|0:0,0:0:0:0:
274,178,28267,1,0,1:1:0:0:
373,86,28430,1,8,2:2:0:0:
483,213,28593,1,0,1:1:0:0:
274,178,28756,6,0,L|445:146,1,174.599994671631,2|8,1:2|2:2,0:0:0:0:
265,0,29245,2,0,L|350:15,1,87.2999973358155,2|0,2:2|0:0,0:0:0:0:
215,91,29571,1,0,1:1:0:0:
126,0,29734,1,10,2:2:0:0:
130,183,29897,6,0,L|215:167,1,87.2999973358155,2|0,2:2|1:1,0:0:0:0:
55,136,30223,2,0,L|-1:69,1,87.2999973358155,2|8,2:2|2:2,0:0:0:0:
55,221,30549,2,0,L|25:303,1,87.2999973358155,2|2,2:2|2:2,0:0:0:0:
136,384,30875,1,2,1:2:0:0:
226,234,31038,1,10,2:2:0:0:
123,298,31201,1,2,1:2:0:0:
344,384,31364,5,2,1:2:0:0:
208,322,31528,2,0,L|293:306,1,87.2999973358155,2|8,2:2|2:2,0:0:0:0:
472,290,31854,2,0,B|415:280|415:280|384:232|384:232|325:221,1,174.599994671631,2|0,2:2|1:1,0:0:0:0:
305,83,32343,1,8,2:2:0:0:
305,83,32669,5,0,1:1:0:0:
235,203,32832,1,2,2:2:0:0:
235,203,32913,1,0,0:0:0:0:
235,203,32995,1,8,2:2:0:0:
165,324,33158,2,0,B|167:353|197:369|197:369|83:346,1,174.599994671631,2|0,2:2|1:1,0:0:0:0:
3,201,33647,1,10,2:2:0:0:
100,270,33810,1,2,1:2:0:0:
193,114,33973,6,0,P|111:113|91:192,1,174.599994671631,2|8,1:2|2:2,0:0:0:0:
82,348,34462,2,0,L|167:367,1,87.2999973358155,2|0,2:2|0:0,0:0:0:0:
318,269,34788,1,0,1:1:0:0:
415,369,34951,1,8,2:2:0:0:
415,369,35278,6,0,L|244:330,1,174.599994671631,0|10,1:1|2:2,0:0:0:0:
427,288,35767,2,0,L|512:307,1,87.2999973358155,2|0,2:2|0:0,0:0:0:0:
455,148,36093,1,2,1:2:0:0:
318,269,36256,1,10,2:2:0:0:
316,84,36419,1,2,1:2:0:0:
376,204,36582,1,0,1:1:0:0:
376,204,36908,5,8,2:2:0:0:
204,237,37071,2,0,B|187:223|187:223|209:148,1,87.2999973358155,2|0,2:2|0:0,0:0:0:0:
113,104,37397,1,2,1:2:0:0:
226,80,37560,1,10,2:2:0:0:
307,153,37723,1,2,2:2:0:0:
298,35,37886,6,0,B|252:36|227:81|227:81|231:31|194:9,1,174.599994671631,0|8,1:1|2:2,0:0:0:0:
205,160,38375,2,0,L|175:267,1,87.2999973358155,2|0,2:2|0:0,0:0:0:0:
95,363,38701,1,0,1:1:0:0:
207,327,38864,1,8,2:2:0:0:
96,205,39028,1,0,1:1:0:0:
281,284,39191,6,0,B|323:262|376:285|349:334|394:346|432:332,1,174.599994671631,2|8,1:2|2:2,0:0:0:0:
509,129,39680,2,0,L|491:227,1,87.2999973358155,2|0,2:2|0:0,0:0:0:0:
358,308,40006,1,0,1:1:0:0:
511,364,40169,1,10,2:2:0:0:
395,156,40332,6,0,L|412:254,1,87.2999973358155,2|0,2:2|1:1,0:0:0:0:
329,97,40658,2,0,L|235:62,1,87.2999973358155,2|8,2:2|2:2,0:0:0:0:
414,72,40984,2,0,L|490:7,1,87.2999973358155,2|0,2:2|0:0,0:0:0:0:
395,156,41310,1,2,1:2:0:0:
317,0,41473,1,10,2:2:0:0:
263,173,41636,1,2,1:2:0:0:
70,15,41799,5,2,1:2:0:0:
173,116,41962,2,0,L|87:131,1,87.2999973358155,2|8,2:2|2:2,0:0:0:0:
32,289,42288,2,1,B|21:271|-4:272|-4:272|36:236|58:283|72:270|71:303|123:298,1,174.599994671631,2|0,2:2|1:1,0:0:0:0:
343,383,42778,1,8,2:2:0:0:
238,242,42941,1,0,3:3:0:0:
130,384,43104,6,0,P|151:380|169:368,1,43.6499986679078,0|0,1:1|0:0,0:0:0:0:
254,364,43267,2,0,P|261:343|260:321,1,43.6499986679078,0|0,1:1|0:0,0:0:0:0:
351,286,43430,2,0,P|336:269|317:259,1,43.6499986679078,8|0,2:2|0:0,0:0:0:0:
203,60,43593,1,0,3:3:0:0:
210,94,43674,1,0,3:3:0:0:
217,129,43756,1,0,3:3:0:0:
222,164,43837,1,0,3:3:0:0:
229,199,43919,2,0,L|241:260,1,43.6499986679078,8|0,2:2|0:0,0:0:0:0:
130,384,44082,1,0,3:3:0:0:
130,384,44163,1,0,3:3:0:0:
130,384,44245,2,0,L|138:341,1,43.6499986679078,2|0,3:2|3:3,0:0:0:0:
0,194,44408,5,4,1:2:0:0:
40,152,44489,1,0,0:0:0:0:
82,112,44571,1,2,3:2:0:0:
124,72,44652,1,2,3:2:0:0:
165,31,44734,1,10,2:2:0:0:
176,76,44815,1,0,0:0:0:0:
187,121,44897,1,2,3:2:0:0:
198,166,44978,1,2,3:2:0:0:
209,211,45060,1,2,3:2:0:0:
187,203,45141,1,2,3:2:0:0:
162,196,45223,1,2,1:2:0:0:
137,190,45304,1,2,0:0:0:0:
114,182,45386,1,10,2:2:0:0:
249,11,45549,1,2,1:2:0:0:
470,114,45712,5,0,1:1:0:0:
427,154,45793,1,2,2:2:0:0:
386,194,45875,1,2,3:2:0:0:
344,235,45956,1,0,3:3:0:0:
302,276,46038,1,10,2:2:0:0:
293,231,46119,1,2,0:0:0:0:
282,186,46201,1,2,3:2:0:0:
270,141,46282,1,2,3:2:0:0:
259,96,46364,1,2,3:2:0:0:
286,105,46445,1,2,3:2:0:0:
313,115,46527,1,2,1:2:0:0:
339,126,46608,1,2,2:2:0:0:
365,139,46691,1,10,2:2:0:0:
350,153,46773,1,2,2:2:0:0:
335,168,46854,1,2,1:2:0:0:
512,319,47017,6,0,B|464:293|413:312|438:358|391:386|339:359,1,194,2|8,1:2|2:2,0:0:0:0:
282,186,47506,1,2,2:2:0:0:
282,186,47587,1,0,0:0:0:0:
282,186,47669,2,0,P|323:197|330:258,1,97,0|0,0:0|1:1,0:0:0:0:
211,374,47995,1,10,2:2:0:0:
0,199,48158,6,0,L|95:182,1,97,2|0,1:2|1:1,0:0:0:0:
272,303,48484,2,0,L|176:286,1,97,2|8,2:2|2:2,0:0:0:0:
91,109,48810,1,2,2:2:0:0:
129,110,48891,1,0,1:2:0:0:
159,134,48973,1,0,1:2:0:0:
173,170,49054,1,0,1:2:0:0:
166,209,49136,1,2,1:2:0:0:
127,365,49299,1,10,2:2:0:0:
249,202,49462,1,2,1:2:0:0:
469,384,49625,5,0,1:1:0:0:
487,344,49706,1,2,2:2:0:0:
483,301,49788,1,2,3:2:0:0:
459,266,49869,1,2,3:2:0:0:
420,247,49951,1,10,2:2:0:0:
377,250,50032,1,2,0:0:0:0:
341,274,50114,1,2,3:2:0:0:
322,313,50195,1,2,3:2:0:0:
324,356,50278,1,2,3:2:0:0:
300,320,50359,1,2,3:2:0:0:
300,265,50441,1,2,1:2:0:0:
326,220,50522,1,2,2:2:0:0:
373,191,50604,1,10,2:2:0:0:
426,190,50685,1,2,0:0:0:0:
475,216,50767,1,2,1:2:0:0:
504,263,50848,1,2,1:2:0:0:
506,317,50930,1,2,1:2:0:0:
398,117,51093,1,2,3:2:0:0:
238,365,51256,5,10,2:2:0:0:
196,358,51337,1,2,2:2:0:0:
153,350,51419,1,2,3:2:0:0:
110,343,51500,1,0,3:3:0:0:
67,335,51582,1,2,3:2:0:0:
119,295,51663,1,2,3:2:0:0:
170,251,51745,1,2,1:2:0:0:
222,208,51826,1,2,2:2:0:0:
273,164,51908,1,10,2:2:0:0:
241,157,51989,1,2,0:0:0:0:
212,151,52071,2,0,L|153:136,1,48.5,2|0,1:2|1:1,0:0:0:0:
0,17,52234,6,0,B|52:32|52:32|77:181,1,194,2|8,1:2|2:2,0:0:0:0:
74,343,52723,1,2,2:2:0:0:
74,343,52805,1,0,0:0:0:0:
73,342,52886,2,0,P|118:328|145:289,1,97,0|0,0:0|1:1,0:0:0:0:
164,139,53212,1,10,2:2:0:0:
43,253,53375,1,2,1:2:0:0:
281,369,53538,5,2,1:2:0:0:
311,194,53701,2,0,L|330:75,1,97,2|8,2:2|2:2,0:0:0:0:
398,328,54028,1,2,2:2:0:0:
236,278,54191,1,2,2:2:0:0:
236,278,54272,1,0,0:0:0:0:
236,278,54354,2,0,L|217:159,1,97,0|8,1:1|2:2,0:0:0:0:
407,240,54680,1,2,1:2:0:0:
149,281,54843,5,4,1:2:0:0:
132,256,54924,1,2,0:0:0:0:
106,236,55006,1,2,3:2:0:0:
76,231,55087,1,2,3:2:0:0:
43,234,55169,2,0,P|21:245|13:263,3,29.0999991119385,8|2|2|2,2:2|0:0|3:2|3:2,0:0:0:0:
74,317,55495,5,2,3:2:0:0:
91,342,55576,1,0,3:3:0:0:
117,362,55658,1,2,1:2:0:0:
147,367,55739,1,2,2:2:0:0:
180,364,55821,2,0,P|201:352|210:334,3,29.0999991119385,10|2|2|2,2:2|0:0|1:2|1:2,0:0:0:0:
236,278,56147,5,2,1:2:0:0:
368,69,56310,1,2,3:2:0:0:
328,44,56392,1,2,3:2:0:0:
289,71,56473,2,0,L|299:124,3,29.0999991119385,10|2|2|2,2:2|0:0|3:2|3:2,0:0:0:0:
387,185,56799,1,2,3:2:0:0:
391,210,56880,1,2,3:2:0:0:
395,234,56962,1,2,1:2:0:0:
399,257,57043,1,2,0:0:0:0:
403,284,57125,2,0,L|408:316,3,29.0999991119385,10|2|2|2,2:2|2:2|1:2|1:2,0:0:0:0:
419,384,57451,5,2,1:2:0:0:
381,154,57614,1,2,2:2:0:0:
341,129,57696,1,0,0:0:0:0:
302,156,57778,2,0,L|315:225,1,58.199998223877,10|0,2:2|0:0,0:0:0:0:
330,363,57941,1,2,2:2:0:0:
330,363,58022,1,0,0:0:0:0:
329,363,58104,2,0,P|304:349|294:323,1,58.199998223877,2|0,2:2|0:0,0:0:0:0:
167,280,58267,2,0,P|167:252|183:229,1,58.199998223877,2|0,1:2|0:0,0:0:0:0:
312,214,58430,1,10,2:2:0:0:
182,43,58593,5,2,1:2:0:0:
182,43,58674,1,0,1:1:0:0:
182,43,58756,1,2,1:2:0:0:
142,22,58837,1,2,2:2:0:0:
101,27,58919,1,2,2:2:0:0:
74,57,59000,1,2,2:2:0:0:
72,97,59082,2,0,L|130:107,1,58.199998223877,10|0,2:2|0:0,0:0:0:0:
223,209,59245,1,2,2:2:0:0:
223,209,59326,1,2,2:2:0:0:
223,209,59408,1,2,2:2:0:0:
178,215,59489,1,2,0:0:0:0:
134,224,59571,1,2,1:2:0:0:
90,232,59652,1,2,2:2:0:0:
51,247,59734,1,8,2:2:0:0:
51,247,59816,1,2,0:0:0:0:
51,247,59897,1,2,1:2:0:0:
225,317,60060,5,0,1:1:0:0:
246,335,60141,1,2,2:2:0:0:
275,345,60223,1,2,3:2:0:0:
304,342,60304,1,0,3:3:0:0:
331,330,60386,1,10,2:2:0:0:
351,307,60467,1,2,2:2:0:0:
361,280,60549,1,2,3:2:0:0:
360,250,60630,1,0,3:3:0:0:
352,211,60712,6,0,L|303:219,1,48.5,2|2,3:2|3:2,0:0:0:0:
387,128,60875,2,0,L|435:119,1,48.5,2|2,1:2|0:0,0:0:0:0:
272,145,61038,6,0,L|223:136,1,48.5,10|2,2:2|2:2,0:0:0:0:
462,195,61201,2,0,L|510:203,1,48.5,2|0,1:2|1:1,0:0:0:0:
227,50,61364,5,2,1:2:0:0:
190,32,61445,1,2,2:2:0:0:
152,38,61527,1,2,3:2:0:0:
121,62,61608,1,0,3:3:0:0:
109,99,61690,1,10,2:2:0:0:
96,133,61772,1,2,2:2:0:0:
65,157,61854,1,2,3:2:0:0:
27,161,61936,1,0,3:3:0:0:
0,145,62017,2,0,L|8:97,1,48.5,2|2,3:2|3:2,0:0:0:0:
191,118,62180,1,2,1:2:0:0:
191,118,62261,1,2,0:0:0:0:
191,118,62343,2,0,L|203:188,1,48.5,10|2,2:2|2:2,0:0:0:0:
36,79,62506,2,0,L|48:8,1,48.5,2|0,1:2|1:1,0:0:0:0:
244,14,62669,6,0,P|282:38|293:96,1,97,2|2,1:2|2:2,0:0:0:0:
291,164,62913,1,2,2:2:0:0:
291,164,62995,1,8,2:2:0:0:
208,313,63158,2,0,L|316:294,1,97,2|2,2:2|0:0,0:0:0:0:
512,362,63484,1,2,1:2:0:0:
388,189,63647,1,10,2:2:0:0:
318,384,63810,1,2,1:2:0:0:
509,187,63973,5,2,1:2:0:0:
416,364,64136,1,2,2:2:0:0:
416,364,64218,1,2,2:2:0:0:
416,364,64299,1,8,2:2:0:0:
265,222,64462,1,2,2:2:0:0:
216,224,64543,1,0,1:2:0:0:
180,256,64625,1,2,1:2:0:0:
171,302,64706,1,0,1:2:0:0:
191,345,64788,1,2,1:2:0:0:
338,384,64951,1,10,2:2:0:0:
261,304,65114,5,2,1:2:0:0:
261,304,65196,1,0,0:0:0:0:
261,304,65278,1,4,1:2:0:0:
97,373,65441,2,0,L|85:301,1,72.7500027751924,2|8,2:2|2:2,0:0:0:0:
17,203,65767,2,0,L|5:275,1,72.7500027751924,2|0,2:2|0:0,0:0:0:0:
108,177,66093,1,2,1:2:0:0:
171,302,66256,1,10,2:2:0:0:
171,302,66419,1,2,2:2:0:0:
279,145,66582,5,2,1:2:0:0:
189,165,66745,1,2,2:2:0:0:
229,249,66908,1,10,2:2:0:0:
319,228,67071,1,2,2:2:0:0:
398,58,67234,5,2,2:2:0:0:
361,159,67397,1,2,1:2:0:0:
470,175,67560,1,10,2:2:0:0:
317,26,67723,6,0,L|245:38,1,72.7500027751924,2|0,1:2|1:1,0:0:0:0:
110,0,68049,1,2,2:2:0:0:
110,0,68212,1,10,2:2:0:0:
37,108,68375,1,2,2:2:0:0:
168,61,68538,1,2,2:2:0:0:
170,226,68701,1,2,1:2:0:0:
170,226,68864,1,10,2:2:0:0:
37,196,69028,1,2,1:2:0:0:
181,139,69191,6,0,L|172:91,1,48.5000018501283,8|0,2:2|0:0,0:0:0:0:
249,274,69408,2,0,L|240:321,1,48.5000018501283,8|0,2:2|0:0,0:0:0:0:
332,159,69625,2,0,L|340:111,1,48.5000018501283,8|0,2:2|0:0,0:0:0:0:
128,284,69843,6,0,P|143:250|170:227,1,74.3666680850983,8|0,2:2|0:0,0:0:0:0:
233,31,70060,2,0,P|255:58|259:96,1,74.3666680850983,8|0,2:2|0:0,0:0:0:0:
395,256,70278,2,0,P|356:259|323:245,1,74.3666680850983,8|0,2:2|0:0,0:0:0:0:
253,190,70495,5,4,0:1:0:0:
125,350,71310,6,0,L|119:322,1,29.0999991119385,2|0,2:2|0:0,0:0:0:0:
50,263,71473,2,0,L|45:291,1,29.0999991119385,2|0,2:2|0:0,0:0:0:0:
178,274,71636,2,0,L|172:246,1,29.0999991119385,2|0,2:2|0:0,0:0:0:0:
131,19,71799,6,0,B|93:51|85:108|85:108|68:51|23:32,1,203.69999378357,4|0,1:2|0:0,0:0:0:0:
44,170,72125,2,0,P|98:186|145:155,1,116.399996447754,10|0,2:2|0:0,0:0:0:0:
341,39,72451,1,2,2:2:0:0:
358,263,72614,2,0,P|303:279|256:248,1,116.399996447754,2|8,1:2|2:2,0:0:0:0:
254,52,72941,6,0,L|233:166,1,116.399996447754,2|0,2:2|1:1,0:0:0:0:
436,240,73267,1,2,2:2:0:0:
329,116,73430,1,10,2:2:0:0:
180,233,73593,2,0,L|199:355,1,116.399996447754,2|0,2:2|0:0,0:0:0:0:
296,223,73919,1,2,1:2:0:0:
146,56,74082,1,10,2:2:0:0:
62,260,74245,1,2,1:2:0:0:
329,78,74408,5,2,1:2:0:0:
395,220,74571,1,2,2:2:0:0:
113,184,74734,2,0,B|173:172|173:172|202:126|202:126|272:112,1,174.599994671631,10|0,2:2|0:0,0:0:0:0:
326,158,75060,1,2,2:2:0:0:
191,288,75223,1,2,1:2:0:0:
329,78,75386,1,10,2:2:0:0:
510,340,75549,6,0,P|449:343|420:290,1,116.399996447754,2|0,2:2|1:1,0:0:0:0:
329,78,75875,1,2,2:2:0:0:
492,188,76038,1,10,2:2:0:0:
327,363,76201,2,0,L|344:223,1,116.399996447754,2|0,2:2|0:0,0:0:0:0:
490,51,76528,2,0,P|457:51|437:75,1,58.199998223877,2|0,1:2|0:0,0:0:0:0:
339,26,76691,2,0,P|322:54|333:83,1,58.199998223877,10|0,2:2|0:0,0:0:0:0:
161,161,76854,5,2,1:2:0:0:
143,190,76935,1,0,1:1:0:0:
157,221,77017,2,0,B|209:247|275:216|244:169|314:139|371:165,1,232.799992895508,4|8,1:2|2:2,0:0:0:0:
490,51,77506,2,0,P|457:51|437:75,1,58.199998223877,2|2,2:2|2:2,0:0:0:0:
481,273,77669,2,0,B|444:281|430:312|430:312|449:126,1,232.799992895508,2|8,2:2|2:2,0:0:0:0:
339,26,78158,6,0,P|322:54|333:83,1,58.199998223877,2|2,2:2|2:2,0:0:0:0:
481,273,78321,1,0,1:1:0:0:
439,67,78484,1,2,2:2:0:0:
364,238,78647,5,10,2:2:0:0:
238,107,78810,1,2,2:2:0:0:
115,338,78973,5,2,2:2:0:0:
234,218,79136,1,2,1:2:0:0:
379,384,79299,5,10,2:2:0:0:
249,323,79462,2,0,B|241:272|241:272|242:267|242:267|232:209,1,106.700003256226,2|0,1:2|1:1,0:0:0:0:
138,20,79788,2,0,B|150:97|150:97|153:101|153:101|166:177,1,160.050004884339,2|0,2:2|0:0,0:0:0:0:
103,223,80114,1,2,2:2:0:0:
43,59,80278,1,2,2:2:0:0:
247,35,80441,1,2,1:2:0:0:
234,218,80604,1,10,2:2:0:0:
8,284,80767,5,2,2:2:0:0:
8,284,80848,1,0,0:0:0:0:
8,284,80930,1,0,1:1:0:0:
187,366,81093,2,0,L|170:261,1,106.700003256226,2|8,1:2|2:2,0:0:0:0:
282,30,81419,5,2,3:2:0:0:
310,31,81500,1,0,3:3:0:0:
327,54,81582,2,0,L|313:128,1,58.199998223877,2|0,3:2|3:3,0:0:0:0:
512,199,81745,2,0,L|501:141,1,58.199998223877,10|0,2:2|0:0,0:0:0:0:
245,232,81908,5,2,3:2:0:0:
247,295,81989,1,0,3:3:0:0:
298,333,82071,1,2,3:2:0:0:
360,323,82152,1,0,3:3:0:0:
403,275,82234,2,0,B|419:249|419:249|403:148,1,116.399996447754,4|0,1:2|0:0,0:0:0:0:
63,195,82560,6,1,B|49:168|16:167|16:167|68:132|94:186|116:166|102:230|187:205,1,225.525001720619,10|0,2:2|0:0,0:0:0:0:
243,195,82886,1,2,2:2:0:0:
140,16,83049,2,0,P|84:20|61:71,1,116.399996447754,2|8,1:2|2:2,0:0:0:0:
307,104,83375,6,0,B|333:77|333:77|344:-1,1,116.399996447754,2|0,2:2|1:1,0:0:0:0:
469,240,83701,1,2,2:2:0:0:
243,195,83864,1,10,2:2:0:0:
444,32,84028,2,0,B|417:58|417:58|406:137,1,116.399996447754,2|0,2:2|0:0,0:0:0:0:
294,366,84354,1,2,1:2:0:0:
468,316,84517,1,10,2:2:0:0:
346,192,84680,1,2,1:2:0:0:
146,279,84843,5,2,1:2:0:0:
230,82,85006,1,2,2:2:0:0:
427,316,85169,2,0,B|376:342|310:311|341:264|271:234|219:257,1,232.8,10|0,2:2|0:0,0:0:0:0:
146,279,85495,1,2,2:2:0:0:
70,72,85658,1,2,1:2:0:0:
258,170,85821,1,10,2:2:0:0:
114,358,85984,6,0,L|0:337,1,116.399996447754,2|0,2:2|1:1,0:0:0:0:
154,119,86310,1,2,2:2:0:0:
211,333,86473,1,10,2:2:0:0:
25,222,86636,2,0,L|139:201,1,116.399996447754,2|0,2:2|0:0,0:0:0:0:
334,15,86962,1,2,1:2:0:0:
410,210,87125,1,10,2:2:0:0:
241,13,87288,6,0,P|220:31|214:61,1,58.199998223877,2|0,1:2|1:1,0:0:0:0:
322,206,87451,2,0,B|287:216|273:247|273:247|289:81,1,232.799992895508,4|8,1:2|2:2,0:0:0:0:
392,294,87941,6,0,P|376:318|351:331,1,58.199998223877,2|2,2:2|2:2,0:0:0:0:
155,336,88104,2,0,B|192:344|206:375|206:375|189:209,1,232.799992895508,2|8,2:2|2:2,0:0:0:0:
4,301,88594,1,2,2:2:0:0:
126,24,88756,5,2,1:2:0:0:
72,233,88919,1,2,2:2:0:0:
301,207,89082,5,10,2:2:0:0:
219,19,89245,1,2,2:2:0:0:
56,62,89408,5,2,2:2:0:0:
187,232,89571,1,2,1:2:0:0:
292,41,89734,1,10,2:2:0:0:
476,184,89897,2,0,L|371:164,1,106.700003256226,2|0,1:2|1:1,0:0:0:0:
180,339,90223,2,0,L|285:320,1,106.700003256226,2|8,2:2|2:2,0:0:0:0:
255,135,90549,5,2,2:2:0:0:
403,345,90712,1,2,2:2:0:0:
371,164,90875,5,2,1:2:0:0:
284,320,91038,1,10,2:2:0:0:
330,245,91201,5,2,2:2:0:0:
330,245,91283,1,0,0:0:0:0:
330,245,91364,1,0,1:1:0:0:
180,339,91528,2,0,P|116:312|124:235,1,145.5,2|0,1:2|0:0,0:0:0:0:
66,85,91854,6,0,P|93:96|113:119,1,58.199998223877,2|0,3:2|3:3,0:0:0:0:
275,154,92017,2,0,P|251:171|221:177,1,58.199998223877,2|0,3:2|3:3,0:0:0:0:
111,300,92180,2,0,P|107:271|117:241,1,58.199998223877,10|0,2:2|0:0,0:0:0:0:
198,91,92343,1,2,3:2:0:0:
232,51,92424,1,0,3:3:0:0:
284,45,92506,2,0,P|312:52|331:72,1,58.199998223877,2|0,3:2|3:3,0:0:0:0:
366,251,92669,5,6,1:2:0:0:
443,29,92832,1,2,2:2:0:0:
424,57,92913,1,2,2:2:0:0:
435,88,92995,2,0,L|448:156,1,48.5,10|2,2:2|0:0,0:0:0:0:
488,283,93158,1,2,1:2:0:0:
275,154,93321,1,2,2:2:0:0:
259,177,93402,1,2,2:2:0:0:
268,210,93484,2,0,L|255:278,1,48.5,2|0,1:2|0:0,0:0:0:0:
94,375,93647,5,10,2:2:0:0:
33,364,93728,1,2,2:2:0:0:
0,312,93810,1,2,1:2:0:0:
15,252,93892,1,2,1:2:0:0:
69,227,93973,2,0,P|104:225|128:249,1,58.199998223877,2|0,1:2|0:0,0:0:0:0:
209,350,94136,2,0,P|232:365|261:363,1,58.199998223877,2|2,2:2|2:2,0:0:0:0:
488,342,94299,5,10,2:2:0:0:
467,286,94380,1,2,2:2:0:0:
447,232,94462,1,2,1:2:0:0:
427,177,94543,1,2,0:0:0:0:
390,222,94625,1,2,2:2:0:0:
353,266,94707,1,2,2:2:0:0:
321,313,94788,2,0,L|379:325,1,43.6499986679078,2|0,1:2|0:0,0:0:0:0:
505,81,94951,6,0,L|447:69,1,58.199998223877,10|2,2:2|2:2,0:0:0:0:
216,226,95114,2,0,L|273:237,1,58.199998223877,2|2,1:2|1:2,0:0:0:0:
467,286,95278,1,2,1:2:0:0:
344,55,95441,5,2,2:2:0:0:
298,34,95522,1,2,2:2:0:0:
251,46,95604,1,10,2:2:0:0:
222,85,95685,1,2,2:2:0:0:
224,137,95767,2,0,L|281:148,1,58.199998223877,2|0,1:2|0:0,0:0:0:0:
135,310,95930,1,2,0:0:0:0:
85,332,96011,1,2,0:0:0:0:
33,319,96093,1,2,1:2:0:0:
1,276,96174,1,2,2:2:0:0:
7,223,96256,2,0,L|64:212,1,58.199998223877,10|2,2:2|0:0,0:0:0:0:
0,46,96419,1,2,1:2:0:0:
139,231,96582,6,0,L|196:220,1,58.199998223877,2|0,1:2|0:0,0:0:0:0:
407,228,96745,1,2,2:2:0:0:
470,216,96826,1,2,2:2:0:0:
512,263,96908,1,10,2:2:0:0:
501,323,96989,1,2,2:2:0:0:
447,354,97071,2,0,L|361:337,1,58.199998223877,2|0,1:2|0:0,0:0:0:0:
306,114,97234,1,2,0:0:0:0:
237,100,97315,1,2,0:0:0:0:
184,151,97397,1,2,1:2:0:0:
197,220,97478,1,2,2:2:0:0:
263,246,97560,2,0,L|342:231,1,67.8999979278565,8|0,2:2|0:0,0:0:0:0:
460,25,97723,5,0,1:1:0:0:
480,67,97805,1,0,1:1:0:0:
457,96,97886,2,0,B|404:84|404:84|380:41|380:41|320:29,1,160.050004884339,4|0,1:2|0:0,0:0:0:0:
252,15,98212,1,10,2:2:0:0:
129,198,98375,2,0,B|121:229|121:229|148:309,1,106.700003256226,2|0,2:2|0:0,0:0:0:0:
226,170,98701,1,2,1:2:0:0:
97,60,98864,1,10,2:2:0:0:
18,208,99028,1,2,2:2:0:0:
239,316,99191,6,0,B|290:306|290:306|319:260|319:260|371:249,1,160.050004884339,2|0,1:2|0:0,0:0:0:0:
446,269,99517,1,10,2:2:0:0:
464,35,99680,2,0,P|414:30|379:74,1,106.700003256226,2|0,2:2|0:0,0:0:0:0:
371,248,100006,1,2,1:2:0:0:
218,145,100169,2,0,L|323:126,1,106.700003256226,10|0,2:2|1:1,0:0:0:0:
158,0,100495,5,2,1:2:0:0:
105,181,100658,1,2,2:2:0:0:
338,5,100821,2,0,L|232:23,1,106.700003256226,10|0,2:2|0:0,0:0:0:0:
0,192,101147,1,2,2:2:0:0:
163,95,101310,1,2,1:2:0:0:
0,0,101473,1,10,2:2:0:0:
252,173,101636,5,2,1:2:0:0:
238,57,101799,1,0,1:1:0:0:
273,294,101962,1,2,2:2:0:0:
273,294,102044,1,2,2:2:0:0:
273,294,102125,1,10,2:2:0:0:
307,154,102288,6,0,L|364:165,1,58.199998223877,2|2,2:2|2:2,0:0:0:0:
199,179,102451,2,0,L|141:167,1,58.199998223877,2|2,2:2|2:2,0:0:0:0:
429,111,102614,6,0,L|488:99,1,58.199998223877,2|2,1:2|2:2,0:0:0:0:
98,231,102778,2,0,L|38:242,1,58.199998223877,10|2,2:2|2:2,0:0:0:0:
253,174,102941,2,0,L|257:147,4,14.5499995559693,2|2|2|2|4,2:2|0:0|2:2|0:0|2:2,0:0:0:0:
