osu file format v14

[General]
AudioFilename: audio.mp3
AudioLeadIn: 0
PreviewTime: 43697
Countdown: 1
SampleSet: None
StackLeniency: 0.2
Mode: 0
LetterboxInBreaks: 0
WidescreenStoryboard: 0
SamplesMatchPlaybackRate: 1

[Editor]
DistanceSpacing: 1.4
BeatDivisor: 4
GridSize: 4
TimelineZoom: 1.9

[Metadata]
Title:A Sister's All You Need
TitleUnicode:A Sister's All You Need
Artist:Yomi Hirasaka
ArtistUnicode:Yomi Hirasaka
Creator:kiritoxasuna420
Version:Hard
Source:Imōto Sae Ireba Ii
Tags:quiet music
BeatmapID:1488990
BeatmapSetID:690016

[Difficulty]
HPDrainRate:6
CircleSize:4
OverallDifficulty:5
ApproachRate:8
SliderMultiplier:1.4
SliderTickRate:1

[Events]
//Background and Video events
0,0,"a sister's all you need background 2.jpg",0,0
Video,0,"imouto.avi"
//Break Periods
2,11200,16149
//Storyboard Layer 0 (Background)
//Storyboard Layer 1 (Fail)
//Storyboard Layer 2 (Pass)
//Storyboard Layer 3 (Foreground)
//Storyboard Sound Samples

[TimingPoints]
11674.5414364641,337.078651685393,4,2,0,5,1,0

[Colours]
Combo1 : 1,254,14
Combo2 : 0,255,255
Combo3 : 0,255,255
Combo4 : 0,255,255
Combo5 : 0,255,255
Combo6 : 255,0,0

[HitObjects]
215,121,45,6,0,B|326:120|341:127|336:140,1,105,0|0,1:1|1:1,1:1:0:0:
407,157,550,1,0,1:1:0:0:
463,254,719,2,0,P|360:251|334:211,1,140,0|0,1:1|1:1,1:1:0:0:
296,165,1225,1,0,1:1:0:0:
216,80,1564,2,0,P|105:79|64:133,1,175,0|0,1:1|1:1,1:1:0:0:
150,308,2741,6,0,P|264:305|275:297,1,105,0|0,1:1|1:1,1:1:0:0:
313,381,3247,1,0,1:1:0:0:
394,348,3500,2,0,P|473:284|479:274,1,105,0|0,1:1|1:1,1:1:0:0:
424,196,3921,1,0,1:1:0:0:
435,106,4258,2,0,P|392:62|312:64,1,140,0|0,1:1|1:1,1:1:0:0:
179,63,5438,6,0,P|130:64|123:104,1,70,0|0,1:1|1:1,1:1:0:0:
121,77,5775,1,0,1:1:0:0:
114,275,6112,1,0,1:1:0:0:
185,340,6449,2,0,P|241:371|261:366,1,70,0|0,1:1|1:1,1:1:0:0:
386,301,6955,2,0,P|459:291|457:197,1,175,0|0,1:1|1:1,1:1:0:0:
397,141,7629,5,0,1:1:0:0:
320,83,7798,1,0,1:1:0:0:
226,29,8135,2,0,P|157:9|128:40,1,105,0|0,1:1|1:1,1:1:0:0:
77,161,8640,1,0,1:1:0:0:
94,262,8809,2,0,P|136:324|276:328,1,210,0|0,1:1|1:1,1:1:0:0:
256,192,9519,12,0,11000,0:0:0:0:
234,49,16899,6,0,P|120:75|119:83,1,140,0|0,1:1|1:1,1:1:0:0:
81,137,17489,2,0,P|87:197|110:197,2,70,0|0|0,1:1|1:1|1:1,1:1:0:0:
49,257,18163,2,0,P|108:329|119:331,1,105,0|0,1:1|1:1,1:1:0:0:
185,359,18668,2,0,P|245:377|296:365,1,105,0|0,1:1|1:1,1:1:0:0:
421,294,19258,6,0,P|482:237|467:164,1,140,0|0,1:1|1:1,1:1:0:0:
507,47,19932,2,0,P|489:6|430:1,1,105,0|0,1:1|1:1,1:1:0:0:
282,6,20438,2,0,P|236:6|199:33,1,70,0|0,1:1|1:1,1:1:0:0:
348,213,21955,6,0,P|364:178|289:123,1,140,0|0,1:1|1:1,1:1:0:0:
234,20,22545,2,0,P|155:22|118:51,1,105,0|0,1:1|1:1,1:1:0:0:
66,100,22966,2,0,P|110:145|90:221,1,140,0|0,1:1|1:1,1:1:0:0:
191,352,23725,2,0,P|248:299|348:360,1,210,0|0,1:1|1:1,1:1:0:0:
347,358,24314,1,0,1:1:0:0:
458,232,24652,6,0,P|470:189|457:164,1,70,0|0,1:1|1:1,1:1:0:0:
361,230,24989,2,0,P|354:155|424:118,1,140,0|0,1:1|1:1,1:1:0:0:
489,104,25494,2,0,P|494:53|401:26,1,140,0|0,1:1|1:1,1:1:0:0:
217,46,26168,6,0,B|162:73|193:144|107:182|91:107,1,175,0|0,1:1|1:1,1:1:0:0:
98,126,26674,2,0,P|59:176|92:259,1,140,0|0,1:1|1:1,1:1:0:0:
215,333,27348,2,0,P|266:359|299:349,1,70,0|0,1:1|1:1,1:1:0:0:
276,357,27601,2,0,P|303:256|352:309,1,210,0|0,1:1|1:1,1:1:0:0:
474,179,28444,5,0,1:1:0:0:
410,118,28612,1,0,1:1:0:0:
381,215,28781,1,0,1:1:0:0:
319,140,28949,2,0,P|273:100|226:138,1,105,0|0,1:1|1:1,1:1:0:0:
102,49,29371,6,0,B|81:108|59:75|73:199,1,140,0|0,1:1|1:1,1:1:0:0:
112,313,29961,1,0,1:1:0:0:
206,162,30213,1,0,1:1:0:0:
312,320,30466,1,0,1:1:0:0:
459,328,31225,6,0,P|477:291|459:260,1,70,0|0,1:1|1:1,1:1:0:0:
374,284,31562,2,0,P|349:235|423:134,1,175,0|0,1:1|1:1,1:1:0:0:
501,143,32826,6,0,P|472:70|408:64,1,140,0|0,1:1|1:1,1:1:0:0:
221,54,33668,2,0,P|174:87|187:110,1,70,0|0,1:1|1:1,1:1:0:0:
135,266,34427,2,0,P|199:326|301:271,1,210,0|0,1:1|1:1,1:1:0:0:
216,220,35101,1,0,1:1:0:0:
128,136,35438,5,0,1:1:0:0:
192,76,35607,1,0,1:1:0:0:
232,160,35775,1,0,1:1:0:0:
72,220,36112,2,0,P|92:272|139:293,1,105,0|0,1:1|1:1,1:1:0:0:
268,304,36618,6,0,P|343:298|368:237,1,140,0|0,1:1|1:1,1:1:0:0:
450,51,37461,2,0,P|349:41|291:80,1,175,0|0,1:1|1:1,1:1:0:0:
136,176,38219,1,0,1:1:0:0:
196,256,38388,1,0,1:1:0:0:
256,184,38556,1,0,1:1:0:0:
494,349,39062,5,0,1:1:0:0:
432,132,39399,2,0,P|416:92|344:96,1,105,0|0,1:1|1:1,1:1:0:0:
93,58,39989,6,0,P|49:118|64:186,1,140,0|0,1:1|1:1,1:1:0:0:
288,272,40831,1,0,1:1:0:0:
376,208,41000,1,0,1:1:0:0:
292,144,41168,1,0,1:1:0:0:
48,344,41674,2,0,P|128:348|176:304,1,140,0|0,1:1|1:1,1:1:0:0:
276,344,42180,6,0,P|328:344|348:312,1,70,0|0,1:1|1:1,1:1:0:0:
424,176,42685,2,0,P|424:108|372:40,1,140,0|0,1:1|1:1,1:1:0:0:
64,52,43949,5,0,1:1:0:0:
64,136,44118,1,0,1:1:0:0:
240,244,44371,1,0,1:1:0:0:
244,164,44539,1,0,1:1:0:0:
240,36,44792,1,0,1:1:0:0:
416,36,45045,2,0,P|448:48|444:80,1,70,0|0,1:1|1:1,1:1:0:0:
360,128,45382,2,0,P|352:172|368:200,1,70,0|0,1:1|1:1,1:1:0:0:
432,312,45888,6,0,P|356:364|328:344,1,140,0|0,1:1|1:1,1:1:0:0:
256,192,46646,12,0,48247,1:1:0:0:
172,152,48837,6,0,P|212:192|220:184,1,70,0|0,1:1|1:1,1:1:0:0:
256,192,49174,12,0,50522,1:1:0:0:
96,36,51281,6,0,P|60:84|76:160,1,140,0|0,1:1|1:1,1:1:0:0:
176,156,51955,2,0,P|184:220|116:308,1,175,0|0,1:1|1:1,1:1:0:0:
264,360,52629,2,0,P|356:372|360:368,1,105,0|0,1:1|1:1,1:1:0:0:
388,216,53219,2,0,P|372:144|424:132,1,140,0|0,1:1|1:1,1:1:0:0:
240,40,53893,2,0,P|172:40|136:104,1,140,0|0,1:1|1:1,1:1:0:0:
136,240,54314,2,0,P|168:264|204:256,2,70,0|0|0,1:1|1:1|1:1,1:1:0:0:
348,288,54989,6,0,P|412:284|420:268,1,70,0|0,1:1|1:1,1:1:0:0:
416,184,55326,2,0,P|408:128|380:104,1,70,0|0,1:1|1:1,1:1:0:0:
324,60,55663,2,0,P|240:60|236:64,1,70,0|0,1:1|1:1,1:1:0:0:
104,76,56674,2,0,P|64:120|68:140,1,70,0|0,1:1|1:1,1:1:0:0:
84,232,57011,2,0,P|48:260|64:296,1,70,0|0,1:1|1:1,1:1:0:0:
140,344,57432,2,0,P|208:360|264:348,1,105,0|0,1:1|1:1,1:1:0:0:
412,276,57938,6,0,P|400:252|424:200,1,70,0|0,1:1|1:1,1:1:0:0:
432,100,58359,2,0,P|380:92|316:64,1,105,0|0,1:1|1:1,1:1:0:0:
180,56,59118,2,0,P|108:64|88:120,1,140,0|0,1:1|1:1,1:1:0:0:
88,260,59708,2,0,P|128:304|212:304,1,140,0|0,1:1|1:1,1:1:0:0:
424,360,60550,6,0,P|464:328|456:304,1,70,0|0,1:1|1:1,1:1:0:0:
448,220,60888,2,0,P|496:184|488:160,1,70,0|0,1:1|1:1,1:1:0:0:
496,96,61225,2,0,P|500:56|468:48,1,70,0|0,1:1|1:1,1:1:0:0:
372,52,61562,2,0,P|336:76|352:108,1,70,0|0,1:1|1:1,1:1:0:0:
320,200,61899,2,0,P|272:200|256:184,1,70,0|0,1:1|1:1,1:1:0:0:
168,56,62573,6,0,P|88:44|76:80,1,105,0|0,1:1|1:1,1:1:0:0:
152,200,63163,1,0,1:1:0:0:
224,280,63331,1,0,1:1:0:0:
312,328,63584,2,0,P|368:352|400:352,1,70,0|0,1:1|1:1,1:1:0:0:
468,276,63921,2,0,P|500:220|424:144,1,175,0|0,1:1|1:1,1:1:0:0:
340,56,64595,2,0,P|296:60|284:112,1,105,0|0,1:1|1:1,1:1:0:0:
136,176,65101,5,0,1:1:0:0:
188,276,65270,1,0,1:1:0:0:
244,192,65438,1,0,1:1:0:0:
476,152,65775,1,0,1:1:0:0:
488,252,65944,2,0,P|476:304|432:312,1,70,0|0,1:1|1:1,1:1:0:0:
352,332,66281,6,0,P|308:332|268:300,1,70,0|0,1:1|1:1,1:1:0:0:
192,304,66618,2,0,P|160:280|156:248,1,70,0|0,1:1|1:1,1:1:0:0:
80,176,66955,2,0,P|72:96|80:88,1,70,0|0,1:1|1:1,1:1:0:0:
176,36,67292,6,0,P|272:36|312:140,1,210,0|0,1:1|1:1,1:1:0:0:
76,160,68135,5,0,1:1:0:0:
188,288,68388,1,0,1:1:0:0:
284,176,68640,1,0,1:1:0:0:
352,252,68809,2,0,P|428:256|424:232,1,105,0|0,1:1|1:1,1:1:0:0:
360,48,69483,5,0,1:1:0:0:
280,164,69736,1,0,1:1:0:0:
188,40,69989,1,0,1:1:0:0:
116,56,70157,2,0,P|60:76|60:104,1,70,0|0,1:1|1:1,1:1:0:0:
60,196,70494,1,0,1:1:0:0:
100,280,70663,2,0,P|148:344|432:272,1,420,0|0,1:1|1:1,1:1:0:0:
272,260,71927,6,0,P|220:216|248:176,1,105,0|0,1:1|1:1,1:1:0:0:
344,120,72938,1,0,1:1:0:0:
256,136,73107,1,0,0:0:0:0:
300,204,73275,2,0,P|264:256|240:248,1,70,0|0,1:1|1:1,1:1:0:0:
172,188,73781,2,0,P|184:148|232:124,1,70,0|0,1:1|1:1,1:1:0:0:
292,52,74118,6,0,P|248:12|224:32,1,70,0|0,1:1|1:1,1:1:0:0:
144,44,74371,2,0,P|88:56|80:68,1,70,0|0,1:1|1:1,1:1:0:0:
72,160,74708,2,0,P|48:200|80:216,1,70,0|0,1:1|1:1,1:1:0:0:
128,264,75045,2,0,P|168:288|152:312,1,70,0|0,1:1|1:1,1:1:0:0:
72,328,75382,2,0,P|108:368|136:368,1,70,0|0,1:1|1:1,1:1:0:0:
248,364,75719,5,0,1:1:0:0:
316,312,75888,1,0,1:1:0:0:
392,248,76056,1,0,1:1:0:0:
464,228,76225,2,0,P|492:176|472:160,1,70,0|0,1:1|1:1,1:1:0:0:
380,172,76562,2,0,P|384:112|416:104,1,70,0|0,1:1|1:1,1:1:0:0:
264,40,77067,6,0,P|220:40|192:72,1,70,0|0,1:1|1:1,1:1:0:0:
136,136,77404,2,0,P|100:176|204:240,1,210,0|0,1:1|1:1,1:1:0:0:
288,316,78247,2,0,P|324:348|376:344,1,70,0|0,1:1|1:1,1:1:0:0:
432,320,78584,2,0,P|488:296|488:260,1,70,0|0,1:1|1:1,1:1:0:0:
476,164,79006,2,0,P|432:96|424:96,1,70,0|0,1:1|1:1,1:1:0:0:
364,76,79258,6,0,P|276:64|272:60,1,70,0|0,1:1|1:1,1:1:0:0:
180,48,79764,2,0,P|128:48|124:68,1,70,0|0,1:1|1:1,1:1:0:0:
184,132,80101,2,0,P|176:216|16:232,1,245,0|0,1:1|1:1,1:1:0:0:
60,344,80944,2,0,P|116:360|156:336,1,105,0|0,1:1|1:1,1:1:0:0:
228,328,81449,2,0,P|262:362|302:358,1,70,0|0,1:1|1:1,1:1:0:0:
456,292,82039,6,0,P|408:256|408:240,1,70,0|0,1:1|1:1,1:1:0:0:
324,160,82461,2,0,P|380:156|364:84,1,140,0|0,1:1|1:1,1:1:0:0:
112,120,83725,5,0,1:1:0:0:
68,188,83893,1,0,1:1:0:0:
128,252,84062,1,0,1:1:0:0:
232,292,84314,2,0,P|280:308|300:300,1,70,0|0,1:1|1:1,1:1:0:0:
352,232,84652,2,0,P|392:220|424:240,1,70,0|0,1:1|1:1,1:1:0:0:
472,88,85157,6,0,P|432:68|400:80,1,70,0|0,1:1|1:1,1:1:0:0:
340,128,85494,2,0,P|280:136|260:112,1,70,0|0,1:1|1:1,1:1:0:0:
204,80,85831,1,0,1:1:0:0:
168,172,86000,1,0,1:1:0:0:
148,256,86337,2,0,P|196:304|220:304,1,70,0|0,1:1|1:1,1:1:0:0:
276,264,86674,6,0,P|332:260|352:292,1,70,0|0,1:1|1:1,1:1:0:0:
376,332,87011,2,0,B|440:356|452:352|468:236,1,140,0|0,1:1|1:1,1:1:0:0:
256,192,87685,12,0,88781,1:1:0:0:
