osu file format v14

[General]
AudioFilename: audio.mp3
AudioLeadIn: 0
PreviewTime: 778
Countdown: 0
SampleSet: Soft
StackLeniency: 0.7
Mode: 0
LetterboxInBreaks: 0
WidescreenStoryboard: 1

[Editor]
DistanceSpacing: 1.8
BeatDivisor: 4
GridSize: 4
TimelineZoom: 1

[Metadata]
Title:Maigo
TitleUnicode:まいご
Artist:Yokota Mahito
ArtistUnicode:横田真人
Creator:Joe Castle
Version:The Lost Cute Little Luma
Source:スーパーマリオギャラクシー 2
Tags:smg2 Super Mario Galaxy 2 Bros Nintendo Ryo Nagamatsu Koji Kondo Orchesta Orchestal MoodyRPG
BeatmapID:1445269
BeatmapSetID:655856

[Difficulty]
HPDrainRate:6
CircleSize:4.8
OverallDifficulty:6
ApproachRate:7
SliderMultiplier:1.8
SliderTickRate:1

[Events]
//Background and Video events
0,0,"Estrellita Peda.jpg",0,0
//Break Periods
//Storyboard Layer 0 (Background)
//Storyboard Layer 1 (Fail)
//Storyboard Layer 2 (Pass)
//Storyboard Layer 3 (Foreground)
//Storyboard Sound Samples

[TimingPoints]
778,556.515379262352,4,2,1,65,1,0
27490,-100,4,2,1,60,0,0
28325,-100,4,2,0,50,0,0
29716,-100,4,2,0,40,0,0
30273,-100,4,2,0,35,0,0
30829,-100,4,2,0,30,0,0
31386,-100,4,2,0,25,0,0
31942,-100,4,2,0,20,0,0
32499,-100,4,2,0,15,0,0
33055,-100,4,2,0,10,0,0
33612,-100,4,2,0,5,0,0
34168,-100,4,2,2,50,0,0

[Colours]
Combo1 : 255,251,202
Combo2 : 0,202,0
Combo3 : 18,124,255
Combo4 : 242,24,57
Combo5 : 255,192,0

[HitObjects]
447,187,778,5,0,0:0:0:0:
382,74,1057,1,2,0:0:0:0:
252,100,1335,1,0,0:0:0:0:
240,230,1612,1,0,0:0:0:0:
360,284,1891,1,2,0:0:0:0:
16,80,2725,1,2,0:0:0:0:
112,208,3004,6,0,P|112:159|139:119,1,90,0|2,0:0|0:0,0:0:0:0:
213,22,3560,1,2,0:0:0:0:
112,208,4117,1,0,0:0:0:0:
404,176,5230,6,0,P|419:217|404:260,1,90,0|2,0:0|0:0,0:0:0:0:
344,368,5786,1,2,0:0:0:0:
404,176,6343,1,0,0:0:0:0:
408,180,6621,1,2,0:0:0:0:
114,311,7456,6,0,P|157:321|200:309,1,90,0|2,0:0|0:0,0:0:0:0:
308,238,8012,1,2,0:0:0:0:
432,68,8569,1,0,0:0:0:0:
404,164,8847,2,0,B|380:212|400:256|400:256|420:304|392:348,1,180,2|2,0:0|0:0,0:0:0:0:
253,282,9682,6,0,B|296:270|296:270|336:290,2,90,0|2|2,0:0|0:0|0:0,0:0:0:0:
128,320,10517,1,0,0:0:0:0:
209,162,11073,1,2,0:0:0:0:
253,282,11351,1,0,0:0:0:0:
36,344,11908,6,0,L|48:220,1,90,0|2,0:0|0:0,0:0:0:0:
96,136,12464,1,2,0:0:0:0:
36,344,13021,1,0,0:0:0:0:
272,176,14134,6,0,L|396:164,1,90,0|2,0:0|0:0,0:0:0:0:
480,116,14690,1,2,0:0:0:0:
272,176,15247,1,0,0:0:0:0:
276,180,15525,1,2,0:0:0:0:
8,0,16360,6,0,L|24:124,1,90,0|2,0:0|0:0,0:0:0:0:
80,204,16916,1,2,0:0:0:0:
264,308,17473,1,0,0:0:0:0:
60,364,18029,1,2,0:0:0:0:
153,275,18308,1,2,0:0:0:0:
144,64,18864,6,0,P|180:72|224:104,1,90,0|2,0:0|0:0,0:0:0:0:
326,180,19421,1,0,0:0:0:0:
468,8,19977,1,2,0:0:0:0:
388,108,20256,1,0,0:0:0:0:
324,324,20812,6,0,P|288:292|276:240,1,90,0|2,0:0|0:0,0:0:0:0:
308,128,21369,1,2,0:0:0:0:
324,324,21925,1,0,0:0:0:0:
188,68,23038,6,0,P|224:100|236:152,1,90,0|2,0:0|0:0,0:0:0:0:
204,264,23595,1,2,0:0:0:0:
188,68,24151,1,0,0:0:0:0:
192,72,24429,1,2,0:0:0:0:
48,360,25264,6,0,P|80:324|132:312,1,90,0|2,0:0|0:0,0:0:0:0:
244,344,25821,1,2,0:0:0:0:
376,180,26377,1,0,0:0:0:0:
280,200,26655,2,0,B|231:184|193:225|193:225|156:184|107:201,1,180,2|2,0:0|0:0,0:0:0:0:
256,272,27490,6,0,B|268:316|268:316|256:364,2,90,0|2|2,0:0|0:0|0:0,0:0:0:0:
209,145,28325,1,0,0:0:0:0:
36,184,28882,1,2,0:0:0:0:
62,304,29161,1,0,0:0:0:0:
256,192,29716,5,0,0:0:0:0:
256,192,29995,12,0,34168,0:0:0:0:
