osu file format v14

[General]
AudioFilename: audio.mp3
AudioLeadIn: 0
PreviewTime: 778
Countdown: 0
SampleSet: Soft
StackLeniency: 0.7
Mode: 0
LetterboxInBreaks: 0
WidescreenStoryboard: 0

[Editor]
DistanceSpacing: 1.2
BeatDivisor: 4
GridSize: 4
TimelineZoom: 1

[Metadata]
Title:Maigo
TitleUnicode:まいご
Artist:Yokota Mahito
ArtistUnicode:横田真人
Creator:Joe Castle
Version:Moody's Normal
Source:スーパーマリオギャラクシー 2
Tags:smg2 Super Mario Galaxy 2 Bros Nintendo Ryo Nagamatsu Koji Kondo Orchesta Orchestal MoodyRPG
BeatmapID:1395436
BeatmapSetID:655856

[Difficulty]
HPDrainRate:5
CircleSize:3.9
OverallDifficulty:5
ApproachRate:5
SliderMultiplier:1.2
SliderTickRate:1

[Events]
//Background and Video events
0,0,"Estrellita Peda.jpg",0,0
//Break Periods
//Storyboard Layer 0 (Background)
//Storyboard Layer 1 (Fail)
//Storyboard Layer 2 (Pass)
//Storyboard Layer 3 (Foreground)
//Storyboard Sound Samples

[TimingPoints]
778,556.515379262352,4,2,1,65,1,0
27490,-100,4,2,1,60,0,0
28325,-100,4,2,1,50,0,0
30273,-100,4,2,0,35,0,0
30829,-100,4,2,0,30,0,0
31386,-100,4,2,0,25,0,0
31942,-100,4,2,0,20,0,0
32499,-100,4,2,0,15,0,0
33055,-100,4,2,0,10,0,0
33612,-100,4,2,0,5,0,0
34168,-100,4,2,2,50,0,0

[Colours]
Combo1 : 255,251,202
Combo2 : 0,202,0
Combo3 : 18,124,255
Combo4 : 242,24,57
Combo5 : 255,192,0

[HitObjects]
408,80,778,5,0,0:0:0:0:
451,137,1056,2,0,P|463:162|465:200,2,60,2|0|0,0:0|0:0|0:0,0:0:0:0:
408,80,1891,1,2,0:0:0:0:
192,35,2725,1,2,0:0:0:0:
122,15,3004,5,0,0:0:0:0:
76,70,3282,2,0,P|65:101|67:143,1,60,2|2,0:0|0:0,0:0:0:0:
38,269,4117,1,0,0:0:0:0:
290,350,5230,5,0,0:0:0:0:
244,296,5508,2,0,P|215:278|175:272,1,60,2|2,0:0|0:0,0:0:0:0:
72,192,6343,1,0,0:0:0:0:
72,192,6621,1,2,0:0:0:0:
237,53,7456,5,0,0:0:0:0:
305,75,7734,2,0,P|336:76|367:86,1,60,2|2,0:0|0:0,0:0:0:0:
462,189,8569,1,0,0:0:0:0:
462,189,8847,1,2,0:0:0:0:
408,325,9403,1,2,0:0:0:0:
342,294,9682,6,0,P|311:284|282:283,1,60,0|2,0:0|0:0,0:0:0:0:
222,320,10238,2,0,P|192:318|163:308,1,60,2|0,0:0|0:0,0:0:0:0:
106,176,11073,1,2,0:0:0:0:
106,176,11351,1,0,0:0:0:0:
210,77,11908,5,0,0:0:0:0:
266,121,12186,2,0,P|299:127|341:116,1,60,2|2,0:0|0:0,0:0:0:0:
451,192,13021,1,0,0:0:0:0:
341,338,14134,5,0,0:0:0:0:
288,288,14412,2,0,P|278:258|277:229,1,60,2|2,0:0|0:0,0:0:0:0:
187,115,15247,2,0,P|186:87|177:57,1,60,0|2,0:0|0:0,0:0:0:0:
17,202,16360,6,0,P|7:170|6:143,1,60,0|2,0:0|0:0,0:0:0:0:
23,73,16916,2,0,P|71:40|138:42,1,120,2|0,0:0|0:0,0:0:0:0:
256,111,18029,1,2,0:0:0:0:
256,111,18308,1,2,0:0:0:0:
366,18,18864,5,0,0:0:0:0:
434,41,19143,1,2,0:0:0:0:
478,97,19421,2,0,P|490:155|483:220,1,120,0|2,0:0|0:0,0:0:0:0:
427,259,20256,1,0,0:0:0:0:
305,192,20812,5,0,0:0:0:0:
256,245,21090,2,0,L|185:253,1,60,2|2,0:0|0:0,0:0:0:0:
84,342,21925,1,0,0:0:0:0:
75,54,23038,5,0,0:0:0:0:
15,94,23316,2,0,P|10:125|21:172,1,60,2|2,0:0|0:0,0:0:0:0:
83,279,24151,1,0,0:0:0:0:
83,279,24429,1,2,0:0:0:0:
294,235,25264,5,0,0:0:0:0:
354,273,25542,2,0,P|384:274|418:263,1,60,2|2,0:0|0:0,0:0:0:0:
456,128,26377,1,0,0:0:0:0:
456,128,26655,1,2,0:0:0:0:
312,114,27212,1,2,0:0:0:0:
268,171,27490,6,0,L|203:174,2,60,0|2|2,0:0|0:0|0:0,0:0:0:0:
312,114,28325,2,0,P|337:65|315:-5,1,120,0|2,0:0|0:0,0:0:0:0:
250,1,29160,1,0,0:0:0:0:
256,192,29716,12,0,34169,0:0:0:0:
