osu file format v14

[General]
AudioFilename: audio.mp3
AudioLeadIn: 0
PreviewTime: 96410
Countdown: 0
SampleSet: Normal
StackLeniency: 0.7
Mode: 1
LetterboxInBreaks: 0
WidescreenStoryboard: 1

[Editor]
Bookmarks: 40134
DistanceSpacing: 1
BeatDivisor: 4
GridSize: 32
TimelineZoom: 1.1

[Metadata]
Title:Story In Everlasting Princess
TitleUnicode:Story In Everlasting Princess
Artist:Yokomin feat. Yuzuki Yukari
ArtistUnicode:Yokomin feat. 結月ゆかり
Creator:Chromoxx
Version:oko's Oni
Source:
Tags:Okoratu Okorin Vocaloid Loudrock Projects A Place Where You Hope C86 Album VOCALOUD
BeatmapID:1189462
BeatmapSetID:527735

[Difficulty]
HPDrainRate:6
CircleSize:5
OverallDifficulty:6
ApproachRate:5
SliderMultiplier:1.4
SliderTickRate:1

[Events]
//Background and Video events
0,0,"bg.jpg",0,0
//Break Periods
//Storyboard Layer 0 (Background)
//Storyboard Layer 1 (Fail)
//Storyboard Layer 2 (Pass)
//Storyboard Layer 3 (Foreground)
//Storyboard Sound Samples

[TimingPoints]
410,413.793103448276,4,1,0,100,1,0
99720,-100,4,1,0,100,0,1
126203,-100,4,1,0,100,0,0
159306,-100,4,1,0,100,0,1
185789,-100,4,1,0,100,0,0

[HitObjects]
256,192,410,5,4,0:0:0:0:
256,192,720,1,4,0:0:0:0:
256,192,1030,1,4,0:0:0:0:
256,192,1444,1,0,0:0:0:0:
256,192,1651,1,8,0:0:0:0:
256,192,1858,1,0,0:0:0:0:
256,192,2065,1,0,0:0:0:0:
256,192,2375,1,0,0:0:0:0:
256,192,2478,1,8,0:0:0:0:
256,192,2685,1,0,0:0:0:0:
256,192,3099,1,0,0:0:0:0:
256,192,3203,1,0,0:0:0:0:
256,192,3306,1,8,0:0:0:0:
256,192,3720,1,4,0:0:0:0:
256,192,4030,1,4,0:0:0:0:
256,192,4341,1,4,0:0:0:0:
256,192,4754,1,0,0:0:0:0:
256,192,4961,1,8,0:0:0:0:
256,192,5168,1,0,0:0:0:0:
256,192,5272,1,8,0:0:0:0:
256,192,5375,1,8,0:0:0:0:
256,192,5685,1,0,0:0:0:0:
256,192,5789,1,8,0:0:0:0:
256,192,5996,1,0,0:0:0:0:
256,192,6410,1,0,0:0:0:0:
256,192,6513,1,0,0:0:0:0:
256,192,6616,1,8,0:0:0:0:
256,192,7030,1,4,0:0:0:0:
256,192,7341,1,4,0:0:0:0:
256,192,7651,1,4,0:0:0:0:
256,192,8065,1,0,0:0:0:0:
256,192,8272,1,8,0:0:0:0:
256,192,8478,1,0,0:0:0:0:
256,192,8685,1,8,0:0:0:0:
256,192,8789,1,8,0:0:0:0:
256,192,8892,1,0,0:0:0:0:
256,192,8996,1,0,0:0:0:0:
256,192,9099,1,0,0:0:0:0:
256,192,9306,1,8,0:0:0:0:
256,192,9410,1,8,0:0:0:0:
256,192,9513,1,0,0:0:0:0:
256,192,9616,1,0,0:0:0:0:
256,192,9720,1,0,0:0:0:0:
256,192,9927,1,8,0:0:0:0:
256,192,10134,1,0,0:0:0:0:
256,192,10341,1,4,0:0:0:0:
256,192,10651,1,4,0:0:0:0:
256,192,10961,1,4,0:0:0:0:
256,192,11375,1,0,0:0:0:0:
256,192,11444,1,0,0:0:0:0:
256,192,11513,1,0,0:0:0:0:
256,192,11582,1,8,0:0:0:0:
256,192,11789,1,0,0:0:0:0:
256,192,11996,12,0,13030,0:0:0:0:
256,192,13237,5,8,0:0:0:0:
256,192,13651,1,4,0:0:0:0:
256,192,13858,1,8,0:0:0:0:
256,192,13961,1,0,0:0:0:0:
256,192,14168,1,0,0:0:0:0:
256,192,14272,1,8,0:0:0:0:
256,192,14478,1,0,0:0:0:0:
256,192,14582,1,0,0:0:0:0:
256,192,14685,1,8,0:0:0:0:
256,192,14892,1,0,0:0:0:0:
256,192,14996,1,0,0:0:0:0:
256,192,15099,1,8,0:0:0:0:
256,192,15306,1,0,0:0:0:0:
256,192,15513,1,8,0:0:0:0:
256,192,15616,1,8,0:0:0:0:
256,192,15823,1,8,0:0:0:0:
256,192,15927,1,8,0:0:0:0:
256,192,16134,1,0,0:0:0:0:
256,192,16341,1,8,0:0:0:0:
256,192,16547,1,0,0:0:0:0:
256,192,16754,1,8,0:0:0:0:
256,192,16961,1,0,0:0:0:0:
256,192,17168,1,8,0:0:0:0:
256,192,17272,1,0,0:0:0:0:
256,192,17478,1,0,0:0:0:0:
256,192,17582,1,8,0:0:0:0:
256,192,17789,1,0,0:0:0:0:
256,192,17892,1,0,0:0:0:0:
256,192,17996,1,8,0:0:0:0:
256,192,18203,1,0,0:0:0:0:
256,192,18306,1,0,0:0:0:0:
256,192,18410,1,8,0:0:0:0:
256,192,18616,1,0,0:0:0:0:
256,192,18823,1,8,0:0:0:0:
256,192,18927,1,8,0:0:0:0:
256,192,19134,1,8,0:0:0:0:
256,192,19237,1,8,0:0:0:0:
256,192,19444,1,0,0:0:0:0:
256,192,19651,1,8,0:0:0:0:
256,192,19858,1,0,0:0:0:0:
256,192,20272,1,0,0:0:0:0:
256,192,20478,1,8,0:0:0:0:
256,192,20582,1,0,0:0:0:0:
256,192,20789,1,0,0:0:0:0:
256,192,20892,1,8,0:0:0:0:
256,192,21099,1,0,0:0:0:0:
256,192,21203,1,0,0:0:0:0:
256,192,21306,1,8,0:0:0:0:
256,192,21513,1,0,0:0:0:0:
256,192,21616,1,0,0:0:0:0:
256,192,21720,1,8,0:0:0:0:
256,192,21927,1,0,0:0:0:0:
256,192,22134,1,8,0:0:0:0:
256,192,22237,1,8,0:0:0:0:
256,192,22444,1,8,0:0:0:0:
256,192,22547,1,8,0:0:0:0:
256,192,22754,1,0,0:0:0:0:
256,192,22961,1,8,0:0:0:0:
256,192,23168,1,0,0:0:0:0:
256,192,23375,1,8,0:0:0:0:
256,192,23582,1,0,0:0:0:0:
256,192,23789,1,8,0:0:0:0:
256,192,23892,1,0,0:0:0:0:
256,192,24099,1,0,0:0:0:0:
256,192,24203,1,8,0:0:0:0:
256,192,24410,1,8,0:0:0:0:
256,192,24513,1,0,0:0:0:0:
256,192,24616,1,8,0:0:0:0:
256,192,24823,1,8,0:0:0:0:
256,192,24927,1,0,0:0:0:0:
256,192,25030,1,8,0:0:0:0:
256,192,25237,1,0,0:0:0:0:
256,192,25444,1,8,0:0:0:0:
256,192,25547,1,0,0:0:0:0:
256,192,25754,1,0,0:0:0:0:
256,192,25858,1,8,0:0:0:0:
256,192,26065,1,0,0:0:0:0:
256,192,26272,1,8,0:0:0:0:
256,192,26478,1,0,0:0:0:0:
256,192,26892,1,0,0:0:0:0:
256,192,27099,1,8,0:0:0:0:
256,192,27203,1,0,0:0:0:0:
256,192,27410,1,0,0:0:0:0:
256,192,27513,1,8,0:0:0:0:
256,192,27720,1,0,0:0:0:0:
256,192,27823,1,0,0:0:0:0:
256,192,27927,1,8,0:0:0:0:
256,192,28134,1,0,0:0:0:0:
256,192,28237,1,0,0:0:0:0:
256,192,28341,1,8,0:0:0:0:
256,192,28547,1,0,0:0:0:0:
256,192,28754,1,8,0:0:0:0:
256,192,28858,1,8,0:0:0:0:
256,192,29065,1,8,0:0:0:0:
256,192,29168,1,8,0:0:0:0:
256,192,29375,1,0,0:0:0:0:
256,192,29582,1,8,0:0:0:0:
256,192,29789,1,0,0:0:0:0:
256,192,29996,1,8,0:0:0:0:
256,192,30203,1,0,0:0:0:0:
256,192,30410,1,8,0:0:0:0:
256,192,30513,1,0,0:0:0:0:
256,192,30720,1,0,0:0:0:0:
256,192,30823,1,8,0:0:0:0:
256,192,31030,1,0,0:0:0:0:
256,192,31134,1,0,0:0:0:0:
256,192,31237,1,8,0:0:0:0:
256,192,31444,1,0,0:0:0:0:
256,192,31547,1,0,0:0:0:0:
256,192,31651,1,8,0:0:0:0:
256,192,31754,1,8,0:0:0:0:
256,192,31858,1,0,0:0:0:0:
256,192,32065,1,8,0:0:0:0:
256,192,32168,1,8,0:0:0:0:
256,192,32375,1,8,0:0:0:0:
256,192,32478,1,8,0:0:0:0:
256,192,32685,1,0,0:0:0:0:
256,192,32892,1,8,0:0:0:0:
256,192,33099,1,0,0:0:0:0:
256,192,33513,1,0,0:0:0:0:
256,192,33720,1,8,0:0:0:0:
256,192,33823,1,0,0:0:0:0:
256,192,34030,1,0,0:0:0:0:
256,192,34134,1,8,0:0:0:0:
256,192,34341,1,0,0:0:0:0:
256,192,34444,1,0,0:0:0:0:
256,192,34547,1,8,0:0:0:0:
256,192,34754,1,0,0:0:0:0:
256,192,34858,1,0,0:0:0:0:
256,192,34961,1,8,0:0:0:0:
256,192,35168,1,0,0:0:0:0:
256,192,35375,1,8,0:0:0:0:
256,192,35478,1,8,0:0:0:0:
256,192,35685,1,8,0:0:0:0:
256,192,35789,1,8,0:0:0:0:
256,192,35996,1,0,0:0:0:0:
256,192,36203,1,8,0:0:0:0:
256,192,36410,1,0,0:0:0:0:
256,192,36616,1,8,0:0:0:0:
256,192,36823,1,0,0:0:0:0:
256,192,37030,1,8,0:0:0:0:
256,192,37134,1,0,0:0:0:0:
256,192,37341,1,0,0:0:0:0:
256,192,37444,1,8,0:0:0:0:
256,192,37651,1,8,0:0:0:0:
256,192,37754,1,0,0:0:0:0:
256,192,37858,1,8,0:0:0:0:
256,192,38065,1,8,0:0:0:0:
256,192,38168,1,0,0:0:0:0:
256,192,38272,1,8,0:0:0:0:
256,192,38375,1,8,0:0:0:0:
256,192,38478,1,0,0:0:0:0:
256,192,38685,1,8,0:0:0:0:
256,192,38789,1,8,0:0:0:0:
256,192,38892,1,8,0:0:0:0:
256,192,38996,1,8,0:0:0:0:
256,192,39099,1,0,0:0:0:0:
256,192,39306,1,8,0:0:0:0:
256,192,39410,1,8,0:0:0:0:
256,192,39513,1,0,0:0:0:0:
256,192,39720,1,8,0:0:0:0:
256,192,39823,1,8,0:0:0:0:
256,192,39927,1,8,0:0:0:0:
256,192,40134,1,4,0:0:0:0:
256,192,40547,1,0,0:0:0:0:
256,192,40961,1,0,0:0:0:0:
256,192,41375,1,0,0:0:0:0:
256,192,41789,1,0,0:0:0:0:
256,192,42203,1,0,0:0:0:0:
256,192,42616,1,0,0:0:0:0:
256,192,43030,1,0,0:0:0:0:
256,192,43237,1,8,0:0:0:0:
256,192,43444,1,0,0:0:0:0:
256,192,43858,1,0,0:0:0:0:
256,192,44272,1,0,0:0:0:0:
256,192,44685,1,0,0:0:0:0:
256,192,45099,1,0,0:0:0:0:
256,192,45513,1,0,0:0:0:0:
256,192,45927,1,8,0:0:0:0:
256,192,46134,1,8,0:0:0:0:
256,192,46237,1,8,0:0:0:0:
256,192,46341,1,0,0:0:0:0:
256,192,46754,1,4,0:0:0:0:
256,192,47168,1,0,0:0:0:0:
256,192,47582,1,0,0:0:0:0:
256,192,47996,1,12,0:0:0:0:
256,192,48410,1,0,0:0:0:0:
256,192,48823,1,12,0:0:0:0:
256,192,49237,1,0,0:0:0:0:
256,192,49651,1,12,0:0:0:0:
256,192,50065,1,0,0:0:0:0:
256,192,50272,1,0,0:0:0:0:
256,192,50478,1,12,0:0:0:0:
256,192,50892,1,0,0:0:0:0:
256,192,51306,1,12,0:0:0:0:
256,192,51513,1,0,0:0:0:0:
256,192,51616,1,0,0:0:0:0:
256,192,51720,1,8,0:0:0:0:
256,192,52961,1,0,0:0:0:0:
256,192,53375,1,0,0:0:0:0:
256,192,53478,1,0,0:0:0:0:
256,192,53582,1,0,0:0:0:0:
256,192,53789,1,0,0:0:0:0:
256,192,53892,1,0,0:0:0:0:
256,192,53996,1,0,0:0:0:0:
256,192,54203,1,8,0:0:0:0:
256,192,54410,1,0,0:0:0:0:
256,192,54513,1,0,0:0:0:0:
256,192,54616,1,0,0:0:0:0:
256,192,54823,1,0,0:0:0:0:
256,192,55030,1,0,0:0:0:0:
256,192,55134,1,0,0:0:0:0:
256,192,55341,1,0,0:0:0:0:
256,192,55444,1,0,0:0:0:0:
256,192,55651,1,0,0:0:0:0:
256,192,55858,1,8,0:0:0:0:
256,192,56065,1,0,0:0:0:0:
256,192,56168,1,0,0:0:0:0:
256,192,56272,1,0,0:0:0:0:
256,192,56478,1,0,0:0:0:0:
256,192,56685,1,0,0:0:0:0:
256,192,56789,1,0,0:0:0:0:
256,192,56892,1,0,0:0:0:0:
256,192,57099,1,0,0:0:0:0:
256,192,57203,1,0,0:0:0:0:
256,192,57306,1,0,0:0:0:0:
256,192,57513,1,8,0:0:0:0:
256,192,57720,1,0,0:0:0:0:
256,192,57823,1,0,0:0:0:0:
256,192,57927,1,0,0:0:0:0:
256,192,58134,1,0,0:0:0:0:
256,192,58341,1,12,0:0:0:0:
256,192,58651,1,0,0:0:0:0:
256,192,58961,1,0,0:0:0:0:
256,192,59168,1,8,0:0:0:0:
256,192,59375,1,0,0:0:0:0:
256,192,59444,1,0,0:0:0:0:
256,192,59513,1,0,0:0:0:0:
256,192,59582,1,8,0:0:0:0:
256,192,59996,1,0,0:0:0:0:
256,192,60099,1,0,0:0:0:0:
256,192,60203,1,0,0:0:0:0:
256,192,60410,1,0,0:0:0:0:
256,192,60513,1,0,0:0:0:0:
256,192,60616,1,0,0:0:0:0:
256,192,60823,1,8,0:0:0:0:
256,192,61030,1,0,0:0:0:0:
256,192,61134,1,0,0:0:0:0:
256,192,61237,1,0,0:0:0:0:
256,192,61444,1,0,0:0:0:0:
256,192,61651,1,0,0:0:0:0:
256,192,61754,1,0,0:0:0:0:
256,192,61961,1,0,0:0:0:0:
256,192,62065,1,0,0:0:0:0:
256,192,62272,1,0,0:0:0:0:
256,192,62478,1,8,0:0:0:0:
256,192,62685,1,0,0:0:0:0:
256,192,62789,1,0,0:0:0:0:
256,192,62892,1,0,0:0:0:0:
256,192,63099,1,0,0:0:0:0:
256,192,63306,1,0,0:0:0:0:
256,192,63410,1,0,0:0:0:0:
256,192,63513,1,0,0:0:0:0:
256,192,63720,1,0,0:0:0:0:
256,192,63823,1,0,0:0:0:0:
256,192,63927,1,0,0:0:0:0:
256,192,64134,1,8,0:0:0:0:
256,192,64341,1,0,0:0:0:0:
256,192,64444,1,0,0:0:0:0:
256,192,64547,1,0,0:0:0:0:
256,192,64754,1,0,0:0:0:0:
256,192,64961,1,12,0:0:0:0:
256,192,65272,1,0,0:0:0:0:
256,192,65582,1,0,0:0:0:0:
256,192,65789,1,8,0:0:0:0:
256,192,65996,1,0,0:0:0:0:
256,192,66065,1,0,0:0:0:0:
256,192,66134,1,0,0:0:0:0:
256,192,66203,1,8,0:0:0:0:
256,192,66616,1,4,0:0:0:0:
256,192,67030,1,0,0:0:0:0:
256,192,67444,1,8,0:0:0:0:
256,192,67858,1,8,0:0:0:0:
256,192,68272,1,8,0:0:0:0:
256,192,68375,1,8,0:0:0:0:
256,192,68478,1,0,0:0:0:0:
256,192,68582,1,0,0:0:0:0:
256,192,68685,1,0,0:0:0:0:
256,192,68892,1,8,0:0:0:0:
256,192,68996,1,8,0:0:0:0:
256,192,69099,1,0,0:0:0:0:
256,192,69203,1,0,0:0:0:0:
256,192,69306,1,0,0:0:0:0:
256,192,69410,1,0,0:0:0:0:
256,192,69513,1,8,0:0:0:0:
256,192,69927,1,0,0:0:0:0:
256,192,70030,1,0,0:0:0:0:
256,192,70134,1,0,0:0:0:0:
256,192,70237,1,0,0:0:0:0:
256,192,70341,1,8,0:0:0:0:
256,192,70961,1,0,0:0:0:0:
256,192,71168,1,8,0:0:0:0:
256,192,71375,1,0,0:0:0:0:
256,192,71582,1,0,0:0:0:0:
256,192,71892,1,0,0:0:0:0:
256,192,71996,1,8,0:0:0:0:
256,192,72203,1,0,0:0:0:0:
256,192,72616,1,0,0:0:0:0:
256,192,72720,1,0,0:0:0:0:
256,192,72823,1,8,0:0:0:0:
256,192,73237,1,0,0:0:0:0:
256,192,73341,1,0,0:0:0:0:
256,192,73444,1,0,0:0:0:0:
256,192,73547,1,0,0:0:0:0:
256,192,73651,1,8,0:0:0:0:
256,192,74272,1,0,0:0:0:0:
256,192,74478,1,8,0:0:0:0:
256,192,74685,1,0,0:0:0:0:
256,192,74892,1,4,0:0:0:0:
256,192,75203,1,4,0:0:0:0:
256,192,75513,1,4,0:0:0:0:
256,192,75720,1,8,0:0:0:0:
256,192,75927,1,0,0:0:0:0:
256,192,75996,1,0,0:0:0:0:
256,192,76065,1,0,0:0:0:0:
256,192,76134,1,8,0:0:0:0:
256,192,76547,1,0,0:0:0:0:
256,192,76651,1,0,0:0:0:0:
256,192,76754,1,0,0:0:0:0:
256,192,76858,1,0,0:0:0:0:
256,192,76961,1,8,0:0:0:0:
256,192,77582,1,0,0:0:0:0:
256,192,77789,1,8,0:0:0:0:
256,192,77996,1,0,0:0:0:0:
256,192,78203,1,0,0:0:0:0:
256,192,78513,1,0,0:0:0:0:
256,192,78616,1,8,0:0:0:0:
256,192,78823,1,0,0:0:0:0:
256,192,79237,1,0,0:0:0:0:
256,192,79341,1,0,0:0:0:0:
256,192,79444,1,8,0:0:0:0:
256,192,79858,1,0,0:0:0:0:
256,192,79961,1,0,0:0:0:0:
256,192,80065,1,0,0:0:0:0:
256,192,80168,1,0,0:0:0:0:
256,192,80272,1,8,0:0:0:0:
256,192,80892,1,0,0:0:0:0:
256,192,81099,1,8,0:0:0:0:
256,192,81306,1,0,0:0:0:0:
256,192,81513,1,4,0:0:0:0:
256,192,81823,1,4,0:0:0:0:
256,192,82134,1,4,0:0:0:0:
256,192,82547,1,0,0:0:0:0:
256,192,82616,1,0,0:0:0:0:
256,192,82685,1,0,0:0:0:0:
256,192,82754,1,8,0:0:0:0:
256,192,82961,1,0,0:0:0:0:
256,192,83168,1,12,0:0:0:0:
256,192,83582,1,8,0:0:0:0:
256,192,83789,1,0,0:0:0:0:
256,192,83996,1,8,0:0:0:0:
256,192,84203,1,8,0:0:0:0:
256,192,84410,1,8,0:0:0:0:
256,192,84616,1,0,0:0:0:0:
256,192,84823,1,8,0:0:0:0:
256,192,85030,1,0,0:0:0:0:
256,192,85237,1,8,0:0:0:0:
256,192,85444,1,8,0:0:0:0:
256,192,85651,1,0,0:0:0:0:
256,192,85754,1,0,0:0:0:0:
256,192,85858,1,0,0:0:0:0:
256,192,86065,1,8,0:0:0:0:
256,192,86272,1,0,0:0:0:0:
256,192,86478,1,12,0:0:0:0:
256,192,86892,1,8,0:0:0:0:
256,192,87306,1,8,0:0:0:0:
256,192,87513,1,0,0:0:0:0:
256,192,87616,1,0,0:0:0:0:
256,192,87720,1,8,0:0:0:0:
256,192,87927,1,8,0:0:0:0:
256,192,88341,1,0,0:0:0:0:
256,192,88547,1,8,0:0:0:0:
256,192,88754,1,8,0:0:0:0:
256,192,88961,1,8,0:0:0:0:
256,192,89168,1,0,0:0:0:0:
256,192,89237,1,0,0:0:0:0:
256,192,89306,1,0,0:0:0:0:
256,192,89375,1,8,0:0:0:0:
256,192,89582,1,0,0:0:0:0:
256,192,89789,1,12,0:0:0:0:
256,192,90203,1,8,0:0:0:0:
256,192,90306,1,0,0:0:0:0:
256,192,90410,1,0,0:0:0:0:
256,192,90616,1,8,0:0:0:0:
256,192,90823,1,0,0:0:0:0:
256,192,91030,1,8,0:0:0:0:
256,192,91134,1,0,0:0:0:0:
256,192,91237,1,0,0:0:0:0:
256,192,91341,1,0,0:0:0:0:
256,192,91444,1,8,0:0:0:0:
256,192,91651,1,0,0:0:0:0:
256,192,91858,1,8,0:0:0:0:
256,192,92065,1,0,0:0:0:0:
256,192,92272,1,8,0:0:0:0:
256,192,92478,1,0,0:0:0:0:
256,192,92582,1,0,0:0:0:0:
256,192,92685,1,8,0:0:0:0:
256,192,92892,1,0,0:0:0:0:
256,192,93099,1,8,0:0:0:0:
256,192,93203,1,8,0:0:0:0:
256,192,93306,1,0,0:0:0:0:
256,192,93410,1,0,0:0:0:0:
256,192,93513,1,0,0:0:0:0:
256,192,93720,1,0,0:0:0:0:
256,192,93823,1,0,0:0:0:0:
256,192,93927,1,0,0:0:0:0:
256,192,94134,1,8,0:0:0:0:
256,192,94237,1,8,0:0:0:0:
256,192,94341,1,0,0:0:0:0:
256,192,94547,1,0,0:0:0:0:
256,192,94754,1,8,0:0:0:0:
256,192,94823,1,8,0:0:0:0:
256,192,94892,1,8,0:0:0:0:
256,192,94961,1,8,0:0:0:0:
256,192,95168,1,0,0:0:0:0:
256,192,95375,1,0,0:0:0:0:
256,192,95444,1,0,0:0:0:0:
256,192,95513,1,0,0:0:0:0:
256,192,95582,1,8,0:0:0:0:
256,192,95996,1,8,0:0:0:0:
256,192,96410,1,12,0:0:0:0:
256,192,99099,1,0,0:0:0:0:
256,192,99168,1,0,0:0:0:0:
256,192,99237,1,0,0:0:0:0:
256,192,99306,1,8,0:0:0:0:
256,192,99513,1,0,0:0:0:0:
256,192,99720,1,12,0:0:0:0:
256,192,99927,1,0,0:0:0:0:
256,192,100134,1,0,0:0:0:0:
256,192,100341,1,8,0:0:0:0:
256,192,100547,1,8,0:0:0:0:
256,192,100754,1,0,0:0:0:0:
256,192,100961,1,8,0:0:0:0:
256,192,101168,1,0,0:0:0:0:
256,192,101375,1,8,0:0:0:0:
256,192,101789,1,0,0:0:0:0:
256,192,101996,1,8,0:0:0:0:
256,192,102203,1,8,0:0:0:0:
256,192,102410,1,0,0:0:0:0:
256,192,102616,1,8,0:0:0:0:
256,192,102823,1,8,0:0:0:0:
256,192,103030,1,0,0:0:0:0:
256,192,103237,1,8,0:0:0:0:
256,192,103444,1,0,0:0:0:0:
256,192,103651,1,0,0:0:0:0:
256,192,103858,1,8,0:0:0:0:
256,192,104065,1,0,0:0:0:0:
256,192,104272,1,8,0:0:0:0:
256,192,104478,1,0,0:0:0:0:
256,192,104685,1,8,0:0:0:0:
256,192,105099,1,0,0:0:0:0:
256,192,105306,1,8,0:0:0:0:
256,192,105513,1,8,0:0:0:0:
256,192,105720,1,0,0:0:0:0:
256,192,105789,1,0,0:0:0:0:
256,192,105858,1,0,0:0:0:0:
256,192,105927,1,8,0:0:0:0:
256,192,106134,1,0,0:0:0:0:
256,192,106341,1,12,0:0:0:0:
256,192,106547,1,0,0:0:0:0:
256,192,106754,1,0,0:0:0:0:
256,192,106961,1,8,0:0:0:0:
256,192,107168,1,8,0:0:0:0:
256,192,107375,1,0,0:0:0:0:
256,192,107582,1,8,0:0:0:0:
256,192,107789,1,0,0:0:0:0:
256,192,107996,1,8,0:0:0:0:
256,192,108410,1,8,0:0:0:0:
256,192,108616,1,8,0:0:0:0:
256,192,108823,1,8,0:0:0:0:
256,192,109030,1,0,0:0:0:0:
256,192,109237,1,8,0:0:0:0:
256,192,109444,1,8,0:0:0:0:
256,192,109651,1,0,0:0:0:0:
256,192,109858,1,8,0:0:0:0:
256,192,110065,1,8,0:0:0:0:
256,192,110272,1,0,0:0:0:0:
256,192,110478,1,8,0:0:0:0:
256,192,110685,1,0,0:0:0:0:
256,192,110892,1,8,0:0:0:0:
256,192,111099,1,0,0:0:0:0:
256,192,111306,1,8,0:0:0:0:
256,192,111720,1,8,0:0:0:0:
256,192,111927,1,8,0:0:0:0:
256,192,112030,1,0,0:0:0:0:
256,192,112134,1,8,0:0:0:0:
256,192,112341,1,0,0:0:0:0:
256,192,112410,1,0,0:0:0:0:
256,192,112478,1,0,0:0:0:0:
256,192,112547,1,8,0:0:0:0:
256,192,112754,1,0,0:0:0:0:
256,192,112961,1,12,0:0:0:0:
256,192,113375,1,8,0:0:0:0:
256,192,113582,1,8,0:0:0:0:
256,192,113789,1,0,0:0:0:0:
256,192,113996,1,8,0:0:0:0:
256,192,114203,1,8,0:0:0:0:
256,192,114410,1,0,0:0:0:0:
256,192,114616,1,0,0:0:0:0:
256,192,114823,1,8,0:0:0:0:
256,192,115030,1,8,0:0:0:0:
256,192,115237,1,8,0:0:0:0:
256,192,115444,1,0,0:0:0:0:
256,192,115651,1,0,0:0:0:0:
256,192,115858,1,8,0:0:0:0:
256,192,116065,1,0,0:0:0:0:
256,192,116272,1,8,0:0:0:0:
256,192,116685,1,8,0:0:0:0:
256,192,116892,1,8,0:0:0:0:
256,192,117099,1,0,0:0:0:0:
256,192,117306,1,8,0:0:0:0:
256,192,117513,1,8,0:0:0:0:
256,192,117720,1,0,0:0:0:0:
256,192,117927,1,0,0:0:0:0:
256,192,118134,1,8,0:0:0:0:
256,192,118341,1,8,0:0:0:0:
256,192,118547,1,8,0:0:0:0:
256,192,118754,1,0,0:0:0:0:
256,192,118961,1,0,0:0:0:0:
256,192,119030,1,0,0:0:0:0:
256,192,119099,1,0,0:0:0:0:
256,192,119168,1,8,0:0:0:0:
256,192,119375,1,0,0:0:0:0:
256,192,119582,1,12,0:0:0:0:
256,192,119996,1,8,0:0:0:0:
256,192,120203,1,0,0:0:0:0:
256,192,120410,1,8,0:0:0:0:
256,192,120616,1,8,0:0:0:0:
256,192,120823,1,8,0:0:0:0:
256,192,121030,1,0,0:0:0:0:
256,192,121237,1,8,0:0:0:0:
256,192,121444,1,0,0:0:0:0:
256,192,121651,1,8,0:0:0:0:
256,192,121858,1,0,0:0:0:0:
256,192,122065,1,8,0:0:0:0:
256,192,122272,1,8,0:0:0:0:
256,192,122375,1,0,0:0:0:0:
256,192,122478,1,8,0:0:0:0:
256,192,122685,1,0,0:0:0:0:
256,192,122892,1,8,0:0:0:0:
256,192,122996,1,8,0:0:0:0:
256,192,123099,1,0,0:0:0:0:
256,192,123203,1,0,0:0:0:0:
256,192,123306,1,8,0:0:0:0:
256,192,123513,1,0,0:0:0:0:
256,192,123616,1,0,0:0:0:0:
256,192,123720,1,8,0:0:0:0:
256,192,123823,1,8,0:0:0:0:
256,192,123927,1,0,0:0:0:0:
256,192,124030,1,0,0:0:0:0:
256,192,124134,1,8,0:0:0:0:
256,192,124341,1,0,0:0:0:0:
256,192,124444,1,0,0:0:0:0:
256,192,124547,1,8,0:0:0:0:
256,192,124651,1,8,0:0:0:0:
256,192,124754,1,8,0:0:0:0:
256,192,124961,1,0,0:0:0:0:
256,192,125065,1,0,0:0:0:0:
256,192,125168,1,0,0:0:0:0:
256,192,125272,1,0,0:0:0:0:
256,192,125375,1,8,0:0:0:0:
256,192,125582,1,0,0:0:0:0:
256,192,125651,1,0,0:0:0:0:
256,192,125720,1,0,0:0:0:0:
256,192,125789,1,8,0:0:0:0:
256,192,126203,1,4,0:0:0:0:
256,192,126616,1,8,0:0:0:0:
256,192,127030,1,8,0:0:0:0:
256,192,127444,1,8,0:0:0:0:
256,192,127858,1,8,0:0:0:0:
256,192,128272,1,8,0:0:0:0:
256,192,128685,1,8,0:0:0:0:
256,192,129099,1,8,0:0:0:0:
256,192,129306,1,0,0:0:0:0:
256,192,129513,1,8,0:0:0:0:
256,192,129927,1,8,0:0:0:0:
256,192,130341,1,8,0:0:0:0:
256,192,130754,1,8,0:0:0:0:
256,192,131168,1,8,0:0:0:0:
256,192,131582,1,8,0:0:0:0:
256,192,131996,1,8,0:0:0:0:
256,192,132203,1,0,0:0:0:0:
256,192,132410,1,8,0:0:0:0:
256,192,132616,1,0,0:0:0:0:
256,192,132823,1,12,0:0:0:0:
256,192,133237,1,8,0:0:0:0:
256,192,133651,1,8,0:0:0:0:
256,192,134065,1,8,0:0:0:0:
256,192,134478,1,8,0:0:0:0:
256,192,134892,1,8,0:0:0:0:
256,192,135306,1,8,0:0:0:0:
256,192,135616,1,0,0:0:0:0:
256,192,135720,1,8,0:0:0:0:
256,192,135927,1,0,0:0:0:0:
256,192,136134,1,8,0:0:0:0:
256,192,136547,1,8,0:0:0:0:
256,192,136961,1,8,0:0:0:0:
256,192,137375,1,8,0:0:0:0:
256,192,137789,1,8,0:0:0:0:
256,192,138203,1,8,0:0:0:0:
256,192,138513,1,0,0:0:0:0:
256,192,138616,1,8,0:0:0:0:
256,192,138823,1,0,0:0:0:0:
256,192,139030,1,8,0:0:0:0:
256,192,139237,1,0,0:0:0:0:
256,192,139444,1,12,0:0:0:0:
256,192,139858,1,0,0:0:0:0:
256,192,140065,1,0,0:0:0:0:
256,192,140168,1,0,0:0:0:0:
256,192,140272,1,0,0:0:0:0:
256,192,140685,1,0,0:0:0:0:
256,192,140892,1,8,0:0:0:0:
256,192,141099,1,0,0:0:0:0:
256,192,141513,1,0,0:0:0:0:
256,192,141927,1,0,0:0:0:0:
256,192,142134,1,8,0:0:0:0:
256,192,142341,1,0,0:0:0:0:
256,192,142547,1,8,0:0:0:0:
256,192,142754,1,0,0:0:0:0:
256,192,143168,1,0,0:0:0:0:
256,192,143582,1,0,0:0:0:0:
256,192,143996,1,0,0:0:0:0:
256,192,144203,1,8,0:0:0:0:
256,192,144410,1,0,0:0:0:0:
256,192,144823,1,0,0:0:0:0:
256,192,145237,1,0,0:0:0:0:
256,192,145444,1,8,0:0:0:0:
256,192,145651,1,0,0:0:0:0:
256,192,145858,1,8,0:0:0:0:
256,192,146065,1,0,0:0:0:0:
256,192,146168,1,0,0:0:0:0:
256,192,146272,1,0,0:0:0:0:
256,192,146375,1,0,0:0:0:0:
256,192,146478,1,8,0:0:0:0:
256,192,146685,1,0,0:0:0:0:
256,192,146789,1,0,0:0:0:0:
256,192,146892,1,8,0:0:0:0:
256,192,146996,1,8,0:0:0:0:
256,192,147099,1,0,0:0:0:0:
256,192,147306,1,8,0:0:0:0:
256,192,147410,1,8,0:0:0:0:
256,192,147513,1,0,0:0:0:0:
256,192,147720,1,8,0:0:0:0:
256,192,147823,1,8,0:0:0:0:
256,192,147927,1,0,0:0:0:0:
256,192,148134,1,8,0:0:0:0:
256,192,148237,1,0,0:0:0:0:
256,192,148341,1,8,0:0:0:0:
256,192,148444,1,0,0:0:0:0:
256,192,148547,1,0,0:0:0:0:
256,192,148754,1,8,0:0:0:0:
256,192,148858,1,0,0:0:0:0:
256,192,148961,1,8,0:0:0:0:
256,192,149168,1,0,0:0:0:0:
256,192,149375,1,8,0:0:0:0:
256,192,149478,1,8,0:0:0:0:
256,192,149582,1,8,0:0:0:0:
256,192,149685,1,8,0:0:0:0:
256,192,149789,1,0,0:0:0:0:
256,192,149996,1,0,0:0:0:0:
256,192,150099,1,0,0:0:0:0:
256,192,150203,1,0,0:0:0:0:
256,192,150410,1,0,0:0:0:0:
256,192,150513,1,0,0:0:0:0:
256,192,150616,1,8,0:0:0:0:
256,192,150720,1,0,0:0:0:0:
256,192,150823,1,0,0:0:0:0:
256,192,151030,1,8,0:0:0:0:
256,192,151099,1,8,0:0:0:0:
256,192,151168,1,8,0:0:0:0:
256,192,151237,1,8,0:0:0:0:
256,192,151444,1,0,0:0:0:0:
256,192,151651,1,0,0:0:0:0:
256,192,151720,1,0,0:0:0:0:
256,192,151789,1,0,0:0:0:0:
256,192,151858,1,8,0:0:0:0:
256,192,152065,1,0,0:0:0:0:
256,192,152272,1,8,0:0:0:0:
256,192,152685,1,4,0:0:0:0:
256,192,153306,1,0,0:0:0:0:
256,192,153513,1,8,0:0:0:0:
256,192,153720,1,0,0:0:0:0:
256,192,153927,1,0,0:0:0:0:
256,192,154134,1,12,0:0:0:0:
256,192,154547,1,0,0:0:0:0:
256,192,154754,1,8,0:0:0:0:
256,192,154961,1,0,0:0:0:0:
256,192,155168,1,8,0:0:0:0:
256,192,155375,1,0,0:0:0:0:
256,192,155582,1,8,0:0:0:0:
256,192,155685,1,8,0:0:0:0:
256,192,155789,1,0,0:0:0:0:
256,192,155996,1,4,0:0:0:0:
256,192,156410,1,8,0:0:0:0:
256,192,156616,1,0,0:0:0:0:
256,192,156823,1,8,0:0:0:0:
256,192,156927,1,0,0:0:0:0:
256,192,157030,1,0,0:0:0:0:
256,192,157134,1,8,0:0:0:0:
256,192,157237,1,0,0:0:0:0:
256,192,157444,1,12,0:0:0:0:
256,192,157858,1,8,0:0:0:0:
256,192,158065,1,8,0:0:0:0:
256,192,159306,1,12,0:0:0:0:
256,192,159513,1,0,0:0:0:0:
256,192,159720,1,0,0:0:0:0:
256,192,159927,1,8,0:0:0:0:
256,192,160134,1,8,0:0:0:0:
256,192,160341,1,0,0:0:0:0:
256,192,160547,1,8,0:0:0:0:
256,192,160754,1,0,0:0:0:0:
256,192,160961,1,8,0:0:0:0:
256,192,161375,1,0,0:0:0:0:
256,192,161582,1,8,0:0:0:0:
256,192,161789,1,8,0:0:0:0:
256,192,161996,1,0,0:0:0:0:
256,192,162203,1,8,0:0:0:0:
256,192,162410,1,0,0:0:0:0:
256,192,162616,1,8,0:0:0:0:
256,192,162823,1,8,0:0:0:0:
256,192,163030,1,0,0:0:0:0:
256,192,163237,1,0,0:0:0:0:
256,192,163444,1,8,0:0:0:0:
256,192,163651,1,0,0:0:0:0:
256,192,163858,1,8,0:0:0:0:
256,192,164065,1,0,0:0:0:0:
256,192,164272,1,8,0:0:0:0:
256,192,164478,1,8,0:0:0:0:
256,192,164685,1,0,0:0:0:0:
256,192,164892,1,8,0:0:0:0:
256,192,165099,1,8,0:0:0:0:
256,192,165306,1,0,0:0:0:0:
256,192,165375,1,0,0:0:0:0:
256,192,165444,1,0,0:0:0:0:
256,192,165513,1,8,0:0:0:0:
256,192,165720,1,0,0:0:0:0:
256,192,165927,1,12,0:0:0:0:
256,192,166341,1,0,0:0:0:0:
256,192,166547,1,8,0:0:0:0:
256,192,166754,1,8,0:0:0:0:
256,192,166961,1,0,0:0:0:0:
256,192,167168,1,8,0:0:0:0:
256,192,167375,1,0,0:0:0:0:
256,192,167582,1,8,0:0:0:0:
256,192,167789,1,8,0:0:0:0:
256,192,167996,1,8,0:0:0:0:
256,192,168203,1,0,0:0:0:0:
256,192,168410,1,8,0:0:0:0:
256,192,168616,1,0,0:0:0:0:
256,192,168823,1,8,0:0:0:0:
256,192,169030,1,8,0:0:0:0:
256,192,169237,1,0,0:0:0:0:
256,192,169651,1,8,0:0:0:0:
256,192,169858,1,0,0:0:0:0:
256,192,170065,1,8,0:0:0:0:
256,192,170272,1,0,0:0:0:0:
256,192,170478,1,8,0:0:0:0:
256,192,170685,1,0,0:0:0:0:
256,192,170892,1,8,0:0:0:0:
256,192,171099,1,0,0:0:0:0:
256,192,171306,1,8,0:0:0:0:
256,192,171513,1,8,0:0:0:0:
256,192,171616,1,0,0:0:0:0:
256,192,171720,1,8,0:0:0:0:
256,192,171927,1,0,0:0:0:0:
256,192,171996,1,0,0:0:0:0:
256,192,172065,1,0,0:0:0:0:
256,192,172134,1,8,0:0:0:0:
256,192,172341,1,0,0:0:0:0:
256,192,172547,1,12,0:0:0:0:
256,192,172961,1,8,0:0:0:0:
256,192,173168,1,0,0:0:0:0:
256,192,173375,1,8,0:0:0:0:
256,192,173582,1,0,0:0:0:0:
256,192,173789,1,8,0:0:0:0:
256,192,173996,1,0,0:0:0:0:
256,192,174203,1,8,0:0:0:0:
256,192,174410,1,8,0:0:0:0:
256,192,174616,1,8,0:0:0:0:
256,192,174823,1,0,0:0:0:0:
256,192,175030,1,8,0:0:0:0:
256,192,175237,1,0,0:0:0:0:
256,192,175341,1,0,0:0:0:0:
256,192,175444,1,8,0:0:0:0:
256,192,175651,1,8,0:0:0:0:
256,192,175858,1,4,0:0:0:0:
256,192,176272,1,8,0:0:0:0:
256,192,176478,1,0,0:0:0:0:
256,192,176685,1,8,0:0:0:0:
256,192,176892,1,0,0:0:0:0:
256,192,177099,1,8,0:0:0:0:
256,192,177306,1,0,0:0:0:0:
256,192,177513,1,8,0:0:0:0:
256,192,177720,1,8,0:0:0:0:
256,192,177927,1,8,0:0:0:0:
256,192,178134,1,0,0:0:0:0:
256,192,178341,1,8,0:0:0:0:
256,192,178547,1,0,0:0:0:0:
256,192,178616,1,0,0:0:0:0:
256,192,178685,1,0,0:0:0:0:
256,192,178754,1,8,0:0:0:0:
256,192,178961,1,8,0:0:0:0:
256,192,179168,1,0,0:0:0:0:
256,192,179272,1,0,0:0:0:0:
256,192,179375,1,0,0:0:0:0:
256,192,179478,1,0,0:0:0:0:
256,192,179582,1,8,0:0:0:0:
256,192,179789,1,0,0:0:0:0:
256,192,179996,1,8,0:0:0:0:
256,192,180099,1,0,0:0:0:0:
256,192,180203,1,0,0:0:0:0:
256,192,180306,1,0,0:0:0:0:
256,192,180410,1,8,0:0:0:0:
256,192,180616,1,0,0:0:0:0:
256,192,180823,1,8,0:0:0:0:
256,192,180927,1,8,0:0:0:0:
256,192,181030,1,0,0:0:0:0:
256,192,181134,1,0,0:0:0:0:
256,192,181237,1,8,0:0:0:0:
256,192,181444,1,0,0:0:0:0:
256,192,181651,1,8,0:0:0:0:
256,192,181754,1,0,0:0:0:0:
256,192,181858,1,0,0:0:0:0:
256,192,181961,1,0,0:0:0:0:
256,192,182065,1,8,0:0:0:0:
256,192,182272,1,0,0:0:0:0:
256,192,182478,1,8,0:0:0:0:
256,192,182582,1,0,0:0:0:0:
256,192,182685,1,0,0:0:0:0:
256,192,182789,1,8,0:0:0:0:
256,192,182892,1,0,0:0:0:0:
256,192,182996,1,0,0:0:0:0:
256,192,183099,1,8,0:0:0:0:
256,192,183306,1,0,0:0:0:0:
256,192,183513,1,0,0:0:0:0:
256,192,183616,1,0,0:0:0:0:
256,192,183720,1,8,0:0:0:0:
256,192,183823,1,8,0:0:0:0:
256,192,183927,1,0,0:0:0:0:
256,192,184134,1,4,0:0:0:0:
256,192,184961,1,4,0:0:0:0:
256,192,185789,1,4,0:0:0:0:
