osu file format v14

[General]
AudioFilename: audio.mp3
AudioLeadIn: 0
PreviewTime: 96410
Countdown: 0
SampleSet: Normal
StackLeniency: 0.7
Mode: 1
LetterboxInBreaks: 0
WidescreenStoryboard: 1

[Editor]
DistanceSpacing: 1
BeatDivisor: 4
GridSize: 4
TimelineZoom: 3.199999

[Metadata]
Title:Story In Everlasting Princess
TitleUnicode:Story In Everlasting Princess
Artist:Yokomin feat. Yuzuki Yukari
ArtistUnicode:Yokomin feat. 結月ゆかり
Creator:Chromoxx
Version:Muzukashii
Source:
Tags:Okoratu Okorin Vocaloid Loudrock Projects A Place Where You Hope C86 Album VOCALOUD
BeatmapID:1188084
BeatmapSetID:527735

[Difficulty]
HPDrainRate:6
CircleSize:5
OverallDifficulty:5
ApproachRate:5
SliderMultiplier:1.4
SliderTickRate:1

[Events]
//Background and Video events
0,0,"bg.jpg",0,0
//Break Periods
//Storyboard Layer 0 (Background)
//Storyboard Layer 1 (Fail)
//Storyboard Layer 2 (Pass)
//Storyboard Layer 3 (Foreground)
//Storyboard Sound Samples

[TimingPoints]
410,413.793103448276,4,1,0,100,1,0
99720,-100,4,1,0,100,0,1
126203,-100,4,1,0,100,0,0
159306,-100,4,1,0,100,0,1
185789,-100,4,1,0,100,0,0

[HitObjects]
248,188,410,5,12,0:0:0:0:
248,188,720,1,4,0:0:0:0:
248,188,1030,1,12,0:0:0:0:
368,316,1444,1,0,0:0:0:0:
368,316,1651,1,8,0:0:0:0:
256,244,2065,1,0,0:0:0:0:
256,244,2478,1,8,0:0:0:0:
192,240,2685,1,0,0:0:0:0:
192,232,3099,1,0,0:0:0:0:
156,248,3203,1,0,0:0:0:0:
188,276,3306,1,0,0:0:0:0:
192,200,3720,1,4,0:0:0:0:
192,200,4030,1,4,0:0:0:0:
188,192,4341,1,12,0:0:0:0:
188,192,4754,1,0,0:0:0:0:
188,192,4961,1,8,0:0:0:0:
188,192,5375,1,0,0:0:0:0:
192,172,5789,1,8,0:0:0:0:
192,172,5996,1,0,0:0:0:0:
196,248,6410,1,8,0:0:0:0:
172,248,6513,1,8,0:0:0:0:
172,236,6616,1,8,0:0:0:0:
192,172,7030,1,4,0:0:0:0:
192,172,7341,1,4,0:0:0:0:
192,172,7651,1,4,0:0:0:0:
88,240,8065,1,0,0:0:0:0:
104,220,8272,1,8,0:0:0:0:
104,212,8685,1,8,0:0:0:0:
104,256,8892,1,0,0:0:0:0:
104,256,8996,1,0,0:0:0:0:
112,244,9099,1,0,0:0:0:0:
112,232,9306,1,8,0:0:0:0:
112,232,9513,1,0,0:0:0:0:
116,232,9616,1,0,0:0:0:0:
116,228,9720,1,0,0:0:0:0:
116,228,9927,1,8,0:0:0:0:
120,224,10341,1,4,0:0:0:0:
116,228,10651,1,4,0:0:0:0:
120,224,10961,1,12,0:0:0:0:
116,216,11375,1,0,0:0:0:0:
116,216,11478,1,0,0:0:0:0:
116,216,11582,1,0,0:0:0:0:
116,216,11789,1,0,0:0:0:0:
36,192,11996,2,4,L|92:184,12,35
280,156,13651,1,4,0:0:0:0:
272,236,13961,1,0,0:0:0:0:
136,152,14272,1,8,0:0:0:0:
272,168,14478,1,0,0:0:0:0:
240,272,14685,1,0,0:0:0:0:
216,264,14892,1,8,0:0:0:0:
124,204,15099,1,8,0:0:0:0:
168,168,15306,1,0,0:0:0:0:
292,236,15616,1,0,0:0:0:0:
196,256,15927,1,8,0:0:0:0:
200,244,16134,1,0,0:0:0:0:
220,160,16341,1,8,0:0:0:0:
220,160,16547,1,0,0:0:0:0:
220,160,16754,1,8,0:0:0:0:
220,160,16961,1,0,0:0:0:0:
340,228,17272,1,0,0:0:0:0:
324,200,17582,1,8,0:0:0:0:
324,200,17789,1,0,0:0:0:0:
324,200,17996,1,0,0:0:0:0:
180,236,18203,1,0,0:0:0:0:
180,236,18410,1,8,0:0:0:0:
112,136,18616,1,0,0:0:0:0:
264,200,19444,1,0,0:0:0:0:
264,200,19547,1,0,0:0:0:0:
264,200,19651,1,0,0:0:0:0:
264,172,19858,1,8,0:0:0:0:
264,172,19961,1,8,0:0:0:0:
264,172,20065,1,8,0:0:0:0:
244,140,20272,1,4,0:0:0:0:
208,240,20582,1,0,0:0:0:0:
200,140,20892,1,8,0:0:0:0:
200,140,21099,1,0,0:0:0:0:
200,140,21306,1,8,0:0:0:0:
200,140,21513,1,0,0:0:0:0:
200,140,21720,1,8,0:0:0:0:
200,140,21927,1,0,0:0:0:0:
200,140,22237,1,0,0:0:0:0:
200,140,22547,1,8,0:0:0:0:
200,140,22754,1,0,0:0:0:0:
200,140,22961,1,0,0:0:0:0:
200,140,23168,1,8,0:0:0:0:
200,140,23375,1,8,0:0:0:0:
200,140,23582,1,0,0:0:0:0:
280,248,23892,1,0,0:0:0:0:
280,240,24203,1,8,0:0:0:0:
280,232,24410,1,0,0:0:0:0:
280,232,24616,1,8,0:0:0:0:
280,232,24823,1,0,0:0:0:0:
164,248,25030,1,0,0:0:0:0:
164,248,25237,1,8,0:0:0:0:
284,184,26065,1,0,0:0:0:0:
284,184,26168,1,0,0:0:0:0:
284,184,26272,1,0,0:0:0:0:
288,188,26478,1,8,0:0:0:0:
288,188,26582,1,8,0:0:0:0:
288,188,26685,1,8,0:0:0:0:
284,184,26892,1,4,0:0:0:0:
284,184,27203,1,0,0:0:0:0:
280,180,27513,1,8,0:0:0:0:
248,184,27720,1,0,0:0:0:0:
248,184,27927,1,0,0:0:0:0:
248,176,28134,1,8,0:0:0:0:
248,176,28341,1,8,0:0:0:0:
248,176,28547,1,0,0:0:0:0:
248,176,28858,1,0,0:0:0:0:
308,248,29168,1,8,0:0:0:0:
256,236,29375,1,0,0:0:0:0:
256,236,29582,1,8,0:0:0:0:
256,232,29789,1,0,0:0:0:0:
256,232,29996,1,8,0:0:0:0:
200,240,30203,1,0,0:0:0:0:
200,240,30513,1,0,0:0:0:0:
200,240,30823,1,8,0:0:0:0:
200,240,31030,1,0,0:0:0:0:
200,240,31237,1,0,0:0:0:0:
192,248,31444,1,0,0:0:0:0:
192,248,31651,1,8,0:0:0:0:
192,248,31858,1,0,0:0:0:0:
168,220,32685,1,0,0:0:0:0:
168,220,32789,1,0,0:0:0:0:
168,220,32892,1,0,0:0:0:0:
168,220,33099,1,8,0:0:0:0:
168,220,33203,1,8,0:0:0:0:
168,220,33306,1,8,0:0:0:0:
172,208,33513,1,4,0:0:0:0:
176,192,33823,1,0,0:0:0:0:
176,192,34134,1,8,0:0:0:0:
176,192,34341,1,0,0:0:0:0:
132,248,34547,1,8,0:0:0:0:
132,248,34754,1,0,0:0:0:0:
176,192,34961,1,8,0:0:0:0:
176,192,35168,1,0,0:0:0:0:
176,192,35478,1,0,0:0:0:0:
176,192,35789,1,8,0:0:0:0:
176,192,35996,1,0,0:0:0:0:
132,244,36203,1,0,0:0:0:0:
132,244,36410,1,8,0:0:0:0:
176,192,36616,1,8,0:0:0:0:
160,168,36823,1,0,0:0:0:0:
132,244,37134,1,0,0:0:0:0:
132,244,37444,1,8,0:0:0:0:
132,244,37651,1,0,0:0:0:0:
264,328,37858,1,8,0:0:0:0:
244,328,38065,1,0,0:0:0:0:
132,244,38272,1,0,0:0:0:0:
132,244,38478,1,8,0:0:0:0:
380,248,38685,1,8,0:0:0:0:
380,248,38789,1,8,0:0:0:0:
380,248,38892,1,8,0:0:0:0:
380,248,39099,1,0,0:0:0:0:
328,328,39306,1,8,0:0:0:0:
328,328,39513,1,0,0:0:0:0:
324,320,39720,1,8,0:0:0:0:
324,320,39823,1,8,0:0:0:0:
324,320,39927,1,8,0:0:0:0:
264,252,40134,1,4,0:0:0:0:
268,248,40961,1,0,0:0:0:0:
268,248,41789,1,0,0:0:0:0:
268,248,42616,1,8,0:0:0:0:
268,248,43030,1,0,0:0:0:0:
268,248,43444,1,0,0:0:0:0:
256,244,44272,1,0,0:0:0:0:
256,244,45099,1,0,0:0:0:0:
256,244,45927,1,8,0:0:0:0:
256,244,46341,1,0,0:0:0:0:
256,244,46754,1,4,0:0:0:0:
232,260,47582,1,8,0:0:0:0:
232,260,47996,1,0,0:0:0:0:
232,260,48410,1,0,0:0:0:0:
232,260,49237,1,8,0:0:0:0:
232,260,49651,1,8,0:0:0:0:
232,260,50065,1,0,0:0:0:0:
232,260,50892,1,8,0:0:0:0:
232,260,51306,1,0,0:0:0:0:
232,260,51720,1,12,0:0:0:0:
232,252,52961,1,8,0:0:0:0:
152,300,53375,1,4,0:0:0:0:
228,232,53789,1,0,0:0:0:0:
228,232,54203,1,0,0:0:0:0:
228,232,54410,1,0,0:0:0:0:
228,232,54513,1,0,0:0:0:0:
228,232,54616,1,0,0:0:0:0:
228,232,55030,1,0,0:0:0:0:
228,232,55341,1,0,0:0:0:0:
228,232,55651,1,0,0:0:0:0:
228,232,55858,1,0,0:0:0:0:
228,232,56065,1,0,0:0:0:0:
52,160,56168,1,0,0:0:0:0:
52,160,56272,1,0,0:0:0:0:
332,272,56685,1,0,0:0:0:0:
332,272,57099,1,0,0:0:0:0:
332,272,57513,1,0,0:0:0:0:
332,272,57720,1,0,0:0:0:0:
332,272,57823,1,0,0:0:0:0:
332,272,57927,1,0,0:0:0:0:
312,224,58341,1,4,0:0:0:0:
312,224,59168,1,8,0:0:0:0:
308,208,59375,1,8,0:0:0:0:
308,208,59478,1,8,0:0:0:0:
232,272,59582,1,8,0:0:0:0:
224,252,59996,1,4,0:0:0:0:
176,296,60410,1,0,0:0:0:0:
176,296,60823,1,0,0:0:0:0:
176,296,61030,1,0,0:0:0:0:
176,176,61134,1,0,0:0:0:0:
176,176,61237,1,0,0:0:0:0:
296,280,61651,1,0,0:0:0:0:
296,280,61961,1,0,0:0:0:0:
224,224,62272,1,0,0:0:0:0:
224,224,62478,1,0,0:0:0:0:
220,208,62685,1,0,0:0:0:0:
220,208,62789,1,0,0:0:0:0:
220,208,62892,1,0,0:0:0:0:
220,208,63306,1,0,0:0:0:0:
220,208,63720,1,0,0:0:0:0:
220,208,64134,1,0,0:0:0:0:
220,208,64341,1,0,0:0:0:0:
304,276,64444,1,0,0:0:0:0:
304,276,64547,1,0,0:0:0:0:
312,260,64961,1,4,0:0:0:0:
312,260,65789,1,8,0:0:0:0:
308,252,65996,1,8,0:0:0:0:
308,252,66099,1,8,0:0:0:0:
308,248,66203,1,8,0:0:0:0:
308,224,66616,1,4,0:0:0:0:
308,224,68272,1,8,0:0:0:0:
244,216,68478,1,0,0:0:0:0:
252,216,68582,1,0,0:0:0:0:
244,216,68685,1,0,0:0:0:0:
256,212,68892,1,0,0:0:0:0:
252,208,69099,1,0,0:0:0:0:
180,188,69203,1,0,0:0:0:0:
256,212,69306,1,0,0:0:0:0:
180,188,69513,1,8,0:0:0:0:
200,192,69927,1,0,0:0:0:0:
256,264,70341,1,12,0:0:0:0:
260,128,70961,1,0,0:0:0:0:
260,128,71168,1,8,0:0:0:0:
260,128,71375,1,0,0:0:0:0:
260,128,71582,1,0,0:0:0:0:
260,128,71996,1,8,0:0:0:0:
260,120,72203,1,0,0:0:0:0:
256,120,72616,1,0,0:0:0:0:
260,120,72823,1,8,0:0:0:0:
248,144,73237,1,0,0:0:0:0:
252,264,73651,1,12,0:0:0:0:
216,152,74272,1,0,0:0:0:0:
216,152,74478,1,8,0:0:0:0:
180,236,74685,1,0,0:0:0:0:
180,236,74892,1,4,0:0:0:0:
200,188,75513,1,0,0:0:0:0:
200,188,75720,1,8,0:0:0:0:
204,168,75927,1,8,0:0:0:0:
204,168,76030,1,8,0:0:0:0:
204,168,76134,1,8,0:0:0:0:
204,168,76547,1,0,0:0:0:0:
204,168,76961,1,12,0:0:0:0:
232,216,77582,1,0,0:0:0:0:
232,216,77789,1,8,0:0:0:0:
216,216,77996,1,0,0:0:0:0:
232,216,78203,1,0,0:0:0:0:
216,216,78616,1,8,0:0:0:0:
216,216,78823,1,0,0:0:0:0:
216,216,79237,1,0,0:0:0:0:
216,216,79444,1,8,0:0:0:0:
216,216,79858,1,0,0:0:0:0:
216,216,80272,1,12,0:0:0:0:
212,204,80892,1,0,0:0:0:0:
136,152,81099,1,8,0:0:0:0:
136,152,81306,1,0,0:0:0:0:
136,152,81513,1,0,0:0:0:0:
256,248,81823,1,0,0:0:0:0:
256,248,82134,1,0,0:0:0:0:
256,236,82547,1,0,0:0:0:0:
256,236,82754,1,8,0:0:0:0:
248,216,83168,1,4,0:0:0:0:
248,216,83582,1,8,0:0:0:0:
248,216,83996,1,0,0:0:0:0:
240,252,84203,1,0,0:0:0:0:
248,216,84410,1,8,0:0:0:0:
248,216,84823,1,0,0:0:0:0:
240,188,85237,1,8,0:0:0:0:
316,204,85444,1,8,0:0:0:0:
240,188,85651,1,0,0:0:0:0:
240,188,85858,1,0,0:0:0:0:
240,188,86065,1,8,0:0:0:0:
240,188,86478,1,4,0:0:0:0:
240,188,86892,1,8,0:0:0:0:
28,216,87306,1,0,0:0:0:0:
240,224,87720,1,8,0:0:0:0:
240,224,87927,1,0,0:0:0:0:
240,224,88341,1,0,0:0:0:0:
240,224,88547,1,8,0:0:0:0:
240,224,88961,1,0,0:0:0:0:
272,164,89168,1,0,0:0:0:0:
240,224,89375,1,8,0:0:0:0:
240,224,89789,1,4,0:0:0:0:
232,208,90203,1,8,0:0:0:0:
232,208,90410,1,0,0:0:0:0:
232,208,90616,1,8,0:0:0:0:
232,208,90823,1,0,0:0:0:0:
48,164,91030,1,8,0:0:0:0:
300,260,91444,1,0,0:0:0:0:
300,260,91651,1,8,0:0:0:0:
300,260,91858,1,0,0:0:0:0:
300,260,92065,1,8,0:0:0:0:
292,252,92272,1,0,0:0:0:0:
292,252,92685,1,8,0:0:0:0:
288,248,93099,1,8,0:0:0:0:
364,216,93306,1,8,0:0:0:0:
364,216,93410,1,8,0:0:0:0:
364,216,93513,1,8,0:0:0:0:
364,216,93720,1,0,0:0:0:0:
352,324,93927,1,8,0:0:0:0:
352,324,94134,1,0,0:0:0:0:
352,320,94237,1,0,0:0:0:0:
352,312,94341,1,0,0:0:0:0:
352,316,94547,1,0,0:0:0:0:
32,216,94754,2,4,L|480:208,1,420
204,192,96410,1,4,0:0:0:0:
204,192,99720,1,4,0:0:0:0:
112,232,100134,1,12,0:0:0:0:
112,232,100547,1,4,0:0:0:0:
112,232,100961,1,4,0:0:0:0:
112,232,101375,1,12,0:0:0:0:
112,232,101789,1,4,0:0:0:0:
184,148,102203,1,12,0:0:0:0:
116,232,102616,1,12,0:0:0:0:
240,201,102823,1,12,0:0:0:0:
176,128,103030,1,4,0:0:0:0:
176,124,103444,1,12,0:0:0:0:
132,236,103858,1,4,0:0:0:0:
132,236,104272,1,4,0:0:0:0:
132,236,104685,1,12,0:0:0:0:
108,244,105099,1,4,0:0:0:0:
108,228,105513,1,12,0:0:0:0:
108,228,105927,1,12,0:0:0:0:
197,192,106134,1,4,0:0:0:0:
108,228,106341,1,4,0:0:0:0:
108,244,106754,1,12,0:0:0:0:
248,156,107168,1,4,0:0:0:0:
248,156,107582,1,4,0:0:0:0:
248,156,107996,1,12,0:0:0:0:
248,156,108410,1,4,0:0:0:0:
248,156,108823,1,12,0:0:0:0:
248,156,109237,1,12,0:0:0:0:
197,191,109444,1,12,0:0:0:0:
248,156,109651,1,4,0:0:0:0:
248,156,110065,1,12,0:0:0:0:
248,156,110478,1,4,0:0:0:0:
336,172,110892,1,4,0:0:0:0:
336,172,111306,1,12,0:0:0:0:
336,172,111720,1,4,0:0:0:0:
336,172,112134,1,12,0:0:0:0:
336,172,112547,1,12,0:0:0:0:
197,191,112754,1,4,0:0:0:0:
336,172,112961,1,4,0:0:0:0:
276,160,113375,1,8,0:0:0:0:
148,127,113789,1,0,0:0:0:0:
272,156,113996,1,0,0:0:0:0:
272,156,114203,1,8,0:0:0:0:
272,156,114616,1,0,0:0:0:0:
272,156,115030,1,8,0:0:0:0:
148,127,115444,1,8,0:0:0:0:
148,127,115651,1,0,0:0:0:0:
132,104,115858,1,8,0:0:0:0:
272,156,116272,1,0,0:0:0:0:
272,156,116685,1,8,0:0:0:0:
148,127,117099,1,0,0:0:0:0:
272,156,117306,1,0,0:0:0:0:
220,120,117513,1,8,0:0:0:0:
128,88,117927,1,0,0:0:0:0:
216,112,118341,1,8,0:0:0:0:
148,127,118754,1,0,0:0:0:0:
200,240,118961,1,8,0:0:0:0:
200,232,119065,1,8,0:0:0:0:
200,232,119168,1,8,0:0:0:0:
150,112,119582,1,4,0:0:0:0:
200,232,119996,1,8,0:0:0:0:
200,232,120203,1,0,0:0:0:0:
200,232,120410,1,8,0:0:0:0:
200,232,120616,1,0,0:0:0:0:
200,232,120823,1,8,0:0:0:0:
216,160,121237,1,8,0:0:0:0:
216,156,121444,1,0,0:0:0:0:
216,152,121651,1,8,0:0:0:0:
216,152,121858,1,0,0:0:0:0:
216,152,122065,1,8,0:0:0:0:
216,152,122272,1,0,0:0:0:0:
216,152,122478,1,8,0:0:0:0:
320,244,122892,1,8,0:0:0:0:
320,244,123099,1,8,0:0:0:0:
320,244,123203,1,8,0:0:0:0:
320,244,123306,1,8,0:0:0:0:
320,244,123513,1,0,0:0:0:0:
320,244,123720,1,0,0:0:0:0:
216,164,123823,1,0,0:0:0:0:
216,164,123927,1,0,0:0:0:0:
308,272,124134,1,8,0:0:0:0:
308,272,124547,1,0,0:0:0:0:
312,272,124651,1,0,0:0:0:0:
312,272,124754,1,0,0:0:0:0:
312,260,124961,1,8,0:0:0:0:
312,260,125168,1,8,0:0:0:0:
312,260,125375,1,0,0:0:0:0:
312,260,125582,1,8,0:0:0:0:
312,260,125685,1,8,0:0:0:0:
312,260,125789,1,8,0:0:0:0:
155,160,126203,1,4,0:0:0:0:
308,132,127030,1,0,0:0:0:0:
308,132,127858,1,0,0:0:0:0:
308,132,128685,1,0,0:0:0:0:
308,132,129099,1,8,0:0:0:0:
308,132,129513,1,0,0:0:0:0:
308,132,130341,1,0,0:0:0:0:
308,132,131168,1,0,0:0:0:0:
308,132,131996,1,8,0:0:0:0:
308,132,132410,1,8,0:0:0:0:
308,132,132823,1,0,0:0:0:0:
296,212,133651,1,0,0:0:0:0:
292,204,134478,1,0,0:0:0:0:
292,204,135306,1,0,0:0:0:0:
292,204,135720,1,8,0:0:0:0:
292,204,136134,1,0,0:0:0:0:
292,204,136961,1,0,0:0:0:0:
292,204,137789,1,0,0:0:0:0:
292,204,138616,1,8,0:0:0:0:
292,204,139030,1,8,0:0:0:0:
256,216,139444,1,4,0:0:0:0:
256,216,140272,1,4,0:0:0:0:
256,216,141099,1,4,0:0:0:0:
256,216,141927,1,4,0:0:0:0:
232,168,142341,1,12,0:0:0:0:
248,176,142754,1,4,0:0:0:0:
248,176,143582,1,4,0:0:0:0:
248,176,144410,1,4,0:0:0:0:
248,176,145237,1,4,0:0:0:0:
152,144,145651,1,8,0:0:0:0:
228,164,146065,1,0,0:0:0:0:
228,164,146272,1,0,0:0:0:0:
228,164,146478,1,0,0:0:0:0:
228,164,146685,1,0,0:0:0:0:
228,164,146892,1,0,0:0:0:0:
280,232,147099,1,0,0:0:0:0:
280,232,147306,1,0,0:0:0:0:
280,232,147513,1,0,0:0:0:0:
240,240,147720,1,8,0:0:0:0:
240,240,147927,1,8,0:0:0:0:
240,240,148134,1,8,0:0:0:0:
240,240,148341,1,8,0:0:0:0:
240,240,148547,1,8,0:0:0:0:
240,240,148754,1,8,0:0:0:0:
240,240,148961,1,8,0:0:0:0:
232,216,149375,1,8,0:0:0:0:
232,216,149582,1,8,0:0:0:0:
232,216,149685,1,8,0:0:0:0:
232,216,149789,1,8,0:0:0:0:
232,216,149996,1,0,0:0:0:0:
232,216,150203,1,0,0:0:0:0:
232,216,150306,1,0,0:0:0:0:
232,216,150410,1,0,0:0:0:0:
232,216,150616,1,8,0:0:0:0:
196,220,150823,1,0,0:0:0:0:
56,216,151030,2,4,L|92:232,12,35
296,216,152685,1,4,0:0:0:0:
230,234,153306,1,8,0:0:0:0:
206,236,153410,1,8,0:0:0:0:
230,234,153513,1,8,0:0:0:0:
230,248,153927,1,0,0:0:0:0:
230,248,154134,1,12,0:0:0:0:
230,248,154754,1,12,0:0:0:0:
230,248,155168,1,12,0:0:0:0:
230,248,155582,1,12,0:0:0:0:
230,248,155996,1,4,0:0:0:0:
229,242,156823,1,8,0:0:0:0:
229,242,157030,1,0,0:0:0:0:
229,242,157134,1,0,0:0:0:0:
229,242,157237,1,0,0:0:0:0:
227,250,157444,1,12,0:0:0:0:
227,250,157858,1,12,0:0:0:0:
227,250,158065,1,12,0:0:0:0:
284,295,159306,1,4,0:0:0:0:
284,295,159720,1,12,0:0:0:0:
284,295,160134,1,4,0:0:0:0:
284,295,160547,1,4,0:0:0:0:
284,295,160961,1,12,0:0:0:0:
284,295,161375,1,4,0:0:0:0:
284,295,161789,1,12,0:0:0:0:
284,295,162203,1,12,0:0:0:0:
284,208,162410,1,12,0:0:0:0:
284,295,162616,1,4,0:0:0:0:
284,295,163030,1,12,0:0:0:0:
284,295,163444,1,4,0:0:0:0:
284,295,163858,1,4,0:0:0:0:
284,295,164272,1,12,0:0:0:0:
275,258,164685,1,4,0:0:0:0:
275,258,165099,1,12,0:0:0:0:
275,258,165513,1,12,0:0:0:0:
283,207,165720,1,4,0:0:0:0:
275,258,165927,1,4,0:0:0:0:
275,258,166341,1,12,0:0:0:0:
275,258,166754,1,4,0:0:0:0:
210,260,167168,1,4,0:0:0:0:
210,260,167582,1,12,0:0:0:0:
210,260,167996,1,4,0:0:0:0:
210,260,168410,1,12,0:0:0:0:
210,260,168823,1,12,0:0:0:0:
283,206,169030,1,12,0:0:0:0:
210,260,169237,1,4,0:0:0:0:
210,260,169651,1,12,0:0:0:0:
210,260,170065,1,4,0:0:0:0:
210,260,170478,1,4,0:0:0:0:
210,260,170892,1,12,0:0:0:0:
210,260,171306,1,4,0:0:0:0:
210,260,171720,1,12,0:0:0:0:
210,260,172134,1,12,0:0:0:0:
279,195,172341,1,4,0:0:0:0:
210,260,172547,1,4,0:0:0:0:
210,260,172961,1,8,0:0:0:0:
226,253,173375,1,8,0:0:0:0:
225,253,173582,1,0,0:0:0:0:
225,253,173789,1,8,0:0:0:0:
226,253,174203,1,8,0:0:0:0:
225,253,174410,1,0,0:0:0:0:
225,253,174616,1,8,0:0:0:0:
246,234,174823,1,0,0:0:0:0:
246,234,175030,1,8,0:0:0:0:
246,234,175444,1,8,0:0:0:0:
261,232,175858,1,4,0:0:0:0:
261,232,176272,1,8,0:0:0:0:
261,232,176685,1,8,0:0:0:0:
261,232,176892,1,0,0:0:0:0:
261,232,177099,1,8,0:0:0:0:
261,232,177513,1,8,0:0:0:0:
261,232,177720,1,0,0:0:0:0:
261,232,177927,1,8,0:0:0:0:
261,232,178134,1,0,0:0:0:0:
261,232,178341,1,8,0:0:0:0:
261,232,178754,1,8,0:0:0:0:
261,232,179168,1,0,0:0:0:0:
281,229,179375,1,0,0:0:0:0:
281,229,179478,1,0,0:0:0:0:
281,229,179582,1,0,0:0:0:0:
281,228,179789,1,0,0:0:0:0:
281,228,179892,1,0,0:0:0:0:
281,229,179996,1,0,0:0:0:0:
264,169,180203,1,0,0:0:0:0:
264,169,180306,1,0,0:0:0:0:
264,169,180410,1,0,0:0:0:0:
258,221,180823,1,8,0:0:0:0:
268,249,181030,1,8,0:0:0:0:
162,172,181134,1,8,0:0:0:0:
268,249,181237,1,8,0:0:0:0:
149,148,181444,1,8,0:0:0:0:
149,148,181547,1,8,0:0:0:0:
149,148,181651,1,8,0:0:0:0:
149,148,181858,1,8,0:0:0:0:
149,148,181961,1,8,0:0:0:0:
164,145,182065,1,8,0:0:0:0:
310,249,182478,1,8,0:0:0:0:
310,249,182685,1,0,0:0:0:0:
310,249,182789,1,0,0:0:0:0:
310,249,182892,1,0,0:0:0:0:
218,172,183099,1,8,0:0:0:0:
218,172,183306,1,0,0:0:0:0:
216,159,183410,1,0,0:0:0:0:
216,159,183513,1,0,0:0:0:0:
316,280,183720,1,8,0:0:0:0:
300,283,183823,1,8,0:0:0:0:
298,282,183927,1,8,0:0:0:0:
297,275,184134,1,4,0:0:0:0:
297,275,184961,1,12,0:0:0:0:
281,252,185789,1,4,0:0:0:0:
