osu file format v14

[General]
AudioFilename: audio.mp3
AudioLeadIn: 0
PreviewTime: 96410
Countdown: 0
SampleSet: Normal
StackLeniency: 0.7
Mode: 1
LetterboxInBreaks: 0
WidescreenStoryboard: 0

[Editor]
DistanceSpacing: 1
BeatDivisor: 4
GridSize: 4
TimelineZoom: 3.199999

[Metadata]
Title:Story In Everlasting Princess
TitleUnicode:Story In Everlasting Princess
Artist:Yokomin feat. Yuzuki Yukari
ArtistUnicode:Yokomin feat. 結月ゆかり
Creator:Chromoxx
Version:Inner Oni
Source:
Tags:Okoratu Okorin Vocaloid Loudrock Projects A Place Where You Hope C86 Album VOCALOUD
BeatmapID:1119559
BeatmapSetID:527735

[Difficulty]
HPDrainRate:6
CircleSize:5
OverallDifficulty:6
ApproachRate:5
SliderMultiplier:1.4
SliderTickRate:1

[Events]
//Background and Video events
0,0,"bg.jpg",0,0
//Break Periods
//Storyboard Layer 0 (Background)
//Storyboard Layer 1 (Fail)
//Storyboard Layer 2 (Pass)
//Storyboard Layer 3 (Foreground)
//Storyboard Sound Samples

[TimingPoints]
410,413.793103448276,4,1,0,100,1,0
410,-66.6666666666667,4,1,0,100,0,0
99720,-66.6666666666667,4,1,0,100,0,1
126203,-66.6666666666667,4,1,0,100,0,0
159306,-66.6666666666667,4,1,0,100,0,1
185789,-66.6666666666667,4,1,0,100,0,0

[HitObjects]
100,112,410,5,12,0:0:0:0:
224,120,720,1,4,0:0:0:0:
224,120,1030,1,12,0:0:0:0:
256,112,1444,1,0,0:0:0:0:
204,112,1651,1,8,0:0:0:0:
204,112,1858,1,0,0:0:0:0:
204,112,2065,1,0,0:0:0:0:
112,156,2375,1,0,0:0:0:0:
112,144,2478,1,8,0:0:0:0:
152,136,2685,1,0,0:0:0:0:
16,144,3099,1,0,0:0:0:0:
232,208,3203,1,0,0:0:0:0:
144,120,3306,1,8,0:0:0:0:
252,128,3720,1,4,0:0:0:0:
232,104,4030,1,4,0:0:0:0:
232,104,4341,1,12,0:0:0:0:
372,264,4754,1,0,0:0:0:0:
320,200,4961,1,8,0:0:0:0:
144,128,5168,1,0,0:0:0:0:
104,104,5272,1,0,0:0:0:0:
120,100,5375,1,0,0:0:0:0:
192,160,5685,1,0,0:0:0:0:
192,160,5789,1,8,0:0:0:0:
192,160,5996,1,0,0:0:0:0:
260,204,6410,1,0,0:0:0:0:
260,204,6513,1,0,0:0:0:0:
260,204,6616,1,8,0:0:0:0:
260,204,7030,1,4,0:0:0:0:
260,204,7341,1,4,0:0:0:0:
260,204,7651,1,4,0:0:0:0:
320,248,8065,1,0,0:0:0:0:
320,248,8272,1,8,0:0:0:0:
320,248,8478,1,0,0:0:0:0:
368,240,8685,1,8,0:0:0:0:
368,240,8789,1,8,0:0:0:0:
368,240,8892,1,0,0:0:0:0:
368,240,8996,1,0,0:0:0:0:
368,240,9099,1,0,0:0:0:0:
368,240,9203,1,0,0:0:0:0:
368,240,9306,1,8,0:0:0:0:
368,240,9410,1,8,0:0:0:0:
368,240,9513,1,0,0:0:0:0:
368,240,9616,1,0,0:0:0:0:
368,240,9720,1,0,0:0:0:0:
368,240,9823,1,0,0:0:0:0:
368,240,9927,1,8,0:0:0:0:
368,240,10134,1,0,0:0:0:0:
368,240,10341,1,4,0:0:0:0:
396,304,10651,1,4,0:0:0:0:
396,292,10961,1,12,0:0:0:0:
292,212,11375,1,0,0:0:0:0:
292,212,11444,1,0,0:0:0:0:
292,212,11513,1,0,0:0:0:0:
292,212,11582,1,8,0:0:0:0:
320,288,11789,1,0,0:0:0:0:
296,108,11996,1,8,0:0:0:0:
288,104,12065,1,8,0:0:0:0:
288,104,12134,1,8,0:0:0:0:
288,104,12203,1,0,0:0:0:0:
288,104,12272,1,0,0:0:0:0:
288,104,12341,1,0,0:0:0:0:
288,104,12410,1,8,0:0:0:0:
288,104,12478,1,0,0:0:0:0:
288,104,12547,1,0,0:0:0:0:
360,252,12616,1,0,0:0:0:0:
352,240,12685,1,0,0:0:0:0:
352,240,12754,1,0,0:0:0:0:
308,268,12823,1,8,0:0:0:0:
308,268,12892,1,8,0:0:0:0:
300,260,12961,1,8,0:0:0:0:
296,280,13030,1,0,0:0:0:0:
288,268,13099,1,0,0:0:0:0:
280,260,13168,1,0,0:0:0:0:
280,260,13237,1,8,0:0:0:0:
308,268,13651,1,0,0:0:0:0:
308,104,13858,1,8,0:0:0:0:
316,84,13961,1,0,0:0:0:0:
316,84,14168,1,0,0:0:0:0:
316,84,14272,1,8,0:0:0:0:
332,184,14478,1,0,0:0:0:0:
332,184,14582,1,0,0:0:0:0:
332,184,14685,1,8,0:0:0:0:
332,184,14892,1,0,0:0:0:0:
332,184,14996,1,0,0:0:0:0:
332,184,15099,1,8,0:0:0:0:
332,184,15306,1,0,0:0:0:0:
404,304,15513,1,8,0:0:0:0:
400,284,15616,1,0,0:0:0:0:
80,132,15823,1,0,0:0:0:0:
80,132,15927,1,8,0:0:0:0:
344,204,16134,1,0,0:0:0:0:
344,200,16237,1,0,0:0:0:0:
344,204,16341,1,8,0:0:0:0:
344,204,16547,1,0,0:0:0:0:
344,204,16651,1,0,0:0:0:0:
344,204,16754,1,8,0:0:0:0:
344,204,16961,1,0,0:0:0:0:
372,212,17168,1,8,0:0:0:0:
372,212,17272,1,0,0:0:0:0:
372,212,17478,1,0,0:0:0:0:
372,212,17582,1,8,0:0:0:0:
372,212,17789,1,0,0:0:0:0:
372,212,17892,1,0,0:0:0:0:
372,212,17996,1,8,0:0:0:0:
372,212,18203,1,0,0:0:0:0:
372,212,18410,1,8,0:0:0:0:
372,212,18513,1,8,0:0:0:0:
372,212,18616,1,0,0:0:0:0:
380,264,18823,1,8,0:0:0:0:
380,264,18927,1,0,0:0:0:0:
380,264,19134,1,0,0:0:0:0:
380,264,19237,1,8,0:0:0:0:
388,80,19444,1,0,0:0:0:0:
388,80,19513,1,0,0:0:0:0:
388,80,19582,1,0,0:0:0:0:
388,80,19651,1,8,0:0:0:0:
388,80,19858,1,0,0:0:0:0:
388,80,19927,1,0,0:0:0:0:
388,80,19996,1,0,0:0:0:0:
388,80,20065,1,8,0:0:0:0:
304,240,20272,1,0,0:0:0:0:
368,216,20478,1,8,0:0:0:0:
368,216,20582,1,0,0:0:0:0:
368,208,20789,1,0,0:0:0:0:
356,160,20892,1,8,0:0:0:0:
356,160,21099,1,0,0:0:0:0:
356,160,21203,1,0,0:0:0:0:
356,160,21306,1,8,0:0:0:0:
356,160,21513,1,0,0:0:0:0:
356,160,21616,1,0,0:0:0:0:
356,160,21720,1,8,0:0:0:0:
272,260,21927,1,0,0:0:0:0:
248,168,22134,1,8,0:0:0:0:
248,168,22237,1,0,0:0:0:0:
248,168,22444,1,0,0:0:0:0:
248,168,22547,1,8,0:0:0:0:
316,236,22754,1,0,0:0:0:0:
304,236,22858,1,0,0:0:0:0:
304,236,22961,1,8,0:0:0:0:
264,208,23168,1,0,0:0:0:0:
276,220,23272,1,0,0:0:0:0:
264,208,23375,1,8,0:0:0:0:
264,208,23478,1,8,0:0:0:0:
264,208,23582,1,0,0:0:0:0:
264,196,23789,1,8,0:0:0:0:
264,196,23892,1,0,0:0:0:0:
264,196,24099,1,0,0:0:0:0:
264,196,24203,1,8,0:0:0:0:
144,212,24410,1,0,0:0:0:0:
172,224,24513,1,0,0:0:0:0:
172,224,24616,1,0,0:0:0:0:
172,224,24823,1,8,0:0:0:0:
172,224,24927,1,0,0:0:0:0:
172,224,25030,1,8,0:0:0:0:
364,304,25237,1,0,0:0:0:0:
328,312,25444,1,8,0:0:0:0:
328,312,25547,1,0,0:0:0:0:
328,332,25754,1,0,0:0:0:0:
328,328,25858,1,8,0:0:0:0:
224,176,26065,1,0,0:0:0:0:
228,164,26134,1,0,0:0:0:0:
228,164,26203,1,0,0:0:0:0:
228,160,26272,1,8,0:0:0:0:
228,160,26478,1,0,0:0:0:0:
120,108,26547,1,0,0:0:0:0:
120,108,26616,1,0,0:0:0:0:
120,108,26685,1,8,0:0:0:0:
404,264,26892,1,0,0:0:0:0:
408,208,27099,1,8,0:0:0:0:
408,208,27203,1,0,0:0:0:0:
408,208,27410,1,0,0:0:0:0:
408,208,27513,1,8,0:0:0:0:
408,208,27720,1,0,0:0:0:0:
408,208,27823,1,0,0:0:0:0:
408,208,27927,1,8,0:0:0:0:
408,208,28134,1,0,0:0:0:0:
408,208,28237,1,0,0:0:0:0:
408,208,28341,1,8,0:0:0:0:
348,332,28547,1,0,0:0:0:0:
348,248,28754,1,8,0:0:0:0:
348,248,28858,1,0,0:0:0:0:
348,248,29065,1,0,0:0:0:0:
348,248,29168,1,8,0:0:0:0:
348,248,29375,1,0,0:0:0:0:
348,248,29478,1,0,0:0:0:0:
348,248,29582,1,8,0:0:0:0:
348,248,29789,1,0,0:0:0:0:
348,248,29892,1,0,0:0:0:0:
348,248,29996,1,8,0:0:0:0:
288,192,30203,1,0,0:0:0:0:
288,184,30410,1,8,0:0:0:0:
288,184,30513,1,0,0:0:0:0:
284,184,30720,1,0,0:0:0:0:
284,184,30823,1,8,0:0:0:0:
284,184,31030,1,0,0:0:0:0:
284,184,31134,1,0,0:0:0:0:
284,180,31237,1,8,0:0:0:0:
284,176,31444,1,0,0:0:0:0:
284,176,31547,1,0,0:0:0:0:
284,176,31651,1,8,0:0:0:0:
284,176,31754,1,8,0:0:0:0:
284,176,31858,1,0,0:0:0:0:
368,272,32065,1,8,0:0:0:0:
368,288,32168,1,0,0:0:0:0:
368,284,32375,1,0,0:0:0:0:
368,280,32478,1,8,0:0:0:0:
356,180,32685,1,0,0:0:0:0:
352,176,32754,1,0,0:0:0:0:
352,172,32823,1,0,0:0:0:0:
352,172,32892,1,8,0:0:0:0:
352,168,33099,1,0,0:0:0:0:
352,168,33168,1,0,0:0:0:0:
352,168,33237,1,0,0:0:0:0:
352,168,33306,1,8,0:0:0:0:
368,132,33513,1,0,0:0:0:0:
368,132,33720,1,8,0:0:0:0:
368,132,33823,1,0,0:0:0:0:
348,136,34030,1,0,0:0:0:0:
348,136,34134,1,8,0:0:0:0:
364,208,34341,1,0,0:0:0:0:
364,208,34444,1,0,0:0:0:0:
364,208,34547,1,8,0:0:0:0:
364,200,34651,1,0,0:0:0:0:
364,200,34754,1,0,0:0:0:0:
364,200,34858,1,0,0:0:0:0:
364,200,34961,1,8,0:0:0:0:
364,200,35168,1,0,0:0:0:0:
364,196,35375,1,8,0:0:0:0:
364,192,35478,1,0,0:0:0:0:
364,192,35685,1,0,0:0:0:0:
364,192,35789,1,8,0:0:0:0:
364,192,35892,1,0,0:0:0:0:
364,192,35996,1,0,0:0:0:0:
364,192,36099,1,0,0:0:0:0:
364,196,36203,1,8,0:0:0:0:
364,192,36410,1,0,0:0:0:0:
364,184,36513,1,0,0:0:0:0:
364,184,36616,1,8,0:0:0:0:
392,232,36823,1,0,0:0:0:0:
392,244,37030,1,8,0:0:0:0:
392,244,37134,1,0,0:0:0:0:
392,244,37341,1,0,0:0:0:0:
392,232,37444,1,8,0:0:0:0:
392,232,37651,1,0,0:0:0:0:
392,232,37754,1,0,0:0:0:0:
392,232,37858,1,0,0:0:0:0:
392,232,38065,1,8,0:0:0:0:
392,232,38168,1,0,0:0:0:0:
392,232,38272,1,8,0:0:0:0:
364,200,38478,1,0,0:0:0:0:
364,200,38582,1,8,0:0:0:0:
364,200,38685,1,8,0:0:0:0:
364,200,38789,1,8,0:0:0:0:
364,200,38892,1,8,0:0:0:0:
372,232,38996,1,0,0:0:0:0:
372,232,39099,1,0,0:0:0:0:
372,232,39203,1,0,0:0:0:0:
388,256,39306,1,8,0:0:0:0:
388,256,39410,1,8,0:0:0:0:
388,256,39513,1,0,0:0:0:0:
388,256,39616,1,0,0:0:0:0:
388,256,39720,1,8,0:0:0:0:
388,256,39823,1,8,0:0:0:0:
388,256,39927,1,8,0:0:0:0:
388,256,40030,1,8,0:0:0:0:
388,256,40134,1,4,0:0:0:0:
184,196,40547,1,0,0:0:0:0:
272,240,40961,1,0,0:0:0:0:
268,244,41375,1,0,0:0:0:0:
268,244,41789,1,0,0:0:0:0:
268,244,42203,1,0,0:0:0:0:
268,244,42616,1,0,0:0:0:0:
268,244,43030,1,8,0:0:0:0:
268,244,43237,1,0,0:0:0:0:
268,244,43444,1,0,0:0:0:0:
268,244,43858,1,0,0:0:0:0:
268,244,44272,1,0,0:0:0:0:
268,244,44685,1,0,0:0:0:0:
268,244,45099,1,0,0:0:0:0:
296,244,45513,1,0,0:0:0:0:
296,244,45927,1,0,0:0:0:0:
296,244,46341,1,8,0:0:0:0:
296,244,46444,1,8,0:0:0:0:
296,244,46547,1,8,0:0:0:0:
288,228,46754,1,4,0:0:0:0:
280,196,47168,1,8,0:0:0:0:
280,196,47582,1,0,0:0:0:0:
280,196,47996,1,8,0:0:0:0:
280,196,48410,1,0,0:0:0:0:
280,196,48823,1,8,0:0:0:0:
280,196,49237,1,0,0:0:0:0:
280,196,49651,1,8,0:0:0:0:
280,196,49858,1,0,0:0:0:0:
280,196,50065,1,0,0:0:0:0:
280,196,50478,1,8,0:0:0:0:
160,140,50892,1,0,0:0:0:0:
160,140,51306,1,8,0:0:0:0:
176,168,51513,1,8,0:0:0:0:
164,156,51616,1,8,0:0:0:0:
160,152,51720,1,4,0:0:0:0:
168,168,52961,1,8,0:0:0:0:
184,168,53375,1,0,0:0:0:0:
184,168,53478,1,0,0:0:0:0:
184,168,53582,1,0,0:0:0:0:
184,168,53789,1,0,0:0:0:0:
184,168,53892,1,0,0:0:0:0:
184,168,53996,1,0,0:0:0:0:
184,168,54203,1,0,0:0:0:0:
184,168,54306,1,0,0:0:0:0:
184,168,54410,1,0,0:0:0:0:
184,168,54513,1,0,0:0:0:0:
184,168,54616,1,0,0:0:0:0:
264,252,54823,1,0,0:0:0:0:
192,128,55030,1,0,0:0:0:0:
192,120,55134,1,0,0:0:0:0:
192,116,55341,1,0,0:0:0:0:
192,116,55444,1,0,0:0:0:0:
304,168,55651,1,0,0:0:0:0:
296,192,55858,1,0,0:0:0:0:
292,216,55961,1,0,0:0:0:0:
296,192,56065,1,0,0:0:0:0:
284,192,56168,1,0,0:0:0:0:
307,293,56272,1,0,0:0:0:0:
276,184,56478,1,0,0:0:0:0:
276,188,56685,1,0,0:0:0:0:
276,184,56789,1,0,0:0:0:0:
276,184,56892,1,0,0:0:0:0:
272,168,57099,1,0,0:0:0:0:
268,168,57203,1,0,0:0:0:0:
268,168,57306,1,0,0:0:0:0:
268,168,57513,1,0,0:0:0:0:
268,160,57616,1,0,0:0:0:0:
268,168,57720,1,0,0:0:0:0:
268,168,57823,1,0,0:0:0:0:
305,291,57927,1,0,0:0:0:0:
268,160,58134,1,0,0:0:0:0:
268,160,58341,1,4,0:0:0:0:
268,168,58651,1,0,0:0:0:0:
268,160,58961,1,0,0:0:0:0:
268,160,59168,1,8,0:0:0:0:
400,136,59375,1,0,0:0:0:0:
400,136,59444,1,0,0:0:0:0:
400,136,59513,1,0,0:0:0:0:
400,136,59582,1,8,0:0:0:0:
340,112,59996,1,0,0:0:0:0:
316,164,60099,1,0,0:0:0:0:
316,164,60203,1,0,0:0:0:0:
308,184,60410,1,0,0:0:0:0:
332,240,60513,1,0,0:0:0:0:
308,180,60616,1,0,0:0:0:0:
108,140,60823,1,0,0:0:0:0:
108,140,60927,1,0,0:0:0:0:
108,132,61030,1,0,0:0:0:0:
108,132,61134,1,0,0:0:0:0:
305,291,61237,1,0,0:0:0:0:
344,220,61444,1,0,0:0:0:0:
344,228,61651,1,0,0:0:0:0:
344,228,61754,1,0,0:0:0:0:
344,228,61962,1,0,0:0:0:0:
344,228,62065,1,0,0:0:0:0:
344,228,62272,1,0,0:0:0:0:
176,116,62478,1,0,0:0:0:0:
176,116,62582,1,0,0:0:0:0:
176,112,62685,1,0,0:0:0:0:
176,112,62789,1,0,0:0:0:0:
176,112,62892,1,0,0:0:0:0:
280,216,63099,1,0,0:0:0:0:
276,204,63306,1,0,0:0:0:0:
276,200,63410,1,0,0:0:0:0:
276,204,63513,1,0,0:0:0:0:
276,192,63720,1,0,0:0:0:0:
276,192,63823,1,0,0:0:0:0:
276,192,63927,1,0,0:0:0:0:
280,196,64134,1,0,0:0:0:0:
280,196,64237,1,0,0:0:0:0:
276,200,64341,1,0,0:0:0:0:
280,196,64444,1,0,0:0:0:0:
238,197,64547,1,0,0:0:0:0:
280,196,64754,1,0,0:0:0:0:
280,196,64961,1,4,0:0:0:0:
312,260,65272,1,0,0:0:0:0:
304,252,65582,1,0,0:0:0:0:
294,232,65789,1,8,0:0:0:0:
370,136,65996,1,0,0:0:0:0:
368,130,66065,1,0,0:0:0:0:
368,130,66134,1,0,0:0:0:0:
368,130,66203,1,8,0:0:0:0:
337,204,66616,1,4,0:0:0:0:
262,219,67030,1,8,0:0:0:0:
262,219,67444,1,8,0:0:0:0:
262,219,67858,1,8,0:0:0:0:
293,173,68272,1,8,0:0:0:0:
293,173,68375,1,8,0:0:0:0:
293,173,68478,1,0,0:0:0:0:
293,173,68582,1,0,0:0:0:0:
293,173,68685,1,8,0:0:0:0:
233,227,68789,1,0,0:0:0:0:
293,173,68892,1,8,0:0:0:0:
293,173,68996,1,8,0:0:0:0:
164,185,69099,1,0,0:0:0:0:
293,218,69203,1,0,0:0:0:0:
256,198,69306,1,0,0:0:0:0:
167,267,69410,1,0,0:0:0:0:
158,213,69513,1,8,0:0:0:0:
170,140,69927,1,0,0:0:0:0:
170,140,70030,1,0,0:0:0:0:
170,140,70134,1,0,0:0:0:0:
170,140,70237,1,0,0:0:0:0:
323,269,70341,1,8,0:0:0:0:
257,192,70961,1,0,0:0:0:0:
257,192,71168,1,8,0:0:0:0:
257,192,71375,1,0,0:0:0:0:
257,192,71582,1,0,0:0:0:0:
257,192,71892,1,0,0:0:0:0:
257,192,71996,1,8,0:0:0:0:
257,192,72203,1,0,0:0:0:0:
316,196,72616,1,0,0:0:0:0:
316,196,72720,1,0,0:0:0:0:
316,196,72823,1,8,0:0:0:0:
316,196,73237,1,0,0:0:0:0:
316,196,73341,1,0,0:0:0:0:
316,196,73444,1,0,0:0:0:0:
316,196,73547,1,0,0:0:0:0:
314,258,73651,1,8,0:0:0:0:
335,266,74272,1,0,0:0:0:0:
148,333,74478,1,8,0:0:0:0:
148,333,74685,1,0,0:0:0:0:
80,122,74892,1,4,0:0:0:0:
80,122,75203,1,0,0:0:0:0:
80,122,75513,1,0,0:0:0:0:
278,109,75720,1,8,0:0:0:0:
356,97,75927,1,0,0:0:0:0:
356,97,75996,1,0,0:0:0:0:
356,97,76065,1,0,0:0:0:0:
356,97,76134,1,8,0:0:0:0:
346,217,76547,1,0,0:0:0:0:
346,217,76651,1,0,0:0:0:0:
346,217,76754,1,0,0:0:0:0:
346,217,76858,1,0,0:0:0:0:
346,217,76961,1,8,0:0:0:0:
351,238,77582,1,0,0:0:0:0:
351,238,77789,1,8,0:0:0:0:
351,238,77996,1,0,0:0:0:0:
351,238,78203,1,0,0:0:0:0:
113,180,78513,1,0,0:0:0:0:
113,163,78616,1,8,0:0:0:0:
374,290,78823,1,0,0:0:0:0:
106,155,79237,1,0,0:0:0:0:
106,146,79341,1,0,0:0:0:0:
106,144,79444,1,8,0:0:0:0:
186,178,79858,1,0,0:0:0:0:
184,164,79961,1,0,0:0:0:0:
186,178,80065,1,0,0:0:0:0:
184,164,80168,1,0,0:0:0:0:
184,164,80272,1,8,0:0:0:0:
355,202,80892,1,0,0:0:0:0:
355,202,81099,1,8,0:0:0:0:
355,202,81306,1,0,0:0:0:0:
355,202,81513,1,4,0:0:0:0:
363,271,81823,1,0,0:0:0:0:
363,271,82134,1,0,0:0:0:0:
387,242,82547,1,0,0:0:0:0:
365,127,82616,1,0,0:0:0:0:
365,127,82685,1,0,0:0:0:0:
365,127,82754,1,8,0:0:0:0:
123,196,82961,1,0,0:0:0:0:
259,208,83168,1,4,0:0:0:0:
305,124,83582,1,12,0:0:0:0:
214,264,83996,1,0,0:0:0:0:
214,264,84203,1,0,0:0:0:0:
263,218,84410,1,12,0:0:0:0:
208,244,84616,1,0,0:0:0:0:
239,232,85030,1,0,0:0:0:0:
311,209,85237,1,12,0:0:0:0:
332,215,85444,1,0,0:0:0:0:
331,214,85651,1,0,0:0:0:0:
331,214,85754,1,0,0:0:0:0:
331,214,85858,1,0,0:0:0:0:
154,206,86065,1,12,0:0:0:0:
273,276,86272,1,0,0:0:0:0:
308,195,86478,1,4,0:0:0:0:
308,195,86892,1,12,0:0:0:0:
300,269,87306,1,0,0:0:0:0:
300,269,87513,1,0,0:0:0:0:
308,195,87720,1,12,0:0:0:0:
285,260,87927,1,0,0:0:0:0:
285,260,88341,1,0,0:0:0:0:
308,195,88547,1,12,0:0:0:0:
293,216,88754,1,0,0:0:0:0:
293,216,88961,1,0,0:0:0:0:
396,168,89168,1,0,0:0:0:0:
400,158,89237,1,0,0:0:0:0:
400,158,89306,1,0,0:0:0:0:
186,193,89375,1,8,0:0:0:0:
372,144,89582,1,0,0:0:0:0:
372,144,89789,1,4,0:0:0:0:
139,149,90099,1,0,0:0:0:0:
149,133,90202,1,8,0:0:0:0:
149,131,90306,1,0,0:0:0:0:
148,131,90409,1,0,0:0:0:0:
155,155,90616,1,8,0:0:0:0:
155,155,90720,1,0,0:0:0:0:
154,153,90823,1,0,0:0:0:0:
155,152,91030,1,8,0:0:0:0:
154,151,91134,1,0,0:0:0:0:
154,151,91237,1,0,0:0:0:0:
155,151,91341,1,0,0:0:0:0:
155,155,91444,1,8,0:0:0:0:
95,186,91651,1,0,0:0:0:0:
100,182,91858,1,8,0:0:0:0:
100,182,91961,1,0,0:0:0:0:
100,182,92065,1,0,0:0:0:0:
366,235,92272,1,8,0:0:0:0:
366,235,92375,1,0,0:0:0:0:
366,235,92478,1,0,0:0:0:0:
366,235,92582,1,0,0:0:0:0:
366,235,92685,1,8,0:0:0:0:
366,235,92892,1,0,0:0:0:0:
400,236,93099,1,8,0:0:0:0:
400,236,93203,1,8,0:0:0:0:
400,236,93306,1,8,0:0:0:0:
400,236,93410,1,8,0:0:0:0:
400,236,93513,1,0,0:0:0:0:
400,236,93616,1,0,0:0:0:0:
400,236,93720,1,0,0:0:0:0:
400,236,93823,1,0,0:0:0:0:
261,229,93927,1,8,0:0:0:0:
261,229,94030,1,0,0:0:0:0:
276,254,94134,1,0,0:0:0:0:
256,209,94237,1,0,0:0:0:0:
254,205,94341,1,0,0:0:0:0:
256,208,94444,1,0,0:0:0:0:
253,204,94547,1,0,0:0:0:0:
253,204,94651,1,0,0:0:0:0:
312,191,94754,1,8,0:0:0:0:
312,191,94823,1,8,0:0:0:0:
312,191,94892,1,8,0:0:0:0:
360,287,94961,1,0,0:0:0:0:
354,273,95030,1,0,0:0:0:0:
360,287,95099,1,0,0:0:0:0:
339,224,95168,1,8,0:0:0:0:
333,240,95237,1,0,0:0:0:0:
329,233,95306,1,0,0:0:0:0:
350,242,95375,1,0,0:0:0:0:
333,240,95444,1,0,0:0:0:0:
288,240,95513,1,0,0:0:0:0:
328,228,95582,1,8,0:0:0:0:
282,226,95651,1,8,0:0:0:0:
282,226,95720,1,8,0:0:0:0:
271,204,95789,1,0,0:0:0:0:
271,204,95858,1,0,0:0:0:0:
274,218,95927,1,0,0:0:0:0:
271,204,95996,1,8,0:0:0:0:
271,204,96203,1,0,0:0:0:0:
213,193,96410,1,4,0:0:0:0:
405,250,99099,1,0,0:0:0:0:
399,89,99168,1,0,0:0:0:0:
399,89,99237,1,0,0:0:0:0:
399,89,99306,1,8,0:0:0:0:
228,174,99513,1,0,0:0:0:0:
260,95,99720,1,4,0:0:0:0:
260,95,99927,1,12,0:0:0:0:
260,95,100134,1,4,0:0:0:0:
260,95,100341,1,4,0:0:0:0:
260,95,100547,1,12,0:0:0:0:
260,95,100754,1,4,0:0:0:0:
260,95,100961,1,12,0:0:0:0:
260,95,101168,1,12,0:0:0:0:
413,290,101375,1,4,0:0:0:0:
336,229,101582,1,4,0:0:0:0:
330,210,101789,1,12,0:0:0:0:
330,210,101996,1,4,0:0:0:0:
330,210,102203,1,12,0:0:0:0:
330,209,102410,1,12,0:0:0:0:
330,210,102616,1,4,0:0:0:0:
260,198,102823,1,4,0:0:0:0:
269,166,103030,1,4,0:0:0:0:
270,193,103237,1,12,0:0:0:0:
268,192,103444,1,4,0:0:0:0:
268,192,103651,1,4,0:0:0:0:
252,225,103858,1,12,0:0:0:0:
252,225,104065,1,4,0:0:0:0:
238,193,104272,1,12,0:0:0:0:
238,193,104478,1,12,0:0:0:0:
238,193,104685,1,4,0:0:0:0:
238,193,104892,1,4,0:0:0:0:
238,193,105099,1,12,0:0:0:0:
238,193,105306,1,4,0:0:0:0:
238,193,105513,1,12,0:0:0:0:
120,165,105720,1,0,0:0:0:0:
305,91,105789,1,0,0:0:0:0:
305,91,105858,1,0,0:0:0:0:
305,91,105927,1,8,0:0:0:0:
319,194,106134,1,8,0:0:0:0:
213,135,106341,1,4,0:0:0:0:
192,114,106547,1,12,0:0:0:0:
370,315,106754,1,4,0:0:0:0:
272,175,106961,1,4,0:0:0:0:
261,170,107168,1,12,0:0:0:0:
261,170,107375,1,4,0:0:0:0:
247,167,107582,1,12,0:0:0:0:
261,170,107789,1,12,0:0:0:0:
245,169,107996,1,4,0:0:0:0:
245,168,108203,1,4,0:0:0:0:
247,167,108410,1,12,0:0:0:0:
245,169,108616,1,4,0:0:0:0:
211,212,108823,1,12,0:0:0:0:
211,212,109030,1,12,0:0:0:0:
188,223,109237,1,4,0:0:0:0:
206,203,109444,1,4,0:0:0:0:
188,223,109651,1,4,0:0:0:0:
192,260,109858,1,12,0:0:0:0:
192,260,110065,1,4,0:0:0:0:
192,260,110272,1,4,0:0:0:0:
187,254,110478,1,12,0:0:0:0:
186,253,110685,1,4,0:0:0:0:
186,253,110892,1,12,0:0:0:0:
186,253,111099,1,12,0:0:0:0:
183,234,111306,1,4,0:0:0:0:
181,233,111513,1,4,0:0:0:0:
181,233,111720,1,12,0:0:0:0:
180,232,111927,1,4,0:0:0:0:
183,234,112134,1,12,0:0:0:0:
313,109,112341,1,0,0:0:0:0:
313,109,112410,1,0,0:0:0:0:
313,109,112478,1,0,0:0:0:0:
313,109,112547,1,8,0:0:0:0:
311,84,112754,1,8,0:0:0:0:
311,84,112961,1,0,0:0:0:0:
155,136,113168,1,0,0:0:0:0:
155,136,113375,1,12,0:0:0:0:
313,232,113582,1,0,0:0:0:0:
313,232,113789,1,0,0:0:0:0:
313,232,113996,1,0,0:0:0:0:
153,126,114203,1,12,0:0:0:0:
256,183,114410,1,8,0:0:0:0:
313,232,114616,1,0,0:0:0:0:
313,232,114823,1,0,0:0:0:0:
281,153,115030,1,12,0:0:0:0:
313,232,115237,1,0,0:0:0:0:
313,232,115444,1,0,0:0:0:0:
313,232,115651,1,0,0:0:0:0:
281,153,115858,1,12,0:0:0:0:
253,178,116065,1,8,0:0:0:0:
313,232,116272,1,0,0:0:0:0:
313,232,116478,1,0,0:0:0:0:
281,153,116685,1,12,0:0:0:0:
313,232,116892,1,0,0:0:0:0:
313,232,117099,1,0,0:0:0:0:
313,232,117306,1,0,0:0:0:0:
233,208,117513,1,12,0:0:0:0:
252,176,117720,1,8,0:0:0:0:
313,232,117927,1,0,0:0:0:0:
313,232,118134,1,0,0:0:0:0:
233,208,118341,1,12,0:0:0:0:
313,232,118547,1,0,0:0:0:0:
313,232,118754,1,0,0:0:0:0:
313,232,118961,1,0,0:0:0:0:
369,105,119030,1,0,0:0:0:0:
369,105,119099,1,0,0:0:0:0:
257,146,119168,1,8,0:0:0:0:
432,118,119375,1,0,0:0:0:0:
270,204,119582,1,12,0:0:0:0:
278,258,119789,1,0,0:0:0:0:
270,204,119996,1,12,0:0:0:0:
278,258,120203,1,0,0:0:0:0:
270,204,120410,1,12,0:0:0:0:
263,185,120616,1,0,0:0:0:0:
270,204,120823,1,12,0:0:0:0:
262,185,121030,1,0,0:0:0:0:
270,204,121237,1,12,0:0:0:0:
263,185,121444,1,0,0:0:0:0:
270,204,121651,1,12,0:0:0:0:
262,185,121858,1,0,0:0:0:0:
270,204,122065,1,12,0:0:0:0:
263,185,122272,1,0,0:0:0:0:
258,182,122375,1,0,0:0:0:0:
233,153,122478,1,8,0:0:0:0:
236,157,122685,1,0,0:0:0:0:
342,264,122892,1,8,0:0:0:0:
342,264,122996,1,8,0:0:0:0:
342,264,123099,1,8,0:0:0:0:
342,264,123203,1,8,0:0:0:0:
342,264,123306,1,0,0:0:0:0:
342,264,123410,1,0,0:0:0:0:
342,264,123513,1,0,0:0:0:0:
342,264,123616,1,0,0:0:0:0:
342,264,123720,1,8,0:0:0:0:
381,294,123823,1,0,0:0:0:0:
378,283,123927,1,0,0:0:0:0:
381,294,124030,1,0,0:0:0:0:
365,264,124134,1,0,0:0:0:0:
365,264,124237,1,0,0:0:0:0:
362,260,124341,1,0,0:0:0:0:
365,264,124444,1,0,0:0:0:0:
361,260,124547,1,8,0:0:0:0:
361,259,124651,1,8,0:0:0:0:
350,256,124754,1,0,0:0:0:0:
345,248,124858,1,0,0:0:0:0:
339,242,124961,1,0,0:0:0:0:
345,248,125065,1,0,0:0:0:0:
338,240,125168,1,0,0:0:0:0:
336,238,125272,1,0,0:0:0:0:
334,237,125375,1,8,0:0:0:0:
333,174,125478,1,8,0:0:0:0:
332,234,125582,1,0,0:0:0:0:
314,146,125651,1,0,0:0:0:0:
314,146,125720,1,0,0:0:0:0:
314,146,125789,1,8,0:0:0:0:
280,276,125996,1,8,0:0:0:0:
309,176,126203,1,4,0:0:0:0:
309,176,126616,1,8,0:0:0:0:
276,224,127030,1,0,0:0:0:0:
309,176,127444,1,8,0:0:0:0:
268,144,127858,1,0,0:0:0:0:
309,176,128272,1,8,0:0:0:0:
260,120,128685,1,0,0:0:0:0:
309,176,129099,1,8,0:0:0:0:
309,176,129306,1,0,0:0:0:0:
309,176,129513,1,0,0:0:0:0:
309,176,129927,1,8,0:0:0:0:
270,210,130341,1,0,0:0:0:0:
120,120,130547,1,0,0:0:0:0:
244,88,130754,1,8,0:0:0:0:
120,120,130961,1,8,0:0:0:0:
244,88,131168,1,0,0:0:0:0:
309,176,131582,1,8,0:0:0:0:
265,202,131996,1,0,0:0:0:0:
265,202,132203,1,0,0:0:0:0:
265,202,132306,1,0,0:0:0:0:
265,202,132410,1,8,0:0:0:0:
265,202,132616,1,0,0:0:0:0:
265,202,132823,1,0,0:0:0:0:
265,202,133237,1,8,0:0:0:0:
256,124,133651,1,0,0:0:0:0:
265,202,134065,1,8,0:0:0:0:
256,124,134478,1,0,0:0:0:0:
265,202,134892,1,8,0:0:0:0:
256,116,135306,1,0,0:0:0:0:
265,202,135720,1,8,0:0:0:0:
265,202,135927,1,0,0:0:0:0:
265,202,136134,1,0,0:0:0:0:
265,202,136547,1,8,0:0:0:0:
265,202,136961,1,0,0:0:0:0:
168,152,137168,1,0,0:0:0:0:
265,202,137375,1,8,0:0:0:0:
168,152,137582,1,8,0:0:0:0:
265,202,137789,1,0,0:0:0:0:
265,202,138203,1,8,0:0:0:0:
256,193,138410,1,0,0:0:0:0:
210,236,138513,1,0,0:0:0:0:
256,193,138616,1,0,0:0:0:0:
265,202,138823,1,0,0:0:0:0:
210,227,139030,1,8,0:0:0:0:
209,224,139237,1,8,0:0:0:0:
207,215,139444,1,4,0:0:0:0:
188,174,139858,1,4,0:0:0:0:
204,164,140272,1,4,0:0:0:0:
204,163,140685,1,4,0:0:0:0:
204,164,141099,1,4,0:0:0:0:
204,163,141513,1,4,0:0:0:0:
204,164,141927,1,4,0:0:0:0:
262,188,142134,1,8,0:0:0:0:
204,163,142341,1,4,0:0:0:0:
262,188,142547,1,8,0:0:0:0:
204,164,142754,1,4,0:0:0:0:
250,184,143168,1,4,0:0:0:0:
250,184,143582,1,4,0:0:0:0:
250,184,143996,1,4,0:0:0:0:
250,184,144410,1,4,0:0:0:0:
250,184,144823,1,4,0:0:0:0:
250,184,145237,1,4,0:0:0:0:
208,151,145444,1,8,0:0:0:0:
199,135,145651,1,4,0:0:0:0:
199,135,145858,1,8,0:0:0:0:
199,135,146065,1,0,0:0:0:0:
293,167,146168,1,0,0:0:0:0:
288,162,146272,1,0,0:0:0:0:
293,167,146375,1,0,0:0:0:0:
288,161,146478,1,0,0:0:0:0:
283,154,146582,1,0,0:0:0:0:
283,154,146685,1,0,0:0:0:0:
283,154,146789,1,0,0:0:0:0:
282,154,146892,1,8,0:0:0:0:
282,154,146996,1,0,0:0:0:0:
282,154,147099,1,0,0:0:0:0:
282,154,147203,1,0,0:0:0:0:
282,154,147306,1,0,0:0:0:0:
282,154,147410,1,0,0:0:0:0:
283,154,147513,1,0,0:0:0:0:
283,154,147616,1,0,0:0:0:0:
251,192,147720,1,8,0:0:0:0:
241,179,147823,1,8,0:0:0:0:
251,192,147927,1,8,0:0:0:0:
240,178,148030,1,8,0:0:0:0:
172,178,148134,1,8,0:0:0:0:
163,162,148237,1,8,0:0:0:0:
225,125,148341,1,8,0:0:0:0:
191,153,148444,1,8,0:0:0:0:
188,146,148547,1,0,0:0:0:0:
188,146,148651,1,8,0:0:0:0:
188,146,148754,1,8,0:0:0:0:
188,145,148858,1,8,0:0:0:0:
188,146,148961,1,8,0:0:0:0:
188,146,149065,1,8,0:0:0:0:
187,143,149168,1,8,0:0:0:0:
187,143,149272,1,8,0:0:0:0:
224,271,149375,1,0,0:0:0:0:
224,271,149478,1,0,0:0:0:0:
386,253,149582,1,0,0:0:0:0:
224,271,149685,1,0,0:0:0:0:
224,271,149789,1,0,0:0:0:0:
386,253,149892,1,0,0:0:0:0:
383,244,149996,1,0,0:0:0:0:
383,244,150099,1,0,0:0:0:0:
308,202,150203,1,8,0:0:0:0:
308,202,150306,1,0,0:0:0:0:
308,202,150410,1,0,0:0:0:0:
308,202,150513,1,0,0:0:0:0:
308,202,150616,1,0,0:0:0:0:
308,202,150720,1,0,0:0:0:0:
298,243,150823,1,0,0:0:0:0:
336,257,150927,1,0,0:0:0:0:
396,75,151030,1,8,0:0:0:0:
396,75,151099,1,8,0:0:0:0:
396,75,151168,1,8,0:0:0:0:
396,75,151237,1,0,0:0:0:0:
396,75,151306,1,0,0:0:0:0:
396,75,151375,1,0,0:0:0:0:
396,75,151444,1,8,0:0:0:0:
396,75,151513,1,0,0:0:0:0:
396,75,151582,1,0,0:0:0:0:
396,75,151651,1,0,0:0:0:0:
396,75,151720,1,0,0:0:0:0:
396,75,151789,1,0,0:0:0:0:
396,75,151858,1,8,0:0:0:0:
396,75,151927,1,8,0:0:0:0:
396,75,151996,1,8,0:0:0:0:
396,75,152065,1,0,0:0:0:0:
396,75,152134,1,0,0:0:0:0:
396,75,152203,1,0,0:0:0:0:
396,75,152272,1,8,0:0:0:0:
280,81,152685,1,4,0:0:0:0:
361,207,153306,1,0,0:0:0:0:
368,85,153375,1,0,0:0:0:0:
368,85,153444,1,0,0:0:0:0:
378,253,153513,1,8,0:0:0:0:
362,178,153720,1,0,0:0:0:0:
362,178,153927,1,0,0:0:0:0:
358,151,154134,1,12,0:0:0:0:
322,172,154547,1,0,0:0:0:0:
274,244,154754,1,12,0:0:0:0:
322,172,154961,1,0,0:0:0:0:
288,226,155168,1,12,0:0:0:0:
140,116,155375,1,0,0:0:0:0:
132,106,155582,1,8,0:0:0:0:
133,101,155685,1,8,0:0:0:0:
133,103,155789,1,8,0:0:0:0:
322,180,155996,1,4,0:0:0:0:
353,195,156410,1,8,0:0:0:0:
353,195,156616,1,0,0:0:0:0:
353,195,156823,1,8,0:0:0:0:
352,189,156927,1,8,0:0:0:0:
352,189,157030,1,8,0:0:0:0:
352,189,157134,1,0,0:0:0:0:
352,189,157237,1,0,0:0:0:0:
352,189,157341,1,0,0:0:0:0:
352,189,157444,1,8,0:0:0:0:
398,229,157858,1,12,0:0:0:0:
398,229,158065,1,12,0:0:0:0:
260,95,159306,1,4,0:0:0:0:
260,95,159513,1,12,0:0:0:0:
260,95,159720,1,4,0:0:0:0:
260,95,159927,1,4,0:0:0:0:
260,95,160133,1,12,0:0:0:0:
260,95,160340,1,4,0:0:0:0:
260,95,160547,1,12,0:0:0:0:
260,95,160754,1,12,0:0:0:0:
413,290,160961,1,4,0:0:0:0:
336,229,161168,1,4,0:0:0:0:
330,210,161375,1,12,0:0:0:0:
330,210,161582,1,4,0:0:0:0:
330,210,161789,1,12,0:0:0:0:
330,209,161996,1,12,0:0:0:0:
330,210,162202,1,4,0:0:0:0:
260,198,162409,1,4,0:0:0:0:
269,166,162616,1,4,0:0:0:0:
270,193,162823,1,12,0:0:0:0:
268,192,163030,1,4,0:0:0:0:
268,192,163237,1,4,0:0:0:0:
252,225,163444,1,12,0:0:0:0:
252,225,163651,1,4,0:0:0:0:
238,193,163858,1,12,0:0:0:0:
238,193,164064,1,12,0:0:0:0:
238,193,164271,1,4,0:0:0:0:
238,193,164478,1,4,0:0:0:0:
238,193,164685,1,12,0:0:0:0:
238,193,164892,1,4,0:0:0:0:
238,193,165099,1,12,0:0:0:0:
120,165,165306,1,0,0:0:0:0:
305,91,165375,1,0,0:0:0:0:
305,91,165444,1,0,0:0:0:0:
305,91,165513,1,8,0:0:0:0:
319,194,165720,1,8,0:0:0:0:
213,135,165927,1,4,0:0:0:0:
192,114,166133,1,12,0:0:0:0:
370,315,166340,1,4,0:0:0:0:
272,175,166547,1,4,0:0:0:0:
261,170,166754,1,12,0:0:0:0:
261,170,166961,1,4,0:0:0:0:
247,167,167168,1,12,0:0:0:0:
261,170,167375,1,12,0:0:0:0:
245,169,167582,1,4,0:0:0:0:
245,168,167789,1,4,0:0:0:0:
247,167,167996,1,12,0:0:0:0:
245,169,168202,1,4,0:0:0:0:
211,212,168409,1,12,0:0:0:0:
211,212,168616,1,12,0:0:0:0:
188,223,168823,1,4,0:0:0:0:
206,203,169030,1,4,0:0:0:0:
188,223,169237,1,4,0:0:0:0:
192,260,169444,1,12,0:0:0:0:
192,260,169651,1,4,0:0:0:0:
192,260,169858,1,4,0:0:0:0:
187,254,170064,1,12,0:0:0:0:
186,253,170271,1,4,0:0:0:0:
186,253,170478,1,12,0:0:0:0:
186,253,170685,1,12,0:0:0:0:
183,234,170892,1,4,0:0:0:0:
181,233,171099,1,4,0:0:0:0:
181,233,171306,1,12,0:0:0:0:
180,232,171513,1,4,0:0:0:0:
183,234,171720,1,12,0:0:0:0:
313,109,171927,1,0,0:0:0:0:
313,109,171996,1,0,0:0:0:0:
313,109,172064,1,0,0:0:0:0:
313,109,172133,1,8,0:0:0:0:
311,84,172340,1,8,0:0:0:0:
245,199,172547,1,0,0:0:0:0:
245,199,172754,1,0,0:0:0:0:
168,118,172961,1,12,0:0:0:0:
243,151,173168,1,0,0:0:0:0:
352,210,173375,1,12,0:0:0:0:
248,175,173582,1,0,0:0:0:0:
399,256,173789,1,12,0:0:0:0:
248,175,173996,1,0,0:0:0:0:
352,210,174203,1,12,0:0:0:0:
264,164,174410,1,0,0:0:0:0:
352,210,174616,1,12,0:0:0:0:
261,156,174823,1,0,0:0:0:0:
352,210,175030,1,12,0:0:0:0:
261,156,175237,1,0,0:0:0:0:
252,148,175341,1,0,0:0:0:0:
247,151,175444,1,12,0:0:0:0:
247,151,175651,1,0,0:0:0:0:
352,210,175858,1,12,0:0:0:0:
247,151,176065,1,0,0:0:0:0:
283,171,176272,1,12,0:0:0:0:
113,97,176478,1,0,0:0:0:0:
283,171,176685,1,12,0:0:0:0:
311,212,176892,1,0,0:0:0:0:
283,171,177099,1,12,0:0:0:0:
311,212,177306,1,0,0:0:0:0:
283,171,177513,1,12,0:0:0:0:
311,212,177720,1,0,0:0:0:0:
283,171,177927,1,12,0:0:0:0:
311,212,178134,1,0,0:0:0:0:
283,171,178341,1,12,0:0:0:0:
354,51,178547,1,0,0:0:0:0:
354,51,178616,1,0,0:0:0:0:
354,51,178685,1,0,0:0:0:0:
354,51,178754,1,8,0:0:0:0:
368,114,178961,1,0,0:0:0:0:
353,132,179168,1,0,0:0:0:0:
347,131,179272,1,0,0:0:0:0:
346,131,179375,1,0,0:0:0:0:
345,129,179478,1,0,0:0:0:0:
345,130,179582,1,8,0:0:0:0:
256,211,179685,1,0,0:0:0:0:
256,211,179789,1,0,0:0:0:0:
256,211,179892,1,0,0:0:0:0:
314,134,179996,1,8,0:0:0:0:
250,202,180099,1,0,0:0:0:0:
249,202,180203,1,0,0:0:0:0:
248,201,180306,1,0,0:0:0:0:
214,209,180410,1,8,0:0:0:0:
203,236,180513,1,8,0:0:0:0:
242,190,180616,1,0,0:0:0:0:
239,184,180720,1,0,0:0:0:0:
221,199,180823,1,8,0:0:0:0:
221,202,180927,1,0,0:0:0:0:
239,184,181030,1,0,0:0:0:0:
220,199,181134,1,0,0:0:0:0:
314,134,181237,1,8,0:0:0:0:
220,199,181341,1,0,0:0:0:0:
216,194,181444,1,0,0:0:0:0:
220,199,181547,1,0,0:0:0:0:
203,229,181651,1,8,0:0:0:0:
142,225,181754,1,8,0:0:0:0:
216,194,181858,1,0,0:0:0:0:
216,194,181961,1,0,0:0:0:0:
314,134,182065,1,8,0:0:0:0:
216,194,182168,1,0,0:0:0:0:
216,194,182272,1,0,0:0:0:0:
216,194,182375,1,0,0:0:0:0:
268,157,182478,1,8,0:0:0:0:
216,194,182582,1,0,0:0:0:0:
216,194,182685,1,0,0:0:0:0:
216,194,182789,1,8,0:0:0:0:
212,189,182892,1,0,0:0:0:0:
212,189,182996,1,0,0:0:0:0:
268,157,183099,1,8,0:0:0:0:
212,188,183203,1,0,0:0:0:0:
212,187,183306,1,0,0:0:0:0:
212,187,183410,1,0,0:0:0:0:
263,148,183513,1,8,0:0:0:0:
211,187,183616,1,8,0:0:0:0:
210,189,183720,1,0,0:0:0:0:
212,189,183823,1,0,0:0:0:0:
212,188,183927,1,0,0:0:0:0:
212,188,184030,1,0,0:0:0:0:
255,129,184134,1,8,0:0:0:0:
251,101,184961,1,4,0:0:0:0:
251,101,185789,1,12,0:0:0:0:
