osu file format v14

[General]
AudioFilename: audio.mp3
AudioLeadIn: 0
PreviewTime: 96410
Countdown: 0
SampleSet: Normal
StackLeniency: 0.7
Mode: 1
LetterboxInBreaks: 0
WidescreenStoryboard: 1

[Editor]
DistanceSpacing: 1
BeatDivisor: 4
GridSize: 4
TimelineZoom: 3.199999

[Metadata]
Title:Story In Everlasting Princess
TitleUnicode:Story In Everlasting Princess
Artist:Yokomin feat. Yuzuki Yukari
ArtistUnicode:Yokomin feat. 結月ゆかり
Creator:Chromoxx
Version:Futsuu
Source:
Tags:Okoratu Okorin Vocaloid Loudrock Projects A Place Where You Hope C86 Album VOCALOUD
BeatmapID:1189460
BeatmapSetID:527735

[Difficulty]
HPDrainRate:7
CircleSize:5
OverallDifficulty:4
ApproachRate:5
SliderMultiplier:1.4
SliderTickRate:1

[Events]
//Background and Video events
0,0,"bg.jpg",0,0
//Break Periods
//Storyboard Layer 0 (Background)
//Storyboard Layer 1 (Fail)
//Storyboard Layer 2 (Pass)
//Storyboard Layer 3 (Foreground)
//Storyboard Sound Samples

[TimingPoints]
410,413.793103448276,4,1,0,100,1,0
99720,-100,4,1,0,100,0,1
126203,-100,4,1,0,100,0,0
159306,-100,4,1,0,100,0,1
185789,-100,4,1,0,100,0,0

[HitObjects]
160,196,410,5,12,0:0:0:0:
20,120,1030,1,12,0:0:0:0:
304,216,1651,1,8,0:0:0:0:
304,216,2065,1,0,0:0:0:0:
232,144,3099,1,0,0:0:0:0:
232,144,3306,1,8,0:0:0:0:
228,120,3720,1,4,0:0:0:0:
228,120,4341,1,12,0:0:0:0:
228,104,4961,1,8,0:0:0:0:
228,104,5375,1,0,0:0:0:0:
260,128,6410,1,0,0:0:0:0:
140,148,6616,1,8,0:0:0:0:
188,244,7030,1,4,0:0:0:0:
216,176,7651,1,4,0:0:0:0:
280,152,8272,1,8,0:0:0:0:
80,200,8685,2,0,L|128:192,12,35
244,88,10341,1,4,0:0:0:0:
244,88,10961,1,12,0:0:0:0:
244,88,11582,1,0,0:0:0:0:
56,192,11996,2,4,L|104:188,12,35
56,148,13651,1,4,0:0:0:0:
264,208,13961,1,8,0:0:0:0:
264,208,14272,1,8,0:0:0:0:
264,208,14478,1,0,0:0:0:0:
264,208,14892,1,8,0:0:0:0:
264,208,15306,1,0,0:0:0:0:
240,216,16134,1,8,0:0:0:0:
224,148,16547,1,8,0:0:0:0:
304,240,16961,1,0,0:0:0:0:
260,52,17272,1,8,0:0:0:0:
260,52,17582,1,8,0:0:0:0:
260,52,17789,1,0,0:0:0:0:
196,320,18203,1,0,0:0:0:0:
196,320,18410,1,8,0:0:0:0:
260,52,18616,1,0,0:0:0:0:
352,248,19444,1,0,0:0:0:0:
352,248,19858,1,8,0:0:0:0:
356,224,20272,1,4,0:0:0:0:
352,216,20582,1,8,0:0:0:0:
352,216,20892,1,8,0:0:0:0:
352,216,21099,1,0,0:0:0:0:
352,216,21513,1,8,0:0:0:0:
352,216,21927,1,0,0:0:0:0:
244,216,22754,1,8,0:0:0:0:
48,116,23168,1,8,0:0:0:0:
244,216,23582,1,0,0:0:0:0:
244,216,23892,1,8,0:0:0:0:
244,216,24203,1,8,0:0:0:0:
244,216,24410,1,0,0:0:0:0:
244,216,24823,1,8,0:0:0:0:
244,216,25030,1,8,0:0:0:0:
244,216,25237,1,0,0:0:0:0:
224,176,26065,1,0,0:0:0:0:
224,176,26478,1,8,0:0:0:0:
96,152,26892,1,4,0:0:0:0:
228,232,27203,1,8,0:0:0:0:
228,232,27513,1,8,0:0:0:0:
228,232,27720,1,0,0:0:0:0:
228,232,28134,1,8,0:0:0:0:
228,232,28547,1,0,0:0:0:0:
184,240,29375,1,8,0:0:0:0:
216,208,29789,1,8,0:0:0:0:
184,240,30203,1,0,0:0:0:0:
184,240,30513,1,8,0:0:0:0:
184,240,30823,1,8,0:0:0:0:
184,240,31030,1,0,0:0:0:0:
164,244,31444,1,0,0:0:0:0:
164,244,31651,1,8,0:0:0:0:
128,116,31858,1,0,0:0:0:0:
196,224,32685,1,0,0:0:0:0:
196,224,33099,1,8,0:0:0:0:
176,208,33513,1,4,0:0:0:0:
176,188,33823,1,8,0:0:0:0:
176,188,34134,1,8,0:0:0:0:
176,188,34341,1,0,0:0:0:0:
176,188,34754,1,8,0:0:0:0:
176,188,35168,1,0,0:0:0:0:
176,188,35996,1,8,0:0:0:0:
176,188,36410,1,8,0:0:0:0:
176,188,36823,1,0,0:0:0:0:
176,188,37134,1,8,0:0:0:0:
176,188,37444,1,8,0:0:0:0:
176,188,37651,1,0,0:0:0:0:
176,188,38065,1,8,0:0:0:0:
176,188,38272,1,8,0:0:0:0:
24,212,38478,2,0,L|84:216,12,35
188,232,40134,1,4,0:0:0:0:
464,232,41789,1,0,0:0:0:0:
320,200,42616,1,8,0:0:0:0:
320,200,43444,1,0,0:0:0:0:
320,200,45099,1,0,0:0:0:0:
320,200,45927,1,0,0:0:0:0:
272,208,46754,1,4,0:0:0:0:
272,208,47582,1,8,0:0:0:0:
272,208,49237,1,8,0:0:0:0:
272,208,50065,1,4,0:0:0:0:
272,208,50892,1,8,0:0:0:0:
180,176,51306,1,0,0:0:0:0:
312,192,51720,1,12,0:0:0:0:
196,160,53375,1,4,0:0:0:0:
312,192,53789,1,0,0:0:0:0:
312,184,54203,1,0,0:0:0:0:
312,184,54410,1,0,0:0:0:0:
312,184,54616,1,0,0:0:0:0:
292,188,55030,1,0,0:0:0:0:
292,188,55444,1,0,0:0:0:0:
348,232,55858,1,0,0:0:0:0:
348,232,56065,1,0,0:0:0:0:
348,232,56272,1,0,0:0:0:0:
348,232,56685,1,0,0:0:0:0:
348,232,57099,1,0,0:0:0:0:
348,232,57513,1,0,0:0:0:0:
348,232,57720,1,0,0:0:0:0:
348,232,57927,1,0,0:0:0:0:
344,224,58341,1,4,0:0:0:0:
264,160,59168,1,8,0:0:0:0:
260,120,59996,1,4,0:0:0:0:
252,276,60410,1,0,0:0:0:0:
252,276,60823,1,0,0:0:0:0:
252,276,61030,1,0,0:0:0:0:
252,276,61237,1,0,0:0:0:0:
252,276,61651,1,0,0:0:0:0:
252,276,62065,1,0,0:0:0:0:
252,276,62478,1,0,0:0:0:0:
252,276,62685,1,0,0:0:0:0:
252,276,62892,1,0,0:0:0:0:
252,276,63306,1,0,0:0:0:0:
252,276,63720,1,0,0:0:0:0:
252,276,64134,1,0,0:0:0:0:
252,276,64341,1,0,0:0:0:0:
252,276,64547,1,0,0:0:0:0:
248,264,64961,1,4,0:0:0:0:
248,264,65789,1,8,0:0:0:0:
248,252,66616,1,4,0:0:0:0:
168,184,68272,2,0,L|236:180,12,35
264,104,69927,1,0,0:0:0:0:
260,88,70341,1,12,0:0:0:0:
256,80,71168,1,8,0:0:0:0:
256,80,71582,1,0,0:0:0:0:
256,56,71996,1,8,0:0:0:0:
248,56,72616,1,0,0:0:0:0:
248,56,72823,1,8,0:0:0:0:
248,44,73237,1,0,0:0:0:0:
248,40,73651,1,12,0:0:0:0:
244,116,74272,1,0,0:0:0:0:
244,116,74478,1,8,0:0:0:0:
244,72,74892,1,4,0:0:0:0:
232,136,75203,1,0,0:0:0:0:
232,136,75513,1,0,0:0:0:0:
232,136,75720,1,8,0:0:0:0:
224,108,76134,1,8,0:0:0:0:
224,84,76547,1,0,0:0:0:0:
216,64,76961,1,12,0:0:0:0:
224,80,77582,1,0,0:0:0:0:
224,80,77789,1,8,0:0:0:0:
224,80,78203,1,0,0:0:0:0:
224,80,78616,1,8,0:0:0:0:
224,80,79237,1,0,0:0:0:0:
224,80,79444,1,8,0:0:0:0:
224,80,79858,1,0,0:0:0:0:
224,80,80272,1,12,0:0:0:0:
224,80,80892,1,0,0:0:0:0:
224,80,81099,1,8,0:0:0:0:
224,72,81513,1,4,0:0:0:0:
224,72,82134,1,4,0:0:0:0:
224,72,82754,1,8,0:0:0:0:
252,212,83168,1,4,0:0:0:0:
240,176,83582,1,8,0:0:0:0:
216,112,84410,1,8,0:0:0:0:
216,112,84823,1,0,0:0:0:0:
216,112,85237,1,8,0:0:0:0:
20,88,85651,1,0,0:0:0:0:
184,116,85858,1,0,0:0:0:0:
184,108,86065,1,8,0:0:0:0:
240,176,86478,1,4,0:0:0:0:
240,176,86892,1,8,0:0:0:0:
240,176,87720,1,8,0:0:0:0:
244,140,88134,1,0,0:0:0:0:
244,140,88547,1,8,0:0:0:0:
244,140,88961,1,0,0:0:0:0:
244,140,89168,1,0,0:0:0:0:
244,140,89375,1,8,0:0:0:0:
244,140,89789,1,4,0:0:0:0:
280,204,90616,1,8,0:0:0:0:
280,160,91030,1,8,0:0:0:0:
280,160,91444,1,8,0:0:0:0:
264,108,91858,1,8,0:0:0:0:
264,96,92272,1,8,0:0:0:0:
264,96,92685,1,8,0:0:0:0:
96,204,93099,2,8,L|136:208,14,35
152,168,94754,2,4,L|216:164,12,35
256,188,96410,1,4,0:0:0:0:
236,104,99720,1,4,0:0:0:0:
283,212,100134,1,0,0:0:0:0:
200,232,100547,1,8,0:0:0:0:
236,104,100961,1,8,0:0:0:0:
236,104,101375,1,0,0:0:0:0:
299,129,101789,1,8,0:0:0:0:
236,104,102203,1,8,0:0:0:0:
299,129,102616,1,0,0:0:0:0:
236,104,103030,1,4,0:0:0:0:
282,193,103444,1,8,0:0:0:0:
212,256,103858,1,0,0:0:0:0:
283,182,104272,1,0,0:0:0:0:
283,182,104685,1,8,0:0:0:0:
299,128,105099,1,0,0:0:0:0:
180,176,105513,1,8,0:0:0:0:
252,240,105927,1,8,0:0:0:0:
196,224,106341,1,4,0:0:0:0:
283,161,106754,1,0,0:0:0:0:
192,196,107168,1,8,0:0:0:0:
192,196,107582,1,8,0:0:0:0:
192,196,107996,1,0,0:0:0:0:
298,126,108410,1,8,0:0:0:0:
192,196,108823,1,8,0:0:0:0:
298,126,109237,1,0,0:0:0:0:
192,196,109651,1,4,0:0:0:0:
286,154,110065,1,8,0:0:0:0:
192,196,110478,1,0,0:0:0:0:
286,154,110892,1,0,0:0:0:0:
286,154,111306,1,8,0:0:0:0:
246,147,111720,1,0,0:0:0:0:
192,196,112134,1,8,0:0:0:0:
192,184,112547,1,8,0:0:0:0:
192,196,112961,1,4,0:0:0:0:
192,184,113375,1,8,0:0:0:0:
234,199,113996,1,0,0:0:0:0:
192,184,114203,1,8,0:0:0:0:
322,173,114616,1,0,0:0:0:0:
192,184,115030,1,8,0:0:0:0:
336,216,115444,1,0,0:0:0:0:
333,188,115651,1,0,0:0:0:0:
192,184,115858,1,8,0:0:0:0:
192,184,116272,1,0,0:0:0:0:
192,184,116685,1,8,0:0:0:0:
332,162,117306,1,0,0:0:0:0:
192,184,117513,1,8,0:0:0:0:
334,149,117927,1,0,0:0:0:0:
192,184,118341,1,8,0:0:0:0:
296,192,118754,1,0,0:0:0:0:
334,149,118961,1,0,0:0:0:0:
192,184,119168,1,8,0:0:0:0:
252,208,119582,1,4,0:0:0:0:
220,168,119996,1,8,0:0:0:0:
220,168,120410,1,8,0:0:0:0:
220,168,121237,1,8,0:0:0:0:
220,168,121651,1,8,0:0:0:0:
220,168,122065,1,8,0:0:0:0:
220,168,122478,1,8,0:0:0:0:
16,192,122892,2,8,L|68:188,14,35
64,144,124547,2,0,L|124:152,12,35
252,56,126203,1,4,0:0:0:0:
199,223,127858,1,0,0:0:0:0:
199,223,128685,1,8,0:0:0:0:
199,223,129513,1,0,0:0:0:0:
199,222,131168,1,8,0:0:0:0:
199,222,131996,1,8,0:0:0:0:
199,222,132823,1,0,0:0:0:0:
199,222,134478,1,0,0:0:0:0:
199,222,135306,1,8,0:0:0:0:
199,222,136134,1,0,0:0:0:0:
199,222,137789,1,8,0:0:0:0:
199,222,138616,1,8,0:0:0:0:
199,222,139444,1,4,0:0:0:0:
345,204,140272,1,4,0:0:0:0:
345,204,141099,1,4,0:0:0:0:
345,204,142754,1,4,0:0:0:0:
345,204,143582,1,4,0:0:0:0:
345,204,144410,1,4,0:0:0:0:
345,203,146065,1,0,0:0:0:0:
345,203,146478,1,0,0:0:0:0:
345,203,146892,1,0,0:0:0:0:
345,203,147306,1,0,0:0:0:0:
345,203,147720,1,8,0:0:0:0:
345,203,148134,1,8,0:0:0:0:
345,203,148547,1,8,0:0:0:0:
345,203,148961,1,8,0:0:0:0:
67,168,149375,2,0,L|106:170,14,35
287,128,151030,2,4,L|334:120,12,35
284,181,152685,1,4,0:0:0:0:
269,182,153306,1,0,0:0:0:0:
269,182,153513,1,8,0:0:0:0:
283,184,154134,1,4,0:0:0:0:
293,223,155168,1,8,0:0:0:0:
293,223,155582,1,8,0:0:0:0:
303,206,155996,1,4,0:0:0:0:
303,206,156823,1,8,0:0:0:0:
303,206,157237,1,0,0:0:0:0:
303,206,157444,1,12,0:0:0:0:
303,206,157858,1,12,0:0:0:0:
108,127,158065,1,12,0:0:0:0:
236,104,159306,1,4,0:0:0:0:
316,248,159720,1,0,0:0:0:0:
200,232,160133,1,8,0:0:0:0:
236,104,160547,1,8,0:0:0:0:
236,104,160961,1,0,0:0:0:0:
344,194,161375,1,8,0:0:0:0:
236,104,161789,1,8,0:0:0:0:
344,194,162203,1,0,0:0:0:0:
236,104,162616,1,4,0:0:0:0:
315,214,163030,1,8,0:0:0:0:
212,256,163444,1,0,0:0:0:0:
315,214,163858,1,0,0:0:0:0:
236,104,164271,1,8,0:0:0:0:
335,200,164685,1,0,0:0:0:0:
180,176,165099,1,8,0:0:0:0:
252,240,165513,1,8,0:0:0:0:
196,224,165927,1,4,0:0:0:0:
295,161,166341,1,0,0:0:0:0:
192,196,166754,1,8,0:0:0:0:
192,196,167168,1,8,0:0:0:0:
192,196,167582,1,0,0:0:0:0:
336,172,167996,1,0,0:0:0:0:
192,196,168409,1,8,0:0:0:0:
331,165,168823,1,0,0:0:0:0:
192,196,169237,1,4,0:0:0:0:
287,150,169651,1,8,0:0:0:0:
192,196,170064,1,0,0:0:0:0:
287,150,170478,1,0,0:0:0:0:
287,150,170892,1,8,0:0:0:0:
331,165,171306,1,0,0:0:0:0:
192,196,171720,1,8,0:0:0:0:
192,184,172133,1,8,0:0:0:0:
192,196,172547,1,4,0:0:0:0:
162,107,172961,1,8,0:0:0:0:
198,162,173375,1,8,0:0:0:0:
287,147,173582,1,0,0:0:0:0:
257,127,173789,1,8,0:0:0:0:
257,127,174203,1,8,0:0:0:0:
324,154,175030,1,0,0:0:0:0:
205,189,175237,1,0,0:0:0:0:
257,127,175444,1,8,0:0:0:0:
257,127,175858,1,0,0:0:0:0:
257,127,176272,1,8,0:0:0:0:
250,164,176685,1,8,0:0:0:0:
250,164,176892,1,0,0:0:0:0:
257,127,177099,1,8,0:0:0:0:
215,89,177513,1,8,0:0:0:0:
215,89,178341,1,0,0:0:0:0:
322,193,178547,1,0,0:0:0:0:
215,89,178754,1,8,0:0:0:0:
250,179,179168,1,0,0:0:0:0:
245,132,179582,1,8,0:0:0:0:
245,132,179996,1,8,0:0:0:0:
245,132,180823,1,8,0:0:0:0:
245,132,181237,1,8,0:0:0:0:
245,132,181444,1,0,0:0:0:0:
245,132,181651,1,8,0:0:0:0:
243,92,182065,1,8,0:0:0:0:
243,84,182478,1,8,0:0:0:0:
243,84,182789,1,8,0:0:0:0:
243,84,183099,1,8,0:0:0:0:
33,194,183513,2,8,L|81:189,4,35
247,158,184134,1,4,0:0:0:0:
247,158,184961,1,12,0:0:0:0:
247,158,185789,1,4,0:0:0:0:
