osu file format v14

[General]
AudioFilename: audio.mp3
AudioLeadIn: 0
PreviewTime: 102672
Countdown: 0
SampleSet: Soft
StackLeniency: 0.2
Mode: 0
LetterboxInBreaks: 0
WidescreenStoryboard: 0

[Editor]
Bookmarks: 34330,49731,67698,131870,198608,201174,206308,226843,237110,247378,257645,267832,275613,285880,293581,308340
DistanceSpacing: 0.8
BeatDivisor: 4
GridSize: 16
TimelineZoom: 3.499998

[Metadata]
Title:Yukari
TitleUnicode:Yukari
Artist:Yokomin
ArtistUnicode:Yokomin
Creator:Shiirn
Version:from Love to Grief
Source:
Tags:yuzuki yukari vocaloid utauloid utau よこミンP yokominp 結月ゆかり
BeatmapID:924668
BeatmapSetID:428432

[Difficulty]
HPDrainRate:5
CircleSize:4
OverallDifficulty:8.6
ApproachRate:9.2
SliderMultiplier:1.9
SliderTickRate:2

[Events]
//Background and Video events
0,0,"9f3fe13042.png",0,0
Video,0,"yukari.avi"
//Break Periods
//Storyboard Layer 0 (Background)
//Storyboard Layer 1 (Fail)
//Storyboard Layer 2 (Pass)
//Storyboard Layer 3 (Foreground)
//Storyboard Sound Samples

[TimingPoints]
953,320.855614973262,4,2,3,30,1,0
953,-125,4,2,3,30,0,0
11220,-125,4,2,3,35,0,0
21487,-125,4,2,3,40,0,0
31755,-125,4,2,3,60,0,0
32075,-125,4,2,3,50,0,0
32396,-125,4,2,3,40,0,0
32717,-125,4,2,3,35,0,0
32878,-125,4,2,3,45,0,0
33038,-125,4,2,3,55,0,0
33359,-125,4,2,3,40,0,0
33680,-125,4,2,3,25,0,0
34001,-125,4,2,3,10,0,0
34161,-100,4,1,5,50,0,0
43947,-100,4,1,5,53,0,0
44027,-100,4,1,5,56,0,0
44108,-100,4,1,5,60,0,0
44188,-100,4,1,5,63,0,0
44268,-200,4,1,5,66,0,0
44509,-200,4,1,5,25,0,0
44589,-100,4,1,5,50,0,0
45070,-100,4,1,5,30,0,0
45231,-100,4,1,5,50,0,0
45712,-100,4,1,5,30,0,0
45872,-100,4,1,5,50,0,0
46354,-100,4,1,5,30,0,0
46514,-100,4,1,5,50,0,0
46995,-100,4,1,5,30,0,0
47156,-100,4,1,5,50,0,0
47637,-100,4,1,5,30,0,0
47797,-100,4,1,5,50,0,0
48279,-100,4,1,5,30,0,0
48439,-100,4,1,5,50,0,0
49241,-100,4,1,5,30,0,0
49402,-100,4,1,5,50,0,0
49562,-100,4,1,5,30,0,0
49723,-100,4,1,5,50,0,0
50204,-100,4,1,5,30,0,0
50364,-100,4,1,5,50,0,0
50846,-100,4,1,5,30,0,0
51006,-100,4,1,5,50,0,0
51487,-100,4,1,5,30,0,0
51648,-100,4,1,5,50,0,0
52129,-100,4,1,5,30,0,0
52289,-100,4,1,5,50,0,0
52771,-100,4,1,5,30,0,0
52931,-100,4,1,5,50,0,0
54375,-100,4,1,5,35,0,0
54535,-100,4,1,5,40,0,0
54696,-100,4,1,5,45,0,0
54856,-100,4,1,5,50,0,0
55338,-100,4,1,5,30,0,0
55498,-100,4,1,5,50,0,0
55979,-100,4,1,5,30,0,0
56140,-100,4,1,5,50,0,0
56621,-100,4,1,5,30,0,0
56781,-100,4,1,5,50,0,0
57263,-100,4,1,5,30,0,0
57423,-100,4,1,5,50,0,0
57904,-100,4,1,5,30,0,0
58065,-100,4,1,5,50,0,0
58546,-100,4,1,5,30,0,0
58707,-100,4,1,5,50,0,0
59188,-100,4,1,5,30,0,0
59348,-100,4,1,5,50,0,0
59830,-100,4,1,5,30,0,0
59990,-100,4,1,5,50,0,0
63038,-100,4,1,5,30,0,0
63198,-100,4,1,5,50,0,0
63359,-100,4,1,5,30,0,0
63519,-100,4,1,5,50,0,0
63680,-100,4,1,5,30,0,0
63840,-100,4,1,5,50,0,0
64001,-100,4,1,5,30,0,0
64161,-100,4,1,5,50,0,0
64321,-100,4,1,5,30,0,0
64482,-100,4,1,5,50,0,0
64642,-100,4,1,5,30,0,0
64803,-100,4,1,5,50,0,0
65284,-100,4,1,5,30,0,0
65444,-100,4,1,5,50,0,0
67690,-125,4,2,3,50,0,0
77477,-200,4,1,5,50,0,0
77958,-100,4,1,5,50,0,0
81808,-100,4,1,5,30,0,0
81969,-100,4,1,5,50,0,0
92878,-100,4,1,5,40,0,0
93038,-100,4,1,5,50,0,0
93840,-100,4,1,5,40,0,0
94001,-100,4,1,5,50,0,0
94161,-100,4,1,5,40,0,0
94321,-100,4,1,5,50,0,0
95124,-100,4,1,5,40,0,0
95284,-100,4,1,5,50,0,0
104108,-100,4,1,5,30,0,0
104268,-100,4,1,5,50,0,0
104749,-100,4,1,5,30,0,0
104910,-100,4,1,5,50,0,0
105391,-100,4,1,5,30,0,0
105551,-100,4,1,5,50,0,0
107316,-100,4,1,5,30,0,0
107477,-100,4,1,5,50,0,0
107958,-100,4,1,5,30,0,0
108118,-100,4,1,5,50,0,0
109241,-100,4,1,5,30,0,0
109402,-100,4,1,5,50,0,0
110525,-100,4,1,5,30,0,0
110685,-100,4,1,5,50,0,0
111808,-100,4,1,5,30,0,0
111969,-100,4,1,5,50,0,0
113252,-100,4,1,5,30,0,0
113412,-100,4,1,5,50,0,0
113573,-100,4,1,5,30,0,0
113733,-100,4,1,5,50,0,0
114375,-100,4,1,5,30,0,0
114535,-100,4,1,5,50,0,0
115017,-100,4,1,5,30,0,0
115177,-100,4,1,5,50,0,0
115658,-100,4,1,5,30,0,0
115819,-100,4,1,5,50,0,0
116942,-100,4,1,5,30,0,0
117102,-100,4,1,5,50,0,0
117584,-100,4,1,5,30,0,0
117744,-100,4,1,5,50,0,0
118225,-100,4,1,5,30,0,0
118386,-100,4,1,5,50,0,0
119509,-100,4,1,5,30,0,0
119669,-100,4,1,5,50,0,0
120792,-100,4,1,5,30,0,0
120952,-100,4,1,5,50,0,0
124642,-100,4,1,5,30,0,0
124803,-100,4,1,5,50,0,0
125926,-100,4,1,5,30,0,0
126086,-100,4,1,5,50,0,0
127209,-100,4,1,5,30,0,0
127370,-100,4,1,5,50,0,0
127851,-100,4,1,5,30,0,0
128011,-100,4,1,5,50,0,0
128172,-100,4,1,5,30,0,0
128332,-100,4,1,5,50,0,0
128493,-100,4,1,5,30,0,0
128653,-100,4,1,5,50,0,0
136674,-100,4,1,5,25,0,0
136995,-125,4,1,5,40,0,0
138760,-125,4,1,5,30,0,0
138920,-125,4,1,5,40,0,0
139402,-125,4,1,5,30,0,0
139562,-125,4,1,5,40,0,0
141327,-125,4,1,5,30,0,0
141487,-125,4,1,5,40,0,0
141969,-125,4,1,5,30,0,0
142129,-125,4,1,5,40,0,0
143894,-125,4,1,5,30,0,0
144054,-125,4,1,5,40,0,0
147263,-100,4,1,5,50,0,0
154803,-100,4,1,5,30,0,0
154963,-100,4,1,5,50,0,0
160578,-100,4,1,5,30,0,0
160739,-100,4,1,5,50,0,0
163145,-100,4,1,5,30,0,0
163305,-100,4,1,5,50,0,0
164428,-100,4,1,5,30,0,0
164589,-100,4,1,5,50,0,0
165712,-100,4,1,5,30,0,0
165872,-100,4,1,5,50,0,0
166995,-100,4,1,5,30,0,0
167156,-100,4,1,5,50,0,0
168279,-100,4,1,5,30,0,0
168439,-100,4,1,5,50,0,0
169723,-100,4,1,5,30,0,0
169883,-100,4,1,5,50,0,0
170043,-100,4,1,5,30,0,0
170204,-100,4,1,5,50,0,0
170846,-100,4,1,5,30,0,0
171006,-100,4,1,5,50,0,0
172129,-100,4,1,5,30,0,0
172289,-100,4,1,5,50,0,0
173412,-100,4,1,5,30,0,0
173573,-100,4,1,5,50,0,0
174696,-100,4,1,5,30,0,0
174856,-100,4,1,5,50,0,0
175979,-100,4,1,5,30,0,0
176140,-100,4,1,5,50,0,0
177263,-100,4,1,5,30,0,0
177423,-100,4,1,5,50,0,0
183680,-100,4,1,5,30,0,0
183840,-100,4,1,5,50,0,0
184321,-100,4,1,5,30,0,0
184482,-100,4,1,5,50,0,0
184963,-100,4,1,5,30,0,0
185124,-100,4,1,5,50,0,0
197958,-125,4,1,5,30,0,0
198600,-100,4,1,5,50,0,0
206300,-142.857142857143,4,2,5,50,0,0
226835,-125,4,1,5,50,0,0
236942,-90.9090909090909,4,1,5,50,0,1
237584,-90.9090909090909,4,1,5,30,0,1
237744,-90.9090909090909,4,1,5,50,0,1
238225,-90.9090909090909,4,1,5,30,0,1
238386,-90.9090909090909,4,1,5,50,0,1
238867,-90.9090909090909,4,1,5,30,0,1
239027,-90.9090909090909,4,1,5,50,0,1
240150,-90.9090909090909,4,1,5,30,0,1
240311,-90.9090909090909,4,1,5,50,0,1
240792,-90.9090909090909,4,1,5,30,0,1
240952,-90.9090909090909,4,1,5,50,0,1
241434,-90.9090909090909,4,1,5,30,0,1
241594,-90.9090909090909,4,1,5,50,0,1
242717,-90.9090909090909,4,1,5,30,0,1
242878,-90.9090909090909,4,1,5,50,0,1
245284,-90.9090909090909,4,1,5,30,0,1
245444,-90.9090909090909,4,1,5,50,0,1
245926,-90.9090909090909,4,1,5,30,0,1
246086,-90.9090909090909,4,1,5,50,0,1
246567,-90.9090909090909,4,1,5,50,0,0
246728,-90.9090909090909,4,1,5,30,0,0
246888,-90.9090909090909,4,1,5,50,0,0
247049,-90.9090909090909,4,1,5,30,0,0
247209,-90.9090909090909,4,1,5,50,0,1
247851,-90.9090909090909,4,1,5,30,0,1
248011,-90.9090909090909,4,1,5,50,0,1
248493,-90.9090909090909,4,1,5,30,0,1
248653,-90.9090909090909,4,1,5,50,0,1
249134,-90.9090909090909,4,1,5,30,0,1
249295,-90.9090909090909,4,1,5,50,0,1
251701,-90.9090909090909,4,1,5,30,0,1
251862,-90.9090909090909,4,1,5,50,0,1
252985,-90.9090909090909,4,1,5,30,0,1
253145,-90.9090909090909,4,1,5,50,0,1
254268,-90.9090909090909,4,1,5,30,0,1
254428,-90.9090909090909,4,1,5,50,0,1
256995,-90.9090909090909,4,1,5,50,0,0
258118,-90.9090909090909,4,1,5,30,0,0
258279,-90.9090909090909,4,1,5,50,0,0
258760,-100,4,1,5,50,0,0
259402,-100,4,1,5,30,0,0
259562,-100,4,1,5,50,0,0
260685,-100,4,1,5,30,0,0
260846,-100,4,1,5,50,0,0
261327,-100,4,1,5,30,0,0
261487,-100,4,1,5,50,0,0
263252,-100,4,1,5,30,0,0
263412,-100,4,1,5,50,0,0
264535,-100,4,1,5,30,0,0
264696,-100,4,1,5,50,0,0
265819,-100,4,1,5,30,0,0
265979,-100,4,1,5,50,0,0
267744,-100,4,1,5,50,0,1
269830,-100,4,1,5,50,0,0
270311,-100,4,1,5,50,0,1
272396,-100,4,1,5,50,0,0
272878,-100,4,1,5,50,0,1
274963,-100,4,1,5,50,0,0
276086,-100,4,1,5,30,0,0
276247,-100,4,1,5,50,0,0
276728,-100,4,1,5,30,0,0
276888,-100,4,1,5,50,0,0
277370,-100,4,1,5,30,0,0
277530,-100,4,1,5,50,0,0
278011,-100,4,1,5,30,0,0
278172,-100,4,1,5,50,0,0
278653,-100,4,1,5,30,0,0
278813,-100,4,1,5,50,0,0
279295,-100,4,1,5,30,0,0
279455,-100,4,1,5,50,0,0
279936,-100,4,1,5,30,0,0
280097,-100,4,1,5,50,0,0
281220,-100,4,1,5,30,0,0
281380,-100,4,1,5,50,0,0
281862,-100,4,1,5,30,0,0
282022,-100,4,1,5,50,0,0
282503,-100,4,1,5,30,0,0
282664,-100,4,1,5,50,0,0
283145,-100,4,1,5,30,0,0
283305,-100,4,1,5,50,0,0
283787,-100,4,1,5,30,0,0
283947,-100,4,1,5,50,0,0
287637,-100,4,1,5,30,0,0
287797,-100,4,1,5,50,0,0
288279,-100,4,1,5,30,0,0
288439,-100,4,1,5,50,0,0
288920,-100,4,1,5,30,0,0
289081,-100,4,1,5,50,0,0
289562,-100,4,1,5,30,0,0
289723,-100,4,1,5,50,0,0
290204,-100,4,1,5,30,0,0
290364,-100,4,1,5,50,0,0
290846,-100,4,1,5,30,0,0
291006,-100,4,1,5,50,0,0
293573,-142.857142857143,4,2,0,40,0,0
296140,-153.846153846154,4,2,0,35,0,0
298707,-166.666666666667,4,2,0,30,0,0
301273,-181.818181818182,4,2,0,25,0,0
303840,-200,4,2,0,20,0,0
306407,-222.222222222222,4,2,0,15,0,0
308332,-222.222222222222,4,2,0,20,0,0
308493,-222.222222222222,4,2,0,25,0,0
308653,-222.222222222222,4,2,0,35,0,0

[Colours]
Combo1 : 160,159,181
Combo2 : 166,64,148
Combo3 : 239,126,194
Combo4 : 135,83,183
Combo5 : 68,50,152
Combo6 : 227,193,213

[HitObjects]
275,253,311,5,0,0:0:0:0:
203,230,471,1,2,0:0:0:0:
203,154,632,1,0,0:0:0:0:
275,130,792,1,2,0:0:0:0:
320,192,953,6,0,P|348:232|344:280,2,76
203,230,1434,1,2,0:0:0:0:
275,253,1594,2,0,P|280:292|320:328,1,76,0|0,1:0|0:0,0:0:0:0:
203,154,1915,2,0,P|176:125|122:119,1,76,2|0,0:0|0:0,0:0:0:0:
135,191,2236,6,0,P|144:272|88:332,1,152
52,240,2717,1,0,0:0:0:0:
253,201,2878,2,0,P|261:241|293:273,1,76,2|0,1:2|0:0,0:0:0:0:
413,189,3198,1,2,0:0:0:0:
333,201,3359,1,0,0:0:0:0:
284,268,3519,6,0,P|270:338|198:370,1,152,2|2,0:0|0:0,0:0:0:0:
72,328,4001,1,0,0:0:0:0:
128,268,4161,1,0,1:0:0:0:
98,196,4321,2,0,P|68:218|52:252,1,76,0|2,0:0|2:0,0:0:0:0:
204,288,4642,1,0,0:0:0:0:
184,208,4803,1,2,0:0:0:0:
252,104,5444,37,2,1:2:0:0:
328,88,5605,1,0,0:0:0:0:
246,114,5765,1,2,0:0:0:0:
333,77,5926,1,0,0:0:0:0:
236,128,6086,6,0,P|276:144|296:176,1,76,2|0,0:0|0:0,0:0:0:0:
284,264,6407,1,2,0:0:0:0:
284,264,6567,1,0,0:0:0:0:
224,207,6728,2,0,P|204:240|203:278,1,76,2|0,1:2|0:0,0:0:0:0:
155,166,7049,2,0,P|177:126|175:92,1,76,0|2,0:0|0:0,0:0:0:0:
99,112,7370,6,0,P|79:182|126:238,1,152,2|0,0:0|0:0,0:0:0:0:
385,145,8011,2,0,P|432:201|412:272,1,152,2|2,1:2|0:0,0:0:0:0:
296,320,8653,5,0,0:0:0:0:
239,257,8813,1,0,0:0:0:0:
208,336,8974,1,2,0:0:0:0:
156,272,9134,2,0,P|158:229|191:188,2,76,2|0|2,0:0|1:0|0:0,0:0:0:0:
323,234,9616,2,0,L|311:150,1,76,2|0,0:0|0:0,0:0:0:0:
292,76,9936,37,2,0:0:0:0:
148,140,10257,1,2,0:0:0:0:
180,32,10578,1,2,0:0:0:0:
224,240,10899,1,2,0:0:0:0:
220,232,11220,6,0,P|192:192|196:144,2,76,0|2|0,0:0|0:0|0:0,0:0:0:0:
337,194,11701,1,2,0:0:0:0:
265,171,11861,2,0,P|254:125|214:95,1,76,2|0,1:2|0:0,0:0:0:0:
337,270,12182,2,0,P|360:295|413:304,1,76,2|0,0:0|0:0,0:0:0:0:
511,277,12503,6,0,P|470:218|400:232,1,152,2|0,0:0|0:0,0:0:0:0:
260,244,12985,2,0,L|184:256,2,76,0|2|0,0:0|1:2|0:0,0:0:0:0:
364,140,13466,1,2,0:0:0:0:
297,170,13626,1,0,0:0:0:0:
438,111,13787,6,0,P|443:148|432:184,1,76,2|0,0:0|0:0,0:0:0:0:
356,215,14107,1,2,0:0:0:0:
312,64,14268,1,0,0:0:0:0:
356,215,14428,2,0,L|364:140,1,76,2|0,1:2|0:0,0:0:0:0:
396,40,14749,1,2,0:0:0:0:
438,111,14910,1,2,0:0:0:0:
312,64,15070,1,0,0:0:0:0:
48,200,15391,1,2,0:0:0:0:
130,206,15712,37,2,1:2:0:0:
42,214,15873,1,0,0:0:0:0:
136,196,16033,1,2,0:0:0:0:
37,225,16194,1,0,0:0:0:0:
146,182,16354,6,0,P|106:166|86:134,1,76,2|0,0:0|0:0,0:0:0:0:
96,64,16674,1,0,0:0:0:0:
168,36,16835,2,0,P|208:52|228:84,1,76,2|0,0:0|1:0,0:0:0:0:
229,155,17156,1,2,0:0:0:0:
232,238,17316,2,0,P|268:222|308:222,1,76,2|0,0:0|0:0,0:0:0:0:
393,237,17637,6,0,P|381:161|437:109,1,152,2|0,0:0|0:0,0:0:0:0:
196,64,18279,2,0,P|208:140|159:195,1,152,2|2,1:2|0:0,0:0:0:0:
28,184,18760,1,0,0:0:0:0:
100,45,18920,2,0,P|108:81|127:114,1,76,2|0,0:0|0:0,0:0:0:0:
244,220,19241,1,2,0:0:0:0:
162,193,19402,1,2,0:0:0:0:
180,276,19562,2,0,P|212:301|258:305,1,76,0|2,1:0|0:0,0:0:0:0:
380,304,19883,1,0,0:0:0:0:
380,384,20043,1,2,0:0:0:0:
308,340,20204,6,0,P|299:306|321:249,1,76,2|0,0:0|0:0,0:0:0:0:
360,128,20525,1,2,2:2:0:0:
380,304,20846,1,2,0:0:0:0:
224,108,21166,1,2,0:0:0:0:
115,293,21487,38,0,P|145:270|158:235,1,76,2|0,0:0|0:0,0:0:0:0:
83,225,21807,1,2,0:0:0:0:
8,215,21969,2,0,P|24:175|56:155,1,76,2|0,0:0|0:0,0:0:0:0:
132,116,22289,1,0,0:0:0:0:
223,107,22449,2,0,P|224:145|240:180,1,76,2|0,0:0|0:0,0:0:0:0:
379,232,22771,6,0,P|369:160|304:128,1,152,2|0,0:0|0:0,0:0:0:0:
257,253,23252,1,2,0:0:0:0:
257,253,23332,1,0,0:0:0:0:
257,253,23412,2,0,P|290:237|307:204,2,76,0|2|0,1:0|0:0|0:0,0:0:0:0:
112,192,23894,1,0,0:0:0:0:
361,150,24054,6,0,P|291:129|239:179,1,152,2|0,0:0|0:0,0:0:0:0:
172,344,24535,1,2,0:0:0:0:
264,361,24696,2,0,L|308:216,1,152,0|2,1:0|0:0,0:0:0:0:
428,152,25177,1,2,0:0:0:0:
416,304,25338,6,0,L|384:224,1,76
232,196,25658,1,0,0:0:0:0:
112,280,25819,1,0,0:0:0:0:
112,280,25899,1,0,0:0:0:0:
112,280,25979,2,0,P|88:244|100:200,1,76,0|0,1:0|0:0,0:0:0:0:
132,72,26300,1,2,0:0:0:0:
164,228,26461,1,2,0:0:0:0:
208,52,26621,38,0,P|280:40|329:94,1,152,2|0,0:0|0:0,0:0:0:0:
410,142,27102,2,0,L|424:68,1,76,2|0,0:0|1:0,0:0:0:0:
360,244,27584,1,2,0:0:0:0:
276,208,27744,1,2,0:0:0:0:
204,264,27904,6,0,L|140:305,1,76
288,300,28225,2,0,L|224:341,1,76
360,244,28546,2,0,L|423:202,1,76,2|0,1:2|0:0,0:0:0:0:
276,208,28867,2,0,L|344:164,1,76,2|0,0:0|0:0,0:0:0:0:
212,160,29188,6,0,P|196:216|256:288,1,152,2|0,0:0|0:0,0:0:0:0:
432,232,29669,1,2,0:0:0:0:
276,208,29830,2,0,L|316:120,1,76,0|0,1:0|0:0,0:0:0:0:
248,48,30150,1,2,0:0:0:0:
372,100,30311,1,2,0:0:0:0:
224,124,30471,5,0,0:0:0:0:
104,232,30792,2,0,P|144:244|192:240,1,76
197,244,31033,1,0,0:0:0:0:
215,248,31113,2,0,P|239:220|275:208,1,76,2|2,0:0|0:0,0:0:0:0:
320,344,31434,2,0,L|276:272,1,76
188,144,31755,37,2,0:0:0:0:
248,96,32075,1,0,0:0:0:0:
324,100,32396,1,0,0:0:0:0:
388,144,32717,1,2,0:0:0:0:
312,180,32878,1,2,0:0:0:0:
324,100,33038,5,2,0:0:0:0:
248,96,33359,1,0,0:0:0:0:
188,144,33680,2,0,P|112:152|56:108,1,152
132,232,34161,5,0,0:0:0:0:
140,248,34241,1,0,0:0:0:0:
148,264,34321,2,0,L|240:220,2,95
285,173,34803,2,0,P|299:192|303:215,1,47.5,0|0,0:0|0:3,0:0:0:0:
227,316,34963,1,8,0:3:0:0:
242,333,35043,1,8,0:3:0:0:
260,344,35124,2,0,P|284:344|308:336,1,47.5,8|0,0:3|0:0,0:0:0:0:
396,252,35284,1,4,0:3:0:0:
253,75,35444,6,0,P|201:87|189:207,1,190
461,304,35926,2,8,P|440:263|396:252,1,95,8|0,0:0|0:0,0:0:0:0:
216,316,36247,1,0,0:0:0:0:
244,152,36407,1,0,0:0:0:0:
244,152,36487,1,0,0:0:0:0:
244,152,36567,1,8,0:0:0:0:
72,252,36728,1,0,0:0:0:0:
52,72,36888,38,0,P|48:124|60:172,2,95
128,200,37370,1,0,0:0:0:0:
140,212,37450,1,0,0:0:0:0:
152,224,37530,2,0,L|144:280,1,47.5,8|0,0:3|0:0,0:0:0:0:
304,236,37690,2,0,L|340:200,1,47.5,8|0,1:3|0:3,0:0:0:0:
254,50,37851,2,0,L|267:96,1,47.5,4|0,0:3|0:0,0:0:0:0:
348,304,38011,6,0,P|292:316|228:216,1,190,4|0,0:0|0:0,0:0:0:0:
256,116,38412,1,0,0:0:0:0:
267,111,38493,2,0,P|303:143|355:151,1,95,4|0,0:0|0:0,0:0:0:0:
488,88,38813,1,0,0:0:0:0:
300,27,38974,2,0,P|271:66|269:118,1,95
332,195,39294,1,0,0:0:0:0:
160,284,39455,6,0,P|115:263|80:232,1,95
80,104,39776,1,8,0:3:0:0:
88,120,39856,1,8,0:3:0:0:
96,136,39936,2,0,P|118:139|140:152,1,47.5,8|0,0:3|0:3,0:3:0:0:
292,196,40097,1,8,0:3:0:0:
284,212,40177,1,8,0:3:0:0:
273,227,40257,2,0,P|249:229|229:242,1,47.5,8|0,0:3|0:0,0:0:0:0:
112,340,40418,1,6,0:3:0:0:
124,352,40498,1,0,0:0:0:0:
138,360,40578,6,0,P|223:332|231:244,1,190,4|0,0:0|0:0,0:0:0:0:
68,116,41059,2,0,P|52:168|72:216,1,95,8|0,0:0|0:0,0:0:0:0:
160,284,41380,1,0,0:0:0:0:
132,160,41541,1,0,0:0:0:0:
148,140,41621,1,0,0:0:0:0:
164,120,41701,1,8,0:0:0:0:
308,92,41862,1,0,0:0:0:0:
396,204,42022,38,0,P|392:256|336:292,2,95
256,176,42503,1,8,0:3:0:0:
268,192,42584,1,8,0:3:0:0:
280,208,42664,2,0,L|340:224,1,47.5,8|0,0:3|0:3,0:3:0:0:
220,268,42824,1,8,0:3:0:0:
208,284,42905,1,8,0:3:0:0:
196,300,42985,2,0,L|136:316,1,47.5,4|0,0:3|0:3,0:3:0:0:
328,296,43145,6,0,P|384:264|360:156,1,190,4|0,0:0|0:0,0:0:0:0:
136,180,43626,1,8,0:0:0:0:
248,88,43787,1,0,0:0:0:0:
316,236,43947,1,8,0:0:0:0:
270,215,44027,1,8,0:0:0:0:
224,232,44107,1,8,0:0:0:0:
200,275,44187,1,8,0:0:0:0:
204,323,44268,6,8,L|280:280,1,71.25,8|0,0:0|2:0,0:0:0:0:
316,236,44589,5,2,0:2:0:0:
248,88,44749,1,0,0:0:0:0:
96,72,44910,2,0,P|92:128|132:176,1,95,8|0,0:0|0:0,0:0:0:0:
328,136,45231,1,0,0:0:0:0:
172,104,45391,1,0,0:0:0:0:
88,232,45551,2,0,P|136:232|180:184,1,95,8|0,0:0|0:0,0:0:0:0:
328,48,45872,37,2,0:2:0:0:
412,132,46033,1,0,0:0:0:0:
424,248,46193,2,0,P|384:280|316:272,1,95,8|0,0:0|0:0,0:0:0:0:
140,196,46514,1,0,0:0:0:0:
200,104,46674,1,0,0:0:0:0:
176,0,46835,2,0,P|116:40|96:80,1,95,8|0,0:0|0:0,0:0:0:0:
34,222,47156,5,2,0:2:0:0:
140,196,47316,1,0,0:0:0:0:
140,304,47477,2,0,P|180:320|248:300,1,95,8|0,0:0|0:0,0:0:0:0:
400,128,47797,1,0,0:0:0:0:
288,132,47957,1,0,0:0:0:0:
279,239,48118,2,0,P|233:227|188:239,1,95,8|0,0:0|0:0,0:0:0:0:
40,336,48439,5,0,0:0:0:0:
40,336,48519,1,0,0:0:0:0:
40,336,48600,2,0,P|76:300|76:240,1,95,0|8,0:0|0:0,0:0:0:0:
80,152,48920,1,0,0:0:0:0:
36,64,49081,2,0,P|96:56|144:80,1,95
248,264,49402,2,0,P|200:240|188:188,1,95,8|0,0:0|0:0,0:0:0:0:
288,40,49723,5,2,0:2:0:0:
260,192,49883,1,0,0:0:0:0:
400,280,50044,2,0,P|404:224|364:176,1,95,8|0,0:0|0:0,0:0:0:0:
172,224,50365,1,0,0:0:0:0:
324,248,50525,1,0,0:0:0:0:
408,120,50685,2,0,P|360:120|316:168,1,95,8|0,0:0|0:0,0:0:0:0:
140,148,51006,37,2,0:2:0:0:
48,260,51167,1,0,0:0:0:0:
72,104,51327,2,0,P|112:72|180:80,1,95,8|0,0:0|0:0,0:0:0:0:
356,156,51648,1,0,0:0:0:0:
296,248,51808,1,0,0:0:0:0:
320,352,51969,2,0,P|388:316|408:280,1,95,8|0,0:0|0:0,0:0:0:0:
428,108,52290,5,2,0:2:0:0:
356,156,52450,1,0,0:0:0:0:
356,48,52611,2,0,P|316:32|248:52,1,95,8|0,0:0|0:0,0:0:0:0:
64,168,52931,1,0,0:0:0:0:
153,177,53091,1,0,0:0:0:0:
265,40,53252,1,8,0:0:0:0:
328,206,53412,5,4,0:0:0:0:
208,104,53733,5,0,0:0:0:0:
161,185,53894,1,8,0:0:0:0:
200,96,54054,1,0,0:0:0:0:
169,193,54215,1,0,0:0:0:0:
196,92,54375,1,8,0:0:0:0:
156,88,54455,1,0,0:0:0:0:
119,100,54535,1,8,0:3:0:0:
89,125,54615,1,8,0:3:0:0:
70,160,54695,1,4,0:3:0:0:
66,199,54776,1,0,0:0:0:0:
78,236,54856,38,0,P|107:283|166:305,1,95,2|0,0:2|0:0,0:0:0:0:
259,156,55177,2,0,P|230:109|171:87,1,95,8|0,0:0|0:0,0:0:0:0:
261,235,55498,1,0,0:0:0:0:
367,261,55658,1,0,0:0:0:0:
372,112,55819,2,0,P|428:124|460:160,1,95,8|0,0:0|0:0,0:0:0:0:
232,160,56140,5,2,0:2:0:0:
236,40,56300,1,0,0:0:0:0:
156,128,56461,2,0,P|152:180|204:236,1,95,8|0,0:0|0:0,0:0:0:0:
320,288,56781,1,0,0:0:0:0:
280,176,56942,1,0,0:0:0:0:
404,196,57102,2,0,P|384:148|392:104,1,95,8|0,0:0|0:0,0:0:0:0:
236,40,57423,5,2,0:2:0:0:
285,114,57584,1,0,0:0:0:0:
152,128,57744,2,0,P|196:160|204:212,1,95,8|0,0:0|0:0,0:0:0:0:
100,356,58065,1,0,0:0:0:0:
68,280,58226,1,0,0:0:0:0:
184,268,58386,2,0,P|140:236|132:184,1,95,8|0,0:0|0:0,0:0:0:0:
148,76,58707,5,0,0:0:0:0:
205,197,58867,1,0,0:0:0:0:
204,24,59027,2,0,P|224:72|208:124,1,95,8|0,0:0|0:0,0:0:0:0:
94,287,59348,1,0,0:0:0:0:
114,275,59428,1,0,0:0:0:0:
137,267,59508,1,0,0:0:0:0:
160,265,59588,1,0,0:0:0:0:
184,268,59669,2,0,P|238:279|294:259,1,95,8|0,0:0|0:0,0:0:0:0:
496,92,59990,37,2,0:2:0:0:
476,260,60150,1,0,0:0:0:0:
360,48,60311,5,8,1:1:0:0:
396,232,60471,1,0,0:0:0:0:
256,76,60632,5,8,0:0:0:0:
256,264,60792,1,0,0:0:0:0:
152,48,60952,5,8,0:0:0:0:
116,232,61112,1,0,0:0:0:0:
120,248,61193,1,0,0:0:0:0:
124,264,61273,37,10,0:2:0:0:
340,308,61434,1,0,0:0:0:0:
180,192,61594,5,8,0:0:0:0:
408,192,61755,1,0,0:0:0:0:
124,120,61915,5,8,0:0:0:0:
340,76,62076,1,8,0:0:0:0:
344,80,62396,6,0,P|308:136|416:200,1,190,4|0,0:0|0:0,0:0:0:0:
413,59,62878,2,0,P|415:105|383:139,1,95
300,263,63198,2,0,B|258:243|242:190,1,95
344,80,63519,2,0,P|292:56|236:56,1,95
48,88,63840,38,0,L|80:180,1,95
144,108,64161,2,0,L|176:200,1,95
96,356,64482,2,0,L|128:264,1,95
220,116,64803,1,0,0:0:0:0:
132,116,64963,1,2,0:3:0:0:
79,177,65124,6,0,P|120:197|187:175,1,95
292,80,65444,1,4,0:0:0:0:
300,88,65765,1,4,0:0:0:0:
308,96,66086,1,4,0:0:0:0:
364,204,66407,5,0,0:0:0:0:
344,216,66487,1,0,0:0:0:0:
332,237,66567,1,0,0:0:0:0:
332,260,66647,1,0,0:0:0:0:
342,282,66728,2,0,P|294:314|254:310,1,95
235,299,66969,1,0,0:0:0:0:
219,281,67049,1,0,0:0:0:0:
87,294,67209,1,0,0:0:0:0:
168,124,67690,5,0,0:0:0:0:
240,100,67851,1,0,0:0:0:0:
312,128,68011,1,0,0:0:0:0:
348,196,68172,1,0,0:0:0:0:
276,229,68332,2,0,B|260:265|260:265|260:301,1,76,0|0,3:0|3:0,3:0:0:0:
316,357,68653,2,0,B|332:321|332:321|332:285,1,76,0|0,3:0|3:0,3:0:0:0:
312,128,68974,37,2,0:0:0:0:
320,260,70097,5,0,1:0:0:0:
378,214,70257,2,0,P|349:190|312:184,1,76,0|2,1:0|0:0,0:0:0:0:
244,216,70578,1,0,3:0:0:0:
220,288,70739,1,2,0:0:0:0:
144,304,70899,1,0,3:0:0:0:
68,320,71059,2,0,P|80:260|164:228,1,152,2|0,0:0|3:0,0:0:0:0:
352,280,71541,5,2,0:0:0:0:
144,304,71862,2,0,P|176:316|240:308,1,76,0|0,3:0|3:0,3:0:0:0:
356,276,72182,5,2,0:0:0:0:
360,272,72503,37,2,3:2:0:0:
364,268,72824,5,0,3:2:0:0:
338,183,72985,1,0,3:0:0:0:
422,203,73145,1,0,3:0:0:0:
368,272,73305,2,0,P|300:276|248:188,1,152,0|0,3:0|3:0,3:0:0:0:
253,51,73787,5,0,3:0:0:0:
422,203,74108,1,0,3:0:0:0:
150,295,74428,1,0,3:0:0:0:
56,176,74749,1,0,3:0:0:0:
144,188,74910,1,2,3:2:0:0:
104,112,75070,1,2,3:2:0:0:
136,196,75231,1,2,3:2:0:0:
112,104,75391,6,0,P|180:64|256:104,1,152,2|2,3:2|0:0,0:0:0:0:
296,184,75872,1,2,0:0:0:0:
184,148,76033,1,2,0:0:0:0:
360,80,76674,37,2,0:0:0:0:
368,96,76995,1,2,0:0:0:0:
376,112,77316,1,2,0:0:0:0:
355,288,77477,1,0,0:0:0:0:
355,288,77557,1,0,0:0:0:0:
355,288,77637,2,0,L|299:235,1,71.25,0|0,0:2|2:2,0:2:0:0:
272,208,77958,6,0,P|296:168|288:120,1,95,2|0,0:2|0:0,0:0:0:0:
104,76,78279,2,0,L|88:172,1,95
84,300,78600,1,2,0:2:0:0:
160,260,78760,1,0,0:0:0:0:
247,283,78920,1,8,0:0:0:0:
418,234,79081,6,0,P|379:260|333:259,1,95
253,59,79402,1,0,0:0:0:0:
333,259,79563,2,0,L|297:171,1,95
168,168,79883,1,2,0:2:0:0:
220,264,80043,1,0,0:0:0:0:
152,352,80204,2,0,P|96:336|24:344,1,95,10|2,0:2|0:3,0:0:0:0:
64,120,80525,6,0,P|100:152|112:212,1,95,2|0,0:2|0:0,0:0:0:0:
267,340,80846,2,0,P|231:308|222:249,1,95
264,112,81166,1,2,0:3:0:0:
304,264,81327,1,0,0:0:0:0:
272,120,81487,1,10,0:2:0:0:
312,272,81648,2,0,P|352:240|352:188,1,95,0|2,0:0|0:2,0:0:0:0:
136,112,81969,37,0,0:0:0:0:
280,204,82129,2,0,L|192:256,1,95,2|0,0:2|0:0,0:0:0:0:
76,356,82450,1,0,0:0:0:0:
134,306,82610,1,0,0:0:0:0:
246,360,82771,2,0,P|278:316|334:300,1,95,8|2,0:0|0:3,0:0:0:0:
492,212,83092,6,0,P|412:248|356:176,1,190,2|0,0:2|0:0,0:0:0:0:
363,57,83573,1,0,0:0:0:0:
428,176,83733,1,2,0:3:0:0:
275,182,83894,1,0,0:0:0:0:
291,25,84054,2,0,P|287:73|315:121,1,95,8|0,0:0|0:0,0:0:0:0:
349,260,84375,5,2,0:2:0:0:
228,304,84535,1,0,0:0:0:0:
356,180,84696,2,0,P|293:202|267:249,1,95
156,340,85017,1,0,0:0:0:0:
80,296,85177,1,0,0:0:0:0:
228,304,85338,2,0,L|240:200,1,95,8|0,0:0|0:0,0:0:0:0:
268,24,85658,5,2,0:2:0:0:
304,124,85819,1,0,0:0:0:0:
351,216,85979,2,0,L|339:320,1,95,8|0,0:1|0:0,0:0:0:0:
156,296,86300,37,2,0:3:0:0:
256,260,86461,1,0,0:0:0:0:
351,216,86621,1,8,0:0:0:0:
446,175,86781,1,0,0:0:0:0:
385,91,86941,5,0,0:0:0:0:
347,102,87021,1,0,0:0:0:0:
313,120,87101,1,0,0:0:0:0:
282,140,87182,1,0,0:0:0:0:
250,160,87262,5,0,0:0:0:0:
213,167,87342,1,0,0:0:0:0:
176,159,87423,1,8,0:3:0:0:
143,141,87502,1,8,0:3:0:0:
113,117,87584,6,0,P|99:136|92:159,1,47.5,4|0,0:3|0:0,0:0:0:0:
228,336,87744,2,0,P|241:316|249:294,1,47.5,4|0,0:3|0:0,0:0:0:0:
250,76,87904,38,0,P|231:118|250:160,1,95
352,244,88225,1,0,0:0:0:0:
440,184,88386,1,0,0:0:0:0:
312,116,88546,1,8,0:0:0:0:
188,236,88707,1,0,0:0:0:0:
192,244,89027,5,0,0:0:0:0:
320,136,89188,1,8,0:0:0:0:
432,188,89348,1,0,0:0:0:0:
376,340,89509,2,0,P|361:294|361:247,1,95
424,80,89830,5,0,0:0:0:0:
240,84,89990,2,0,P|292:112|356:112,1,95,8|0,0:0|0:0,0:0:0:0:
140,224,90311,1,0,0:0:0:0:
180,232,90391,1,0,0:0:0:0:
208,260,90471,2,0,P|248:228|328:240,1,95,8|0,0:0|0:0,0:0:0:0:
436,272,90792,5,0,0:0:0:0:
276,304,90952,1,0,0:0:0:0:
365,177,91113,1,8,0:0:0:0:
408,360,91273,1,0,0:0:0:0:
416,368,91594,37,0,0:0:0:0:
440,328,91674,1,0,0:0:0:0:
444,280,91754,1,0,0:0:0:0:
355,164,91915,1,0,0:0:0:0:
469,100,92075,5,0,0:0:0:0:
453,132,92155,1,0,0:0:0:0:
425,154,92235,1,0,0:0:0:0:
391,162,92315,1,0,0:0:0:0:
355,164,92396,1,0,0:0:0:0:
320,167,92476,1,0,0:0:0:0:
286,177,92556,1,0,0:0:0:0:
258,199,92636,1,0,0:0:0:0:
239,229,92717,6,0,P|228:276|272:332,1,95,0|2,0:0|0:3,0:0:0:0:
400,240,93038,1,0,0:0:0:0:
222,149,93198,2,0,P|306:182|308:272,1,190,4|0,0:0|0:0,0:0:0:0:
148,300,93680,6,0,P|100:308|60:284,1,95,4|2,0:0|0:3,0:0:0:0:
244,72,94001,2,0,P|284:72|332:132,1,95,8|2,0:0|0:3,0:0:0:0:
264,340,94321,1,0,0:0:0:0:
113,238,94482,2,0,P|180:160|272:140,1,190,4|0,0:0|0:0,0:0:0:0:
424,92,94963,38,0,P|388:132|384:184,1,95,12|0,1:1|0:0,0:0:0:0:
416,324,95284,1,0,0:0:0:0:
464,164,95444,1,0,0:0:0:0:
304,208,95605,1,8,0:0:0:0:
496,328,95765,2,0,P|438:243|352:272,1,190,4|0,0:0|0:0,0:0:0:0:
264,324,96247,5,8,0:2:0:0:
84,284,96407,2,0,P|136:280|184:292,1,95
52,188,96728,2,0,L|152:208,1,95,2|0,0:3|0:0,0:0:0:0:
104,92,97049,2,0,B|140:128|140:128|192:136,1,95,4|0,1:2|0:0,0:0:0:0:
292,184,97370,5,0,0:0:0:0:
175,60,97530,2,0,P|199:62|221:71,1,47.5,8|0,0:0|0:0,0:0:0:0:
348,100,97690,1,0,0:0:0:0:
348,100,97771,1,0,0:0:0:0:
348,100,97851,1,8,0:0:0:0:
303,210,98011,1,0,0:0:0:0:
467,99,98172,1,8,0:0:0:0:
276,32,98332,1,0,0:0:0:0:
178,155,98493,5,4,0:0:0:0:
260,120,98653,1,0,0:0:0:0:
348,100,98813,2,0,B|390:119|390:119|437:108,1,95,4|0,0:2|0:0,0:0:0:0:
439,278,99134,2,0,B|392:268|392:268|348:288,1,95,8|0,0:0|0:0,0:0:0:0:
256,332,99455,1,0,0:0:0:0:
380,192,99616,2,0,B|324:216|324:216|244:192|244:192|188:216,1,190
172,297,100017,1,0,0:0:0:0:
163,327,100097,38,0,P|219:339|267:327,1,95,4|0,0:0|0:0,0:0:0:0:
432,280,100418,1,0,0:0:0:0:
435,252,100498,1,0,0:0:0:0:
439,225,100578,1,0,0:0:0:0:
443,197,100658,1,0,0:0:0:0:
420,176,100739,1,8,0:3:0:0:
416,148,100819,1,8,0:3:0:0:
412,121,100899,1,4,0:3:0:0:
408,93,100979,1,4,0:3:0:0:
432,68,101059,6,0,B|384:80|384:80|328:72,1,95
188,36,101380,1,8,0:0:0:0:
240,120,101541,1,0,0:0:0:0:
256,256,101701,2,0,P|208:244|180:208,1,95
136,108,102022,1,8,0:0:0:0:
240,120,102182,1,0,0:0:0:0:
248,128,102664,5,0,0:0:0:0:
256,136,102985,1,0,0:0:0:0:
360,92,103145,1,0,0:0:0:0:
300,232,103305,1,0,0:0:0:0:
296,48,103466,2,0,P|392:24|436:108,1,190,4|0,0:0|0:0,0:0:0:0:
376,247,103947,6,0,P|371:199|332:163,1,95,8|0,0:0|0:0,0:0:0:0:
160,100,104268,1,0,0:0:0:0:
224,176,104428,1,0,0:0:0:0:
260,313,104589,2,0,P|268:267|300:232,1,95,8|0,0:0|0:0,0:0:0:0:
464,128,104910,37,0,0:0:0:0:
337,167,105070,1,0,0:0:0:0:
340,304,105231,2,0,P|388:320|436:316,1,95,8|0,0:0|0:0,0:0:0:0:
416,192,105551,1,0,0:0:0:0:
296,92,105712,1,0,0:0:0:0:
412,108,105872,1,8,0:0:0:0:
252,184,106033,2,0,P|216:220|271:327,1,190,4|0,0:0|0:0,0:0:0:0:
479,244,106514,6,4,P|435:234|416:193,1,95,12|0,0:0|0:0,0:0:0:0:
405,68,106835,1,0,0:0:0:0:
285,253,106995,1,0,0:0:0:0:
308,94,107156,2,0,P|308:141|328:184,1,95,8|0,0:0|0:0,0:0:0:0:
460,283,107477,5,2,0:2:0:0:
344,268,107637,1,0,0:0:0:0:
456,288,107797,2,0,P|412:249|404:208,1,95,8|0,0:0|0:0,0:0:0:0:
440,40,108118,1,2,0:2:0:0:
484,212,108279,1,0,0:0:0:0:
336,68,108439,1,8,0:0:0:0:
512,132,108600,2,0,P|408:120|332:180,1,190,6|0,0:2|0:0,0:0:0:0:
252,307,109081,6,0,P|279:269|324:255,1,95,8|0,0:0|0:0,0:0:0:0:
485,273,109402,1,0,0:0:0:0:
343,351,109562,1,0,0:0:0:0:
409,206,109723,1,8,0:0:0:0:
444,358,109883,2,0,P|413:273|324:255,1,190
144,200,110364,38,0,P|190:208|238:205,1,95,8|0,0:0|0:0,0:0:0:0:
399,188,110685,1,0,0:0:0:0:
257,110,110845,1,0,0:0:0:0:
323,255,111006,1,8,0:0:0:0:
358,100,111166,2,0,P|327:185|238:205,1,190,4|0,0:0|0:0,0:0:0:0:
108,52,111648,6,0,P|150:71|175:112,1,95,8|0,0:0|0:0,0:0:0:0:
168,259,111969,1,0,0:0:0:0:
88,136,112129,1,0,0:0:0:0:
224,187,112289,1,0,0:0:0:0:
83,226,112450,1,8,0:0:0:0:
175,112,112610,5,0,0:0:0:0:
162,140,112690,1,0,0:0:0:0:
160,172,112770,1,0,0:0:0:0:
170,202,112850,1,0,0:0:0:0:
189,226,112930,1,0,0:0:0:0:
216,242,113011,1,0,0:0:0:0:
247,248,113092,2,0,P|295:240|323:192,1,95,4|0,0:0|0:0,0:0:0:0:
267,40,113412,2,0,P|219:48|191:96,1,95,4|0,0:0|0:0,0:0:0:0:
227,320,113733,6,0,P|335:304|391:212,1,190,4|0,0:0|0:0,0:0:0:0:
340,56,114215,2,0,L|316:152,1,95,8|0,0:0|0:0,0:0:0:0:
88,140,114535,1,0,0:0:0:0:
117,65,114696,1,0,0:0:0:0:
236,136,114856,2,0,P|244:192|284:220,1,95,8|0,0:0|0:0,0:0:0:0:
344,316,115177,37,0,0:0:0:0:
256,336,115338,1,0,0:0:0:0:
304,152,115498,2,0,P|340:196|336:248,1,95,8|0,0:0|0:0,0:0:0:0:
140,288,115819,1,0,0:0:0:0:
271,215,115979,1,0,0:0:0:0:
120,204,116140,1,8,0:0:0:0:
278,286,116300,2,0,P|231:274|240:152,1,190,4|0,0:0|0:0,0:0:0:0:
441,119,116781,6,0,P|429:162|388:188,1,95,8|0,0:0|0:0,0:0:0:0:
271,215,117102,1,0,0:0:0:0:
200,79,117263,1,0,0:0:0:0:
356,115,117423,2,0,L|253:122,1,95,8|0,0:0|0:0,0:0:0:0:
130,111,117744,5,2,0:2:0:0:
145,271,117904,1,0,0:0:0:0:
273,189,118065,2,0,P|227:186|196:152,1,95,8|0,0:0|0:0,0:0:0:0:
250,330,118386,5,2,0:2:0:0:
253,306,118466,1,0,0:0:0:0:
262,284,118546,1,0,0:0:0:0:
279,267,118626,1,0,0:0:0:0:
301,256,118707,2,0,P|323:241|339:216,1,47.5,8|0,0:0|0:0,0:0:0:0:
261,121,118867,2,0,P|246:201|141:199,1,190,6|0,0:2|0:0,0:0:0:0:
34,64,119348,38,0,P|83:54|142:92,1,95,8|0,0:0|0:0,0:0:0:0:
195,151,119669,1,0,0:0:0:0:
75,130,119830,1,0,0:0:0:0:
207,60,119990,1,8,0:0:0:0:
132,199,120150,2,0,P|218:225|271:154,1,190
207,60,120632,6,0,P|190:104|195:151,1,95,8|0,0:0|0:0,0:0:0:0:
281,293,120952,1,0,0:0:0:0:
271,154,121113,1,0,0:0:0:0:
125,281,121273,1,8,0:0:0:0:
312,221,121434,2,0,P|346:153|261:74,1,190
113,122,121915,5,8,0:0:0:0:
271,154,122075,1,0,0:0:0:0:
78,228,122236,5,8,0:0:0:0:
239,232,122396,1,0,0:0:0:0:
109,345,122557,37,8,0:0:0:0:
268,312,122717,1,0,0:0:0:0:
276,304,122797,1,0,0:0:0:0:
284,296,122878,5,8,0:0:0:0:
415,170,123038,1,0,0:0:0:0:
192,284,123198,5,8,0:0:0:0:
264,117,123358,1,0,0:0:0:0:
102,308,123520,5,8,0:0:0:0:
103,127,123680,1,0,0:0:0:0:
116,320,123840,1,0,0:0:0:0:
96,108,124001,2,0,B|143:141|232:74|279:108,1,190
436,176,124482,38,0,P|384:180|340:152,1,95,8|0,0:0|0:0,0:0:0:0:
296,32,124803,1,2,0:2:0:0:
404,100,124963,1,0,0:0:0:0:
234,174,125124,1,8,0:0:0:0:
236,312,125284,2,0,P|208:268|312:232,1,190
412,328,125765,6,0,L|376:236,1,95,8|0,0:0|0:0,0:0:0:0:
332,64,126086,1,2,0:2:0:0:
416,132,126247,1,0,0:0:0:0:
272,140,126407,1,8,0:0:0:0:
448,60,126567,2,0,P|496:148|424:208,1,190,6|0,0:2|0:0,0:0:0:0:
235,298,127049,6,0,P|219:254|228:208,1,95,8|0,0:0|0:0,0:0:0:0:
332,64,127370,1,0,0:0:0:0:
416,132,127530,1,0,0:0:0:0:
272,140,127690,6,0,P|227:124|180:144,1,95,8|0,0:0|0:0,0:0:0:0:
360,180,128011,2,0,L|292:248,1,95
449,146,128332,2,0,P|481:182|481:234,1,95,8|0,0:0|0:0,0:0:0:0:
236,80,128653,1,0,0:0:0:0:
360,180,128813,1,0,0:0:0:0:
468,40,128974,1,8,0:0:0:0:
484,228,129134,2,0,P|444:260|316:240,1,190
236,80,129616,37,8,0:0:0:0:
204,252,129776,1,0,0:0:0:0:
88,24,129936,5,8,0:0:0:0:
120,196,130096,1,0,0:0:0:0:
112,212,130177,1,0,0:0:0:0:
104,228,130257,5,8,0:0:0:0:
328,252,130418,1,0,0:0:0:0:
256,124,130578,5,8,0:0:0:0:
262,146,130658,1,0,0:0:0:0:
262,170,130738,1,8,0:3:0:0:
258,193,130818,1,8,0:3:0:0:
248,215,130898,1,0,0:0:0:0:
233,233,130979,1,0,0:0:0:0:
215,248,131059,1,4,0:3:0:0:
193,258,131139,1,4,0:3:0:0:
172,264,131220,2,0,P|255:303|340:268,1,190
416,192,131862,37,0,0:0:0:0:
420,196,132022,1,0,0:0:0:0:
352,160,132182,1,0,0:0:0:0:
384,96,132343,1,0,0:0:0:0:
324,60,132503,5,0,0:0:0:0:
320,64,132664,1,0,0:0:0:0:
256,96,132824,1,0,0:0:0:0:
194,64,132985,1,0,0:0:0:0:
128,96,133145,5,0,0:0:0:0:
124,92,133305,1,0,0:0:0:0:
160,160,133466,1,0,0:0:0:0:
96,192,133626,1,0,0:0:0:0:
124,260,133787,5,0,0:0:0:0:
128,256,133947,1,0,0:0:0:0:
192,288,134108,1,0,0:0:0:0:
256,256,134268,1,0,0:0:0:0:
288,192,134428,38,0,P|272:152|288:96,1,95
434,216,134749,1,8,0:0:0:0:
456,120,134910,1,0,0:0:0:0:
412,288,135070,2,0,P|372:264|360:216,1,95
456,120,135391,1,8,0:0:0:0:
352,144,135551,1,0,0:0:0:0:
356,52,135712,5,0,0:0:0:0:
332,36,135792,1,0,0:0:0:0:
304,32,135872,2,0,P|300:64|288:84,1,47.5,4|0,0:3|0:0,0:0:0:0:
164,88,136033,1,8,0:3:0:0:
162,116,136113,1,8,0:3:0:0:
172,143,136193,2,0,P|201:130|225:130,1,47.5,4|0,0:3|0:0,0:0:0:0:
360,184,136354,5,0,0:0:0:0:
364,188,136674,1,0,0:0:0:0:
368,192,136995,2,0,P|296:176|256:236,1,152
68,144,137637,5,0,0:0:0:0:
144,104,137797,1,0,0:0:0:0:
212,148,137958,1,8,0:0:0:0:
236,224,138118,2,0,P|172:248|140:176,1,152
240,64,138600,2,0,L|312:92,1,76,8|0,0:0|0:0,0:0:0:0:
360,160,138920,1,0,0:0:0:0:
416,96,139081,1,0,0:0:0:0:
472,200,139241,2,0,L|400:228,1,76,8|0,0:0|0:0,0:0:0:0:
216,264,139562,38,0,P|244:216|304:204,1,114,0|0,0:0|2:0,0:0:0:0:
288,276,139883,2,0,L|269:349,1,76,8|0,0:0|0:0,0:0:0:0:
128,356,140204,1,0,0:0:0:0:
76,216,140364,1,0,0:0:0:0:
40,352,140525,1,8,0:0:0:0:
136,172,140685,2,0,P|152:220|80:292,1,152
42,148,141166,6,0,L|76:216,1,76,8|0,0:0|0:0,0:0:0:0:
96,76,141487,1,0,0:0:0:0:
180,100,141648,1,0,0:0:0:0:
316,52,141808,2,0,P|284:72|268:112,1,76,8|0,0:0|0:0,0:0:0:0:
310,247,142129,6,0,P|359:193|342:122,1,152,0|8,0:0|0:0,0:0:0:0:
216,160,142610,2,0,P|249:177|291:171,1,76
392,64,142931,1,0,0:0:0:0:
316,52,143092,1,8,0:0:0:0:
444,128,143252,2,0,L|455:279,1,152
372,336,143733,6,0,L|365:258,1,76,8|0,0:0|0:0,0:0:0:0:
342,122,144054,1,0,0:0:0:0:
280,198,144215,1,0,0:0:0:0:
449,203,144375,2,0,L|440:77,1,114,8|0,0:0|2:0,0:0:0:0:
460,56,144696,38,0,P|400:28|312:56,1,152,0|8,0:0|0:0,0:0:0:0:
160,84,145177,2,0,P|120:92|80:84,2,76
252,28,145658,1,8,0:0:0:0:
216,160,145819,2,0,P|284:192|352:136,1,152
464,100,146300,5,8,0:0:0:0:
280,120,146461,2,0,L|264:208,1,76
309,377,146781,1,0,0:0:0:0:
289,356,146862,1,0,0:0:0:0:
288,328,146942,2,0,P|320:292|308:252,1,76,8|0,0:0|0:0,0:0:0:0:
218,126,147263,5,0,0:0:0:0:
200,141,147343,1,0,0:0:0:0:
187,161,147423,1,0,0:0:0:0:
181,184,147503,1,0,0:0:0:0:
184,208,147584,2,0,P|205:250|247:270,1,95
380,344,147904,1,0,0:0:0:0:
342,172,148065,2,0,P|296:168|256:192,1,95
405,132,148386,2,0,P|398:220|311:239,1,190
113,195,148867,6,0,P|149:164|196:156,1,95,8|0,0:0|0:0,0:0:0:0:
32,200,149188,1,0,0:0:0:0:
34,224,149268,1,0,0:0:0:0:
43,246,149348,1,0,0:0:0:0:
58,265,149428,1,0,0:0:0:0:
79,276,149509,2,0,P|125:283|166:261,1,95
66,119,149830,37,0,0:0:0:0:
86,131,149910,1,0,0:0:0:0:
102,148,149990,1,0,0:0:0:0:
113,170,150070,1,0,0:0:0:0:
113,195,150150,2,0,P|92:304|192:340,1,190
222,184,150632,2,8,L|165:261,1,95,8|0,0:0|0:0,0:0:0:0:
268,98,150952,2,0,L|280:288,1,190
128,152,151434,5,8,0:0:0:0:
320,40,151594,2,0,P|344:88|340:132,1,95
86,90,151915,1,0,0:0:0:0:
68,104,151995,1,0,0:0:0:0:
56,124,152075,2,0,P|52:176|80:212,1,95
176,320,152396,6,0,L|220:284,1,47.5
304,228,152557,2,0,L|364:248,1,47.5
448,292,152717,2,0,P|474:228|452:176,1,95,8|0,0:0|0:0,0:0:0:0:
124,56,153198,1,0,0:0:0:0:
164,192,153359,1,0,0:0:0:0:
136,64,153519,2,0,P|128:116|268:152,1,190
392,116,154001,5,8,0:0:0:0:
305,76,154161,2,0,L|212:96,1,95
28,176,154482,1,0,0:0:0:0:
28,204,154562,1,0,0:0:0:0:
48,224,154642,2,0,P|100:216|144:228,1,95
288,264,154963,37,8,0:0:0:0:
124,304,155124,1,0,0:0:0:0:
360,336,155284,5,8,0:0:0:0:
166,322,155445,1,0,0:0:0:0:
260,196,155605,5,8,0:0:0:0:
84,280,155766,1,0,0:0:0:0:
259,87,155926,6,0,L|306:83,1,47.5
289,263,156086,2,0,P|209:247|205:151,1,190,8|0,0:0|0:0,0:0:0:0:
306,82,156487,1,0,0:0:0:0:
328,129,156567,2,0,L|260:196,1,95,8|0,0:0|0:0,0:0:0:0:
152,312,156888,37,0,0:0:0:0:
180,325,156968,1,0,0:0:0:0:
211,326,157048,1,0,0:0:0:0:
240,314,157128,1,0,0:0:0:0:
276,320,157209,1,0,0:0:0:0:
304,306,157289,1,0,0:0:0:0:
335,305,157369,1,0,0:0:0:0:
364,317,157449,1,0,0:0:0:0:
388,296,157530,6,0,P|364:240|372:208,1,95,2|0,0:2|0:0,0:0:0:0:
464,72,157851,5,8,0:0:0:0:
440,240,158011,1,0,0:0:0:0:
340,16,158172,5,8,0:0:0:0:
364,184,158332,1,0,0:0:0:0:
368,196,158412,1,0,0:0:0:0:
371,208,158493,37,8,0:0:0:0:
260,48,158653,1,0,0:0:0:0:
308,256,158813,5,10,0:2:0:0:
290,230,158893,1,0,0:0:0:0:
264,211,158973,1,0,0:0:0:0:
235,201,159053,1,0,0:0:0:0:
204,208,159134,1,0,0:0:0:0:
174,197,159214,1,0,0:0:0:0:
148,178,159294,1,0,0:0:0:0:
131,152,159374,1,0,0:0:0:0:
104,144,159455,6,0,L|84:195,1,47.5,2|0,0:2|0:0,0:0:0:0:
98,318,159616,2,0,L|142:300,1,47.5,0|0,0:2|0:0,0:0:0:0:
348,200,159776,1,0,0:0:0:0:
203,207,159936,6,0,P|168:284|272:328,1,190,4|0,0:0|0:0,0:0:0:0:
426,207,160418,38,0,P|420:161|388:128,1,95,8|0,0:0|0:0,0:0:0:0:
236,268,160739,1,0,0:0:0:0:
348,200,160899,1,0,0:0:0:0:
232,112,161059,1,8,0:0:0:0:
292,340,161220,2,0,P|336:352|384:340,1,95
456,228,161541,5,0,0:0:0:0:
320,140,161701,2,0,P|372:92|468:144,1,190,8|0,0:0|0:0,0:0:0:0:
468,340,162182,1,0,0:0:0:0:
392,172,162343,1,8,0:0:0:0:
200,180,162503,2,0,L|376:252,1,190
204,360,162985,6,0,L|148:260,1,95,8|0,0:0|0:0,0:0:0:0:
62,132,163305,1,0,0:0:0:0:
208,113,163466,1,0,0:0:0:0:
101,214,163626,1,8,0:0:0:0:
129,70,163787,1,0,0:0:0:0:
192,204,163947,6,0,P|236:220|300:236,1,95,2|0,0:2|0:0,0:0:0:0:
320,124,164268,2,0,P|368:116|416:152,1,95,8|0,0:0|0:0,0:0:0:0:
456,312,164589,37,2,0:2:0:0:
352,192,164749,1,0,0:0:0:0:
288,324,164910,1,8,0:0:0:0:
504,248,165070,2,0,P|424:240|384:336,1,190,6|0,0:2|0:0,0:0:0:0:
311,132,165551,6,0,L|232:223,1,95,8|0,0:0|0:0,0:0:0:0:
56,264,165872,1,0,0:0:0:0:
232,320,166033,1,0,0:0:0:0:
104,164,166193,1,8,0:0:0:0:
124,324,166354,2,0,P|164:240|264:204,1,190
440,216,166835,6,0,P|396:232|348:224,1,95,8|0,0:0|0:0,0:0:0:0:
228,108,167156,1,0,0:0:0:0:
388,152,167316,1,0,0:0:0:0:
248,272,167477,1,8,0:0:0:0:
328,100,167637,2,0,P|451:100|464:158,1,190
356,328,168118,6,0,P|320:292|320:244,1,95,8|0,0:0|0:0,0:0:0:0:
388,152,168439,1,0,0:0:0:0:
426,341,168600,2,0,P|422:295|388:264,1,95,0|8,0:0|0:0,0:0:0:0:
248,204,168920,1,0,0:0:0:0:
168,328,169081,37,0,0:0:0:0:
162,304,169161,1,0,0:0:0:0:
172,280,169241,1,0,0:0:0:0:
177,256,169321,1,0,0:0:0:0:
164,240,169402,1,0,0:0:0:0:
159,216,169482,1,0,0:0:0:0:
184,200,169562,2,0,P|232:188|280:204,1,95,4|0,0:0|0:0,0:0:0:0:
416,352,169883,2,0,P|368:364|320:348,1,95,4|0,0:0|0:0,0:0:0:0:
132,144,170204,6,0,P|224:112|328:148,1,190,4|0,0:0|0:0,0:0:0:0:
468,292,170685,2,0,L|448:196,1,95,8|0,0:0|0:0,0:0:0:0:
416,36,171006,1,0,0:0:0:0:
368,196,171166,1,0,0:0:0:0:
500,88,171327,1,8,0:0:0:0:
312,137,171487,2,0,P|260:173|264:297,1,190
118,334,171969,6,0,P|133:283|114:238,1,95,8|0,0:0|0:0,0:0:0:0:
44,128,172289,1,0,0:0:0:0:
52,288,172450,1,0,0:0:0:0:
200,184,172610,1,8,0:0:0:0:
40,56,172771,2,0,P|92:128|176:88,1,190,4|0,0:0|0:0,0:0:0:0:
348,84,173252,6,0,P|304:48|264:52,1,95,8|0,0:0|0:0,0:0:0:0:
112,56,173573,1,0,0:0:0:0:
232,136,173733,1,0,0:0:0:0:
100,264,173894,2,0,P|116:212|160:192,1,95,8|0,0:0|0:0,0:0:0:0:
320,244,174215,37,2,0:2:0:0:
238,329,174375,1,0,0:0:0:0:
323,228,174535,2,0,L|219:252,1,95,8|0,0:0|0:0,0:0:0:0:
72,308,174856,1,2,0:2:0:0:
55,276,174936,1,0,0:0:0:0:
52,241,175016,1,0,0:0:0:0:
63,208,175096,1,0,0:0:0:0:
87,181,175176,1,8,0:0:0:0:
268,168,175338,2,0,P|222:247|131:251,1,190,6|0,0:2|0:0,0:0:0:0:
165,69,175819,6,0,L|172:164,1,95,8|0,0:0|0:0,0:0:0:0:
204,344,176140,1,0,0:0:0:0:
288,280,176300,1,0,0:0:0:0:
131,251,176461,1,8,0:0:0:0:
288,360,176621,2,0,P|352:332|340:220,1,190
240,68,177102,6,0,L|252:168,1,95,8|0,0:0|0:0,0:0:0:0:
288,280,177423,1,0,0:0:0:0:
412,180,177584,2,0,P|380:132|388:96,1,95,0|8,0:0|0:0,0:0:0:0:
448,28,177904,1,4,0:0:0:0:
413,255,178065,2,0,P|485:203|456:120,1,190,0|8,0:0|0:0,0:0:0:0:
280,76,178546,1,0,0:0:0:0:
412,180,178707,5,8,0:0:0:0:
220,128,178867,1,0,0:0:0:0:
348,220,179027,37,8,0:0:0:0:
149,219,179187,1,0,0:0:0:0:
136,204,179268,1,0,0:0:0:0:
124,188,179348,5,8,0:0:0:0:
140,348,179509,1,0,0:0:0:0:
220,128,179669,5,8,0:0:0:0:
218,308,179830,1,0,0:0:0:0:
340,172,179990,5,8,0:0:0:0:
220,128,180150,1,0,0:0:0:0:
325,46,180311,1,8,0:0:0:0:
404,216,180471,2,0,P|323:253|263:187,1,190,4|0,0:0|0:0,0:0:0:0:
124,352,180952,38,0,L|144:164,1,190,8|2,0:0|0:2,0:0:0:0:
178,32,181434,1,0,0:0:0:0:
256,152,181594,1,8,0:0:0:0:
52,184,181755,2,0,P|124:256|216:224,1,190
232,84,182236,6,0,L|240:184,1,95,8|0,0:0|0:0,0:0:0:0:
250,331,182557,1,2,0:2:0:0:
328,224,182717,1,0,0:0:0:0:
340,364,182878,1,8,0:0:0:0:
236,248,183038,2,0,P|256:156|376:144,1,190,2|0,0:2|0:0,0:0:0:0:
492,96,183519,6,0,P|460:164|416:176,1,95,8|0,0:0|0:0,0:0:0:0:
328,224,183840,1,0,0:0:0:0:
416,100,184001,1,0,0:0:0:0:
324,24,184161,2,0,P|272:32|228:60,1,95,10|0,0:2|0:0,0:0:0:0:
76,176,184482,5,2,0:2:0:0:
176,144,184642,1,0,0:0:0:0:
180,288,184803,2,0,P|228:244|220:180,1,95,10|0,0:2|0:0,0:0:0:0:
165,72,185124,2,0,P|104:137|152:212,1,190,2|8,0:2|0:0,0:0:0:0:
346,311,185605,2,0,P|407:246|360:172,1,190,2|0,0:2|0:0,0:0:0:0:
176,144,186086,37,8,0:0:0:0:
336,240,186247,1,0,0:0:0:0:
218,25,186407,5,10,0:2:0:0:
359,171,186568,1,0,0:0:0:0:
375,178,186648,1,0,0:0:0:0:
392,184,186728,5,8,0:0:0:0:
356,352,186888,1,0,0:0:0:0:
320,192,187049,1,10,0:2:0:0:
304,204,187130,1,0,0:0:0:0:
288,216,187210,2,0,L|272:276,1,47.5
228,156,187370,1,0,0:0:0:0:
212,144,187451,1,0,0:0:0:0:
196,132,187531,2,0,L|180:72,1,47.5
84,20,187690,6,0,P|60:44|44:76,2,63.3333333333333,2|0|0,0:2|0:0|0:0,0:0:0:0:
68,168,188011,2,0,P|92:144|108:112,2,63.3333333333333
40,264,188332,38,0,B|74:294|128:306|194:306|148:221|214:221|264:233|295:264,1,285,2|0,0:2|0:0,0:0:0:0:
372,324,188974,2,0,P|392:260|376:216,1,95
304,92,189295,1,0,0:0:0:0:
400,124,189455,2,0,L|320:176,1,95
96,184,189776,5,8,0:0:0:0:
96,184,189856,1,0,0:0:0:0:
96,184,189936,2,0,P|148:168|200:188,1,95
293,302,190257,2,0,P|203:316|144:248,1,190,8|0,0:0|0:0,0:0:0:0:
184,144,190739,1,0,0:0:0:0:
236,224,190899,6,0,P|280:164|228:60,1,190
76,72,191380,1,0,0:0:0:0:
184,144,191541,2,0,P|132:166|112:208,1,95,8|0,0:0|0:0,0:0:0:0:
116,328,191862,1,0,0:0:0:0:
192,224,192022,5,8,0:0:0:0:
192,224,192102,1,0,0:0:0:0:
192,224,192182,2,0,P|232:248|276:232,1,95
340,176,192503,1,0,0:0:0:0:
488,224,192664,1,0,0:0:0:0:
488,224,192744,1,0,0:0:0:0:
488,224,192824,2,0,P|448:248|404:232,1,95,8|0,0:0|0:0,0:0:0:0:
256,96,193145,1,0,0:0:0:0:
440,160,193305,1,0,0:0:0:0:
396,320,193466,38,0,P|324:265|340:176,1,190
440,72,193947,1,0,0:0:0:0:
405,233,194108,2,0,L|197:201,1,190,8|0,0:0|0:0,0:0:0:0:
232,292,194589,2,0,P|288:256|280:144,1,190,0|8,0:0|0:0,0:0:0:0:
128,80,195070,5,0,0:0:0:0:
217,204,195231,1,0,0:0:0:0:
184,32,195391,2,0,P|200:104|88:144,1,190,8|0,0:0|0:0,0:0:0:0:
32,120,195872,1,0,0:0:0:0:
36,216,196033,6,0,L|28:280,2,63.3333333333333
108,264,196354,2,0,L|116:328,2,63.3333333333333
184,270,196674,2,0,L|192:208,2,63.3333333333333,8|0|0,0:0|0:0|0:0,0:0:0:0:
279,334,196995,2,0,L|272:272,2,63.3333333333333
364,256,197316,2,0,L|360:192,2,63.3333333333333,8|0|0,0:0|0:0|0:0,0:0:0:0:
464,236,197637,2,0,L|471:298,2,63.3333333333333,8|0|0,0:0|0:0|0:0,0:0:0:0:
444,136,197958,6,0,P|340:92|248:212,1,266,0|0,0:0|2:0,0:0:0:0:
240,268,198600,37,0,0:0:0:0:
400,253,198760,2,0,P|349:246|311:278,1,95,8|0,0:0|0:0,0:0:0:0:
237,138,199081,5,0,0:0:0:0:
117,244,199241,2,0,P|161:219|173:171,1,95,8|0,0:0|0:0,0:0:0:0:
315,242,199562,5,0,0:0:0:0:
350,85,199722,2,0,P|328:130|346:177,1,95,8|0,0:0|0:0,0:0:0:0:
191,204,200043,5,0,0:0:0:0:
255,351,200203,2,0,P|245:301|203:274,1,95,8|0,0:0|0:0,0:0:0:0:
314,162,200525,37,0,0:0:0:0:
176,80,200685,2,0,P|212:114|262:111,1,95,8|0,0:0|0:0,0:0:0:0:
283,101,200926,1,0,0:0:0:0:
302,85,201006,1,0,0:0:0:0:
96,4,201166,5,0,0:0:0:0:
81,102,201327,2,0,P|60:146|28:180,1,95,8|0,0:0|0:0,0:0:0:0:
176,80,201648,5,0,0:0:0:0:
186,178,201809,2,0,P|177:225|154:267,1,95,8|0,0:0|0:0,0:0:0:0:
272,132,202128,5,0,0:0:0:0:
307,224,202289,2,0,P|310:272|300:318,1,95,8|0,0:0|0:0,0:0:0:0:
378,157,202610,37,0,0:0:0:0:
435,237,202771,2,0,P|451:282|452:329,1,95,8|0,0:0|0:0,0:0:0:0:
312,363,203092,5,0,0:0:0:0:
335,321,203172,1,0,0:0:0:0:
345,275,203252,1,0,0:0:0:0:
341,228,203332,1,0,0:0:0:0:
324,184,203412,2,0,P|304:136|316:80,1,95,8|0,0:0|0:0,0:0:0:0:
360,20,203733,5,8,0:0:0:0:
501,123,203894,1,0,0:0:0:0:
505,127,204054,1,0,0:0:0:0:
280,24,204215,5,8,0:0:0:0:
461,135,204375,1,0,0:0:0:0:
465,139,204535,1,0,0:0:0:0:
227,77,204696,37,8,0:0:0:0:
433,155,204856,1,0,0:0:0:0:
192,147,205017,5,0,0:0:0:0:
158,162,205097,1,0,0:0:0:0:
132,189,205177,1,0,0:0:0:0:
119,220,205257,1,0,0:0:0:0:
116,256,205337,1,0,0:0:0:0:
125,290,205418,1,0,0:0:0:0:
144,320,205498,1,0,0:0:0:0:
171,341,205578,1,0,0:0:0:0:
199,359,205658,6,0,B|226:330|272:340|272:340|288:323|288:323|313:338|313:338|367:322,1,190
427,364,206300,6,0,P|397:255|336:387,1,332.499989852906,2|0,0:0|0:0,0:0:0:0:
484,197,207263,2,0,P|444:165|404:153,1,66.4999979705811,0|2,0:0|0:0,0:0:0:0:
220,120,207584,2,0,P|288:144|368:112,1,132.999995941162,2|0,0:0|0:0,0:0:0:0:
130,212,208065,2,0,L|116:80,1,132.999995941162,2|2,0:0|0:0,0:0:0:0:
144,340,208707,37,2,0:0:0:0:
144,340,208787,1,0,0:0:0:0:
144,340,208867,2,0,P|216:324|292:328,1,132.999995941162,2|0,0:0|0:0,0:0:0:0:
408,328,209348,2,0,L|348:192,1,132.999995941162,2|0,0:0|0:0,0:0:0:0:
304,68,209830,1,2,0:0:0:0:
256,152,209990,1,2,0:0:0:0:
384,120,210150,5,2,0:0:0:0:
188,80,210471,1,2,0:0:0:0:
124,256,210792,1,2,0:0:0:0:
64,92,211113,1,2,0:0:0:0:
136,144,211273,1,0,0:0:0:0:
224,150,211434,6,0,P|256:110|352:102,1,132.999995941162,2|0,0:0|0:0,0:0:0:0:
464,120,212075,1,0,0:0:0:0:
220,200,212396,1,2,0:0:0:0:
264,288,212557,1,2,0:0:0:0:
167,284,212717,6,0,P|103:266|60:217,1,132.999995941162
139,63,213359,1,2,0:0:0:0:
248,202,213680,1,2,0:0:0:0:
348,156,213840,37,2,0:0:0:0:
348,156,213920,1,0,0:0:0:0:
348,156,214001,2,0,P|304:104|312:40,1,132.999995941162,2|0,0:0|0:0,0:0:0:0:
209,36,214482,1,0,0:0:0:0:
144,120,214642,2,0,P|188:172|180:236,1,132.999995941162,2|2,0:0|0:0,0:0:0:0:
96,308,215124,1,0,0:0:0:0:
80,160,215284,6,0,P|72:104|136:48,1,132.999995941162,2|0,0:0|0:0,0:0:0:0:
320,56,215765,1,0,1:0:0:0:
320,56,215846,1,0,1:0:0:0:
320,56,215926,1,10,1:2:0:0:
304,224,216086,1,2,1:2:0:0:
232,80,216247,1,8,1:3:0:0:
376,208,216407,1,4,1:3:0:0:
192,184,216567,5,2,1:2:0:0:
236,272,216728,1,2,0:2:0:0:
376,208,216888,2,0,P|312:152|256:168,1,132.999995941162,2|0,0:0|0:0,0:0:0:0:
48,260,217530,1,2,0:0:0:0:
52,272,217851,6,0,P|124:248|176:272,1,132.999995941162,2|0,0:0|0:0,0:0:0:0:
372,340,218332,2,0,P|305:338|244:313,1,132.999995941162,0|2,0:0|0:0,0:0:0:0:
104,168,218813,1,0,1:0:0:0:
212,196,218974,1,2,0:0:0:0:
312,144,219134,38,0,P|272:96|192:96,1,132.999995941162,0|0,1:0|2:0,2:0:0:0:
128,248,219616,2,0,L|252:152,1,132.999995941162,2|0,0:0|0:0,0:0:0:0:
328,112,220097,1,2,0:0:0:0:
312,212,220257,1,0,0:0:0:0:
256,48,220418,1,2,0:0:0:0:
264,56,221060,5,2,0:0:0:0:
336,120,221220,1,2,0:0:0:0:
317,215,221380,1,0,1:0:0:0:
229,255,221541,1,2,0:0:0:0:
183,339,221701,2,0,P|239:311|315:331,1,132.999995941162,2|0,0:0|0:0,0:0:0:0:
445,249,222343,2,0,L|297:209,1,132.999995941162,2|0,0:0|0:0,0:0:0:0:
146,250,222824,1,0,0:0:0:0:
204,192,222985,6,0,P|228:240|192:320,1,132.999995941162,2|0,0:0|0:0,0:0:0:0:
204,192,223466,1,0,0:0:0:0:
149,131,223626,2,0,P|123:190|147:251,1,132.999995941162,2|0,0:0|0:0,0:0:0:0:
280,196,224108,1,0,0:0:0:0:
204,192,224268,6,0,P|220:148|300:124,1,132.999995941162,2|0,0:0|0:0,0:0:0:0:
452,272,224910,1,2,0:0:0:0:
204,192,225231,1,2,0:0:0:0:
112,176,225391,1,0,0:0:0:0:
176,296,225551,1,2,0:0:0:0:
256,192,225632,12,0,226514,0:0:0:0:
64,256,226835,38,0,B|144:224|208:288|288:256,1,228,4|0,0:0|0:0,0:0:0:0:
428,80,227477,1,8,0:3:0:0:
324,184,227637,2,0,P|287:177|251:186,1,76,8|0,0:3|2:0,0:0:0:0:
116,360,227958,6,0,L|292:336,1,152,4|0,0:0|0:0,0:0:0:0:
436,200,228439,1,8,0:0:0:0:
364,324,228600,1,8,0:0:0:0:
364,324,228680,1,0,0:0:0:0:
364,324,228760,2,0,P|356:280|368:244,1,76,0|8,0:0|0:3,0:0:0:0:
412,116,229081,1,4,0:3:0:0:
428,288,229241,1,8,0:3:0:0:
316,124,229402,6,0,P|300:200|220:216,1,152,4|0,0:0|0:0,0:0:0:0:
194,94,229883,2,0,L|248:148,1,76
272,284,230204,1,0,0:0:0:0:
80,184,230364,1,0,0:0:0:0:
244,40,230525,2,0,P|144:40|120:112,1,152,4|0,0:0|0:0,0:0:0:0:
120,92,230926,1,0,0:0:0:0:
124,108,231006,5,8,0:0:0:0:
176,244,231166,1,0,0:0:0:0:
80,184,231327,1,8,0:0:0:0:
240,168,231487,1,0,0:0:0:0:
80,276,231648,1,8,0:0:0:0:
224,84,231808,1,0,0:0:0:0:
255,297,231969,38,0,P|280:228|240:168,1,152,4|0,0:0|0:0,0:0:0:0:
104,124,232450,1,0,0:0:0:0:
126,257,232610,2,0,L|200:238,1,76
384,180,232931,1,8,0:0:0:0:
320,276,233092,1,0,0:0:0:0:
304,88,233252,6,0,L|396:112,1,76
456,240,233573,1,0,0:0:0:0:
306,196,233733,1,0,0:0:0:0:
232,52,233894,2,0,P|260:20|316:8,1,76
378,232,234215,2,0,P|350:264|294:276,1,76,8|0,0:0|0:0,0:0:0:0:
116,336,234535,5,8,0:0:0:0:
302,192,234696,1,0,0:0:0:0:
306,196,234856,1,0,0:0:0:0:
44,216,235017,5,8,0:0:0:0:
259,124,235178,1,0,0:0:0:0:
263,129,235338,1,0,0:0:0:0:
4,80,235498,37,8,0:0:0:0:
234,49,235659,1,0,0:0:0:0:
172,244,235819,5,0,0:0:0:0:
164,260,235899,1,0,0:0:0:0:
156,280,235979,2,0,P|134:283|112:296,1,38
96,200,236140,1,0,0:0:0:0:
104,184,236220,1,0,0:0:0:0:
112,164,236300,2,0,P|137:161|156:148,1,38
159,32,236461,2,0,P|129:54|115:89,1,76
240,320,236781,1,0,0:0:0:0:
353,113,236942,6,0,P|264:157|185:98,1,209.000006378174,4|0,0:0|0:0,0:0:0:0:
36,244,237423,2,0,P|88:232|156:240,1,104.500003189087,8|0,0:0|0:0,0:0:0:0:
288,272,237744,1,0,0:0:0:0:
172,324,237904,1,0,0:0:0:0:
284,168,238065,2,0,L|276:60,1,104.500003189087,8|0,0:0|0:0,0:0:0:0:
408,12,238386,5,0,0:0:0:0:
452,128,238546,1,0,0:0:0:0:
336,328,238707,2,0,P|360:272|348:228,1,104.500003189087,8|0,0:0|0:0,0:0:0:0:
256,116,239027,1,0,0:0:0:0:
284,272,239188,1,0,0:0:0:0:
360,72,239348,1,8,0:0:0:0:
188,256,239509,2,0,P|218:345|348:342,1,209.000006378174,4|0,0:0|0:0,0:0:0:0:
496,112,239990,38,0,L|476:232,1,104.500003189087,8|0,0:0|0:0,0:0:0:0:
464,336,240311,1,0,0:0:0:0:
364,172,240471,1,0,0:0:0:0:
284,272,240632,2,0,P|320:288|408:252,1,104.500003189087,8|0,0:0|0:0,0:0:0:0:
480,96,240952,1,2,1:2:0:0:
312,112,241113,1,0,0:0:0:0:
424,24,241273,2,0,L|388:140,1,104.500003189087,8|0,0:0|0:0,0:0:0:0:
272,344,241594,5,2,1:2:0:0:
261,199,241755,1,0,0:0:0:0:
384,300,241915,1,8,0:0:0:0:
165,207,242075,2,0,P|212:118|312:112,1,209.000006378174,6|0,0:2|0:0,0:0:0:0:
460,296,242557,6,0,P|436:356|380:376,1,104.500003189087,8|0,0:0|0:0,0:0:0:0:
256,268,242878,1,0,0:0:0:0:
384,300,243038,1,0,0:0:0:0:
227,351,243198,1,8,0:0:0:0:
408,224,243359,2,0,P|364:188|356:128,1,104.500003189087
432,40,243680,5,0,0:0:0:0:
436,144,243840,2,0,P|368:208|228:192,1,209.000006378174,8|0,0:0|0:0,0:0:0:0:
100,148,244321,1,0,0:0:0:0:
216,280,244482,1,8,0:0:0:0:
8,124,244642,2,0,P|52:232|152:232,1,209.000006378174,4|0,0:0|0:0,0:0:0:0:
320,72,245124,38,0,P|260:80|220:136,1,104.500003189087,8|0,0:0|0:0,0:0:0:0:
216,280,245444,1,0,0:0:0:0:
332,196,245605,1,0,0:0:0:0:
100,148,245765,2,0,P|148:148|200:208,1,104.500003189087,8|0,0:0|0:0,0:0:0:0:
383,355,246086,5,0,0:0:0:0:
403,326,246166,1,0,0:0:0:0:
412,293,246246,1,0,0:0:0:0:
407,259,246326,1,0,0:0:0:0:
391,228,246406,1,0,0:0:0:0:
364,206,246487,1,0,0:0:0:0:
331,195,246567,6,0,P|300:148|316:104,1,104.500003189087,4|0,0:0|0:0,0:0:0:0:
56,64,246888,2,0,P|87:111|71:155,1,104.500003189087,4|0,0:0|0:0,0:0:0:0:
292,256,247209,2,0,P|240:208|256:64,1,209.000006378174,4|0,0:0|0:0,0:0:0:0:
447,186,247690,6,0,L|352:144,1,104.500003189087,8|0,0:0|0:0,0:0:0:0:
160,208,248011,1,0,0:0:0:0:
244,78,248172,1,0,0:0:0:0:
291,255,248332,2,0,P|269:302|278:353,1,104.500003189087,8|0,0:0|0:0,0:0:0:0:
460,240,248653,37,0,0:0:0:0:
244,188,248813,1,0,0:0:0:0:
344,316,248974,2,0,P|376:252|344:196,1,104.500003189087,8|0,0:0|0:0,0:0:0:0:
244,78,249295,1,0,0:0:0:0:
291,255,249455,1,0,0:0:0:0:
332,36,249616,1,8,0:0:0:0:
212,236,249776,2,0,P|192:296|64:284,1,209.000006378174
32,104,250257,5,8,0:0:0:0:
132,240,250418,1,0,0:0:0:0:
8,208,250578,1,0,0:0:0:0:
168,144,250739,1,0,0:0:0:0:
66,288,250899,1,8,0:0:0:0:
108,72,251059,1,0,0:0:0:0:
212,236,251220,6,0,P|184:200|168:144,1,104.500003189087,2|0,0:2|0:0,0:0:0:0:
360,32,251541,2,0,P|388:68|404:124,1,104.500003189087,8|0,0:2|0:0,0:0:0:0:
338,250,251862,1,2,1:2:0:0:
302,234,251942,1,0,0:0:0:0:
263,233,252022,1,0,0:0:0:0:
226,246,252102,1,0,0:0:0:0:
197,272,252182,2,0,P|170:268|144:268,1,52.2500015945435,8|0,0:0|0:0,0:0:0:0:
276,328,252343,2,0,P|374:344|435:265,1,209.000006378174,6|0,0:2|0:0,0:0:0:0:
212,80,252824,6,0,P|260:64|336:96,1,104.500003189087,8|0,0:0|0:0,0:0:0:0:
338,250,253145,1,0,0:0:0:0:
264,144,253305,1,0,0:0:0:0:
432,192,253466,1,8,0:0:0:0:
172,176,253626,2,0,P|268:240|344:196,1,209.000006378174
456,32,254108,38,0,L|484:136,1,104.500003189087,8|0,0:0|0:0,0:0:0:0:
404,276,254428,1,2,0:2:0:0:
400,152,254589,1,0,0:0:0:0:
500,320,254749,1,8,0:0:0:0:
332,312,254910,2,0,P|324:256|364:208,1,104.500003189087,4|0,0:0|0:0,0:0:0:0:
483,132,255231,5,0,0:0:0:0:
277,97,255391,1,0,0:0:0:0:
293,109,255471,1,0,0:0:0:0:
309,121,255551,2,0,P|281:169|225:185,1,104.500003189087,0|8,0:0|0:0,0:0:0:0:
56,236,255872,1,0,0:0:0:0:
76,240,255952,1,0,0:0:0:0:
96,244,256033,2,0,L|160:152,1,104.500003189087,8|0,0:0|0:0,0:0:0:0:
328,40,256354,5,0,0:0:0:0:
360,52,256434,1,0,0:0:0:0:
384,76,256514,2,0,P|408:104|408:132,1,52.2500015945435
320,264,256674,1,0,0:0:0:0:
288,252,256754,1,0,0:0:0:0:
264,228,256834,2,0,P|240:200|240:172,1,52.2500015945435
277,97,256995,5,8,0:0:0:0:
424,352,257156,1,0,0:0:0:0:
204,292,257316,1,8,0:0:0:0:
495,224,257477,2,0,P|395:200|315:276,1,209.000006378174,4|0,0:0|0:0,0:0:0:0:
161,350,257958,38,0,L|276:329,1,104.500003189087,8|0,0:0|0:0,0:0:0:0:
424,352,258279,1,2,0:2:0:0:
400,198,258439,1,0,0:0:0:0:
264,332,258600,1,8,0:0:0:0:
224,180,258760,2,0,L|368:304,1,190,4|0,0:0|0:0,0:0:0:0:
472,260,259241,6,0,L|399:198,1,95,8|0,0:0|0:0,0:0:0:0:
428,72,259562,1,2,0:2:0:0:
300,108,259723,1,0,0:0:0:0:
480,152,259883,1,8,0:0:0:0:
308,32,260043,2,0,P|232:72|252:168,1,190,6|0,0:2|0:0,0:0:0:0:
367,303,260525,6,0,L|351:203,1,95,8|0,0:0|0:0,0:0:0:0:
300,108,260846,1,0,0:0:0:0:
276,228,261006,1,0,0:0:0:0:
440,240,261166,2,0,L|424:140,1,95,10|0,0:2|0:0,0:0:0:0:
300,108,261487,6,0,P|251:127|175:98,1,95,2|0,0:2|0:2,0:2:0:0:
66,39,261808,2,0,P|107:70|119:151,1,95,10|0,0:2|0:0,0:0:0:0:
123,273,262129,2,0,P|129:221|193:170,1,95,2|0,0:2|0:0,0:0:0:0:
292,356,262450,1,0,0:2:0:0:
52,312,262610,2,0,P|129:359|202:307,1,190,6|0,0:2|0:0,0:0:0:0:
66,156,263092,38,0,L|166:192,1,95,8|0,0:0|0:0,0:0:0:0:
328,228,263412,1,0,0:0:0:0:
123,273,263573,1,0,0:0:0:0:
208,120,263733,1,10,0:2:0:0:
272,276,263894,2,0,P|256:212|280:176,1,95,0|2,0:0|0:2,0:0:0:0:
372,72,264215,5,0,0:0:0:0:
512,252,264375,2,0,P|476:220|420:212,1,95,8|0,0:0|0:0,0:0:0:0:
272,276,264696,1,0,0:0:0:0:
436,288,264856,1,0,0:0:0:0:
312,128,265017,1,10,0:2:0:0:
340,324,265177,2,0,P|240:352|188:280,1,190,6|0,0:2|0:0,0:0:0:0:
60,136,265658,6,0,P|112:156|132:216,1,95,8|0,0:0|0:0,0:0:0:0:
64,368,265979,1,0,0:0:0:0:
56,216,266140,1,0,0:0:0:0:
160,368,266300,1,8,0:0:0:0:
16,292,266461,2,0,L|152:296,1,95,0|2,0:0|0:2,0:0:0:0:
256,316,266781,5,10,0:2:0:0:
200,164,266942,1,2,0:2:0:0:
324,256,267102,37,10,0:2:0:0:
336,56,267263,1,2,0:2:0:0:
405,215,267423,5,2,0:2:0:0:
416,204,267503,1,0,0:2:0:0:
428,196,267584,1,10,0:2:0:0:
432,64,267744,2,0,P|400:128|268:124,1,190,2|0,0:2|0:0,0:0:0:0:
124,37,268225,5,8,0:0:0:0:
336,56,268386,1,0,0:0:0:0:
110,115,268546,5,10,0:2:0:0:
291,140,268707,1,0,0:0:0:0:
147,180,268867,37,8,0:0:0:0:
352,194,269028,1,2,0:2:0:0:
106,251,269188,5,8,0:0:0:0:
312,264,269348,1,0,0:0:0:0:
115,322,269509,5,8,0:0:0:0:
344,328,269669,1,0,0:0:0:0:
167,383,269830,5,10,0:2:0:0:
416,364,269990,1,0,0:0:0:0:
416,364,270070,1,0,0:0:0:0:
416,364,270150,1,8,0:0:0:0:
284,208,270311,2,0,P|340:136|432:144,1,190,6|0,0:2|0:0,0:0:0:0:
432,384,270792,37,8,0:0:0:0:
380,224,270952,1,0,0:0:0:0:
348,380,271113,5,8,0:2:0:0:
308,180,271273,1,0,0:2:0:0:
268,352,271434,5,10,0:2:0:0:
252,112,271594,1,0,0:2:0:0:
188,352,271755,5,10,0:2:0:0:
176,80,271915,1,0,0:2:0:0:
112,384,272075,37,10,0:2:0:0:
96,120,272236,1,0,0:0:0:0:
32,372,272396,5,10,0:2:0:0:
64,348,272477,1,0,0:0:0:0:
104,336,272557,1,0,0:0:0:0:
144,328,272637,1,0,0:0:0:0:
184,336,272717,1,0,0:0:0:0:
392,336,272878,2,0,P|376:240|456:192,1,190,6|0,0:2|0:2,0:2:0:0:
448,92,273359,5,8,0:2:0:0:
419,78,273439,1,0,0:2:0:0:
388,77,273519,1,0,0:2:0:0:
358,88,273599,1,0,0:2:0:0:
340,120,273680,5,10,0:2:0:0:
313,137,273760,1,0,0:2:0:0:
284,148,273840,1,0,0:2:0:0:
252,152,273920,1,0,0:2:0:0:
220,136,274001,37,8,0:2:0:0:
192,151,274081,1,0,0:2:0:0:
175,177,274161,1,2,0:2:0:0:
171,208,274241,1,0,0:2:0:0:
144,236,274321,5,10,0:2:0:0:
152,266,274401,1,0,0:2:0:0:
175,287,274481,1,0,0:2:0:0:
205,292,274561,1,0,0:2:0:0:
240,284,274642,5,8,0:2:0:0:
270,274,274722,1,0,0:2:0:0:
301,271,274802,1,0,0:2:0:0:
333,275,274882,1,0,0:2:0:0:
376,300,274963,5,10,0:2:0:0:
384,308,275605,37,4,0:0:0:0:
432,208,275765,1,0,0:0:0:0:
272,168,275926,2,0,P|304:132|348:128,1,95,8|0,0:0|0:0,0:0:0:0:
480,296,276247,1,0,0:0:0:0:
336,200,276407,1,0,0:0:0:0:
208,336,276567,2,0,L|328:316,1,95,8|0,0:0|0:0,0:0:0:0:
432,228,276888,5,2,0:2:0:0:
336,120,277049,1,0,0:0:0:0:
152,96,277209,2,0,P|176:144|168:200,1,95,8|0,0:0|0:0,0:0:0:0:
56,296,277530,1,0,0:0:0:0:
96,156,277690,1,0,0:0:0:0:
284,44,277851,2,0,L|164:24,1,95,8|0,0:0|0:0,0:0:0:0:
68,36,278172,5,2,0:2:0:0:
60,156,278332,1,0,0:0:0:0:
116,260,278493,2,0,P|164:216|152:172,1,95,8|0,0:0|0:0,0:0:0:0:
132,96,278813,1,0,0:0:0:0:
304,160,278974,2,0,L|216:112,2,95,0|8|0,0:0|0:0|0:0,0:0:0:0:
448,204,279455,5,0,0:0:0:0:
376,276,279616,1,0,0:0:0:0:
388,68,279776,2,0,L|380:172,1,95,8|0,0:0|0:0,0:0:0:0:
284,224,280097,1,0,0:0:0:0:
448,204,280257,1,0,0:0:0:0:
252,124,280418,1,8,0:0:0:0:
192,284,280578,37,0,0:0:0:0:
192,284,280658,1,0,0:0:0:0:
192,284,280739,2,0,P|176:240|188:192,1,95,2|0,0:2|0:0,0:0:0:0:
256,52,281059,2,0,L|308:136,1,95,8|0,0:0|0:0,0:0:0:0:
352,280,281380,1,0,0:0:0:0:
252,236,281541,1,0,0:0:0:0:
420,168,281701,2,0,P|456:208|456:264,1,95,8|0,0:0|0:0,0:0:0:0:
388,364,282022,5,2,0:2:0:0:
316,196,282182,1,0,0:0:0:0:
457,80,282343,2,0,L|420:168,1,95,8|0,0:0|0:0,0:0:0:0:
280,284,282664,1,0,0:0:0:0:
352,116,282824,1,0,0:0:0:0:
210,0,282985,2,0,L|247:87,1,95,8|0,0:0|0:0,0:0:0:0:
204,224,283305,5,2,0:2:0:0:
364,192,283466,1,0,0:0:0:0:
228,320,283626,2,0,P|288:276|300:228,1,95,8|0,0:0|0:0,0:0:0:0:
247,87,283947,1,0,0:0:0:0:
204,224,284108,1,0,0:0:0:0:
380,116,284268,1,8,0:0:0:0:
188,144,284428,2,0,P|124:244|176:300,1,190
340,292,284910,5,8,0:0:0:0:
204,224,285070,1,0,0:0:0:0:
240,384,285231,1,0,0:0:0:0:
300,176,285391,1,0,0:0:0:0:
322,169,285471,1,0,0:0:0:0:
346,168,285551,1,0,0:0:0:0:
369,172,285631,1,0,0:0:0:0:
391,182,285711,1,0,0:0:0:0:
409,197,285792,1,0,0:0:0:0:
423,216,285872,38,0,P|383:264|371:316,1,95,2|0,0:2|0:0,0:0:0:0:
248,264,286193,1,8,0:0:0:0:
346,168,286354,2,0,P|334:116|298:88,1,95
124,72,286674,1,0,0:0:0:0:
184,192,286835,2,0,L|276:156,1,95,8|0,0:0|0:0,0:0:0:0:
424,88,287156,5,2,0:2:0:0:
401,185,287316,1,0,0:0:0:0:
512,315,287477,2,0,P|484:275|437:252,1,95,8|0,0:0|0:0,0:0:0:0:
325,211,287797,1,0,0:0:0:0:
424,88,287958,1,0,0:0:0:0:
272,157,288118,2,0,P|248:201|256:249,1,95,8|0,0:0|0:0,0:0:0:0:
370,310,288439,5,2,0:2:0:0:
260,360,288600,1,0,0:0:0:0:
149,310,288760,2,0,P|141:262|85:230,1,95,8|0,0:0|0:0,0:0:0:0:
30,109,289081,1,0,0:0:0:0:
161,157,289241,1,0,0:0:0:0:
1,242,289402,2,0,L|77:306,1,95,8|0,0:0|0:0,0:0:0:0:
260,360,289723,5,0,0:0:0:0:
320,224,289883,1,0,0:0:0:0:
424,384,290043,2,0,L|384:280,1,95,8|0,0:0|0:0,0:0:0:0:
384,144,290364,1,0,0:0:0:0:
361,116,290444,1,0,0:0:0:0:
331,97,290524,1,0,0:0:0:0:
297,88,290604,1,0,0:0:0:0:
261,90,290685,2,0,P|217:118|157:114,1,95,8|0,0:0|0:0,0:0:0:0:
61,296,291006,38,0,L|78:202,1,95,2|0,0:2|0:0,0:0:0:0:
94,111,291327,5,8,0:0:0:0:
180,300,291487,1,0,0:0:0:0:
190,75,291648,5,8,0:0:0:0:
236,240,291808,1,0,0:0:0:0:
290,43,291969,5,8,0:0:0:0:
320,224,292129,1,0,0:0:0:0:
380,40,292289,37,10,0:2:0:0:
392,68,292369,1,0,0:0:0:0:
416,88,292449,1,0,0:0:0:0:
447,95,292529,1,0,0:0:0:0:
480,88,292611,5,8,0:0:0:0:
469,118,292691,1,0,0:0:0:0:
459,148,292771,1,0,0:0:0:0:
449,178,292851,1,0,0:0:0:0:
433,213,292931,5,8,0:0:0:0:
304,68,293092,1,8,0:0:0:0:
96,308,293412,5,4,0:0:0:0:
184,312,293573,6,0,P|248:300|292:248,1,132.999995941162
312,160,294054,1,0,0:0:0:0:
280,32,294375,2,0,P|336:32|368:52,1,66.4999979705811
328,236,294856,5,0,0:0:0:0:
332,240,295017,2,0,P|308:308|236:320,1,132.999995941162
192,256,295498,2,0,P|220:248|272:252,1,66.4999979705811
232,172,295819,2,0,L|261:113,1,66.4999979705811
144,200,296140,70,0,P|116:252|152:320,1,123.499994346619
208,384,296621,1,0,0:0:0:0:
227,205,296942,2,0,L|192:256,1,61.7499971733095
276,104,297423,5,0,0:0:0:0:
280,108,297584,2,0,P|344:104|384:144,1,123.499994346619
412,284,298065,2,0,L|400:216,1,61.7499971733095
316,172,298386,2,0,L|328:240,1,61.7499971733095
328,332,298707,70,0,P|272:320|232:272,1,113.999996520996
200,200,299188,1,0,0:0:0:0:
276,64,299509,2,0,L|260:120,1,56.9999982604981
326,232,299990,5,0,0:0:0:0:
328,236,300150,2,0,P|360:216|364:136,1,113.999996520996
286,96,300632,2,0,P|262:104|238:140,1,56.9999982604981
258,200,300952,2,0,P|282:192|306:156,1,56.9999982604981
343,44,301273,70,0,P|293:23|240:36,1,104.500003189087
183,80,301755,1,0,0:0:0:0:
93,163,302075,2,0,L|154:154,1,52.2500015945435
252,204,302557,5,0,0:0:0:0:
256,208,302717,2,0,L|156:244,1,104.500003189087
88,184,303198,2,0,L|137:166,1,52.2500015945435
156,80,303519,2,0,L|106:97,1,52.2500015945435
20,164,303840,70,0,P|24:220|68:252,1,95
124,264,304321,1,0,0:0:0:0:
106,140,304642,2,0,L|88:184,1,47.5
224,152,305124,5,0,0:0:0:0:
228,156,305284,2,0,L|324:192,1,95
400,224,305765,2,0,P|408:200|408:168,1,47.5
492,120,306086,2,0,P|484:144|484:176,1,47.5
493,283,306407,70,0,L|449:363,1,85.4999973907472
368,364,306888,2,0,P|332:344|276:352,1,85.4999973907472
208,360,307370,1,0,0:0:0:0:
96,272,307690,5,0,0:0:0:0:
100,276,307851,2,0,P|144:268|184:276,1,85.4999973907472
268,308,308332,22,0,L|288:260,2,42.7499986953736
