osu file format v14

[General]
AudioFilename: Yoko Takamitsu - Angel Dream (Gens) [Music].mp3
AudioLeadIn: 0
PreviewTime: 55021
Countdown: 0
SampleSet: None
StackLeniency: 0.7
Mode: 0
LetterboxInBreaks: 1
WidescreenStoryboard: 0

[Editor]
Bookmarks: 7021,12021,33688,55021,76354,81688,87021,108354,119021,141354
DistanceSpacing: 1
BeatDivisor: 2
GridSize: 4
TimelineZoom: 1

[Metadata]
Title:Angel Dream
TitleUnicode:Angel Dream
Artist:Yoko Takamitsu
ArtistUnicode:Yoko Takamitsu
Creator:Gens
Version:Insane
Source:
Tags:
BeatmapID:1815958
BeatmapSetID:868836

[Difficulty]
HPDrainRate:7
CircleSize:4
OverallDifficulty:8
ApproachRate:7
SliderMultiplier:1.9
SliderTickRate:1

[Events]
//Background and Video events
0,0,"Yoko Takamitsu - Angel Dream (Gens) [Background].png",0,0
//Break Periods
2,76721,80954
//Storyboard Layer 0 (Background)
//Storyboard Layer 1 (Fail)
//Storyboard Layer 2 (Pass)
//Storyboard Layer 3 (Foreground)
//Storyboard Sound Samples

[TimingPoints]
1855,333.333333333333,4,1,0,70,1,0
12521,-100,4,1,0,60,0,0
22188,-200,4,1,0,60,0,0
23188,-100,4,1,0,60,0,0
33854,-100,4,1,0,50,0,0
49688,-133.333333333333,4,1,0,50,0,0
52188,-100,4,1,0,60,0,0
53688,-100,4,1,0,70,0,0
55188,-80,4,1,0,75,0,1
64354,-133.333333333333,4,1,0,75,0,1
65854,-80,4,1,0,75,0,1
76521,-80,4,1,0,70,0,0
81854,-100,4,1,0,70,0,0
87188,-100,4,1,0,50,0,0
103021,-200,4,1,0,50,0,0
105521,-107.52688172043,4,1,0,60,0,0
107021,-100,4,1,0,70,0,0
108521,-100,4,2,0,70,0,0
117854,-100,4,1,0,75,0,0
119188,-80,4,1,0,75,0,1
128354,-133.333333333333,4,1,0,75,0,1
129854,-80,4,1,0,75,0,1
141521,-100,4,1,0,75,0,0

[HitObjects]
172,64,7188,6,0,P|256:26|340:64,3,190,4|8|2|8,0:0|0:0|0:0|0:0,0:0:0:0:
404,112,8354,1,0,0:0:0:0:
340,156,8521,6,0,P|256:118|172:156,3,190,4|8|2|8,0:0|0:0|0:0|0:0,0:0:0:0:
108,200,9688,1,0,0:0:0:0:
172,248,9854,6,0,P|256:210|340:248,3,190,4|8|2|8,0:0|0:0|0:0|0:0,0:0:0:0:
404,292,11021,1,0,0:0:0:0:
108,292,11354,1,8,0:0:0:0:
108,292,11521,1,8,0:0:0:0:
108,292,11688,1,8,0:0:0:0:
108,292,11854,1,12,0:0:0:0:
40,152,12188,5,0,0:0:0:0:
40,152,12521,2,0,P|80:68|168:40,1,190,4|8,0:0|0:0,0:0:0:0:
436,108,13188,2,0,P|448:64|444:16,2,95,2|0|8,0:0|0:0|0:0,0:0:0:0:
408,176,13688,2,0,P|356:252|264:280,1,190,4|0,0:0|0:0,0:0:0:0:
208,340,14188,2,0,P|296:352|389:317,1,190,8|0,0:0|0:0,0:0:0:0:
472,152,14854,5,8,0:0:0:0:
472,152,15188,2,0,P|432:68|344:40,1,190,4|8,0:0|0:0,0:0:0:0:
220,268,15854,2,0,P|204:316|164:336,2,95,2|0|8,0:0|0:0|0:0,0:0:0:0:
144,264,16354,2,0,P|76:208|72:112,1,190,4|0,0:0|0:0,0:0:0:0:
0,224,16854,2,0,P|-12:128|24:44,1,190,8|0,0:0|0:0,0:0:0:0:
191,40,17521,6,0,B|270:68|241:141|321:170,1,190,2|4,0:0|0:0,0:0:0:0:
496,208,18188,1,8,0:0:0:0:
448,280,18354,1,0,0:0:0:0:
368,312,18521,2,0,P|320:300|296:264,2,95,4|0|8,0:0|0:0|0:0,0:0:0:0:
256,348,19021,2,0,P|216:264|256:180,1,190,2|0,0:0|0:0,0:0:0:0:
164,172,19521,2,0,P|140:264|162:354,1,190,8|4,0:0|0:0,0:0:0:0:
24,284,20188,6,0,B|-12:216|60:168|24:100,2,190,8|6|8,0:0|0:0|0:0,0:0:0:0:
256,112,21188,2,0,L|256:16,2,95,2|0|8,0:0|0:0|0:0,0:0:0:0:
332,176,21688,2,0,P|256:224|180:176,1,190,4|0,0:0|0:0,0:0:0:0:
164,280,22188,2,0,P|256:300|348:280,1,190,8|0,0:0|0:0,0:0:0:0:
144,132,23188,6,0,P|56:115|13:192,2,190,4|8|0,0:0|0:0|0:0,0:0:0:0:
216,172,24021,1,0,0:0:0:0:
288,212,24188,1,8,0:0:0:0:
360,252,24354,2,0,P|447:268|490:191,1,190,2|0,0:0|0:0,0:0:0:0:
480,112,24854,2,0,P|335:22|255:172,1,380,12|8,0:0|0:0,0:0:0:0:
144,252,25854,6,0,P|56:268|13:191,2,190,4|8|2,0:0|0:0|0:0,0:0:0:0:
208,200,26688,2,0,P|240:164|248:120,1,95,0|8,0:0|0:0,0:0:0:0:
336,64,27021,2,0,P|332:156|408:208,1,190,2|0,0:0|0:0,0:0:0:0:
480,192,27521,2,0,P|400:341|255:252,1,380,12|10,0:0|0:0,0:0:0:0:
184,208,28354,5,2,0:0:0:0:
100,192,28521,2,0,P|179:42|324:131,1,380,4|0,0:0|0:0,0:0:0:0:
352,204,29354,2,0,P|302:209|264:184,1,95,0|10,0:0|0:0,0:0:0:0:
216,128,29688,2,0,P|168:184|200:288,1,190,4|0,0:0|0:0,0:0:0:0:
256,344,30188,1,8,0:0:0:0:
313,287,30354,2,0,P|344:184|296:128,1,190,6|0,0:0|0:0,0:0:0:0:
256,56,30854,1,8,0:0:0:0:
344,272,31188,6,0,B|256:224|256:312|160:264,2,190,4|8|2,0:0|0:0|0:0,0:0:0:0:
512,204,32188,1,8,0:0:0:0:
512,204,32354,2,4,B|440:24|256:-36|72:24|0:204,1,665
424,360,33854,6,4,P|500:192|424:24,1,380
195,8,34854,1,8,0:0:0:0:
195,8,35021,2,0,P|205:143|329:198,1,285,2|8,0:0|0:0,0:0:0:0:
151,294,35854,2,0,P|82:230|46:143,1,190,2|8,0:0|0:0,0:0:0:0:
72,56,36521,6,0,B|284:128|228:-16|440:56,1,380,4|4,0:0|0:0,0:0:0:0:
440,192,37521,1,8,0:0:0:0:
440,192,37688,2,0,B|272:236|328:148|160:192,1,285,6|8,0:0|0:0,0:0:0:0:
4,192,38521,2,0,P|24:292|92:340,1,190,4|8,0:0|0:0,0:0:0:0:
256,360,39188,6,4,P|431:303|487:128,1,380
200,136,40188,1,8,0:0:0:0:
200,136,40354,2,0,P|298:183|250:85,1,285,6|8,0:0|0:0,0:0:0:0:
84,168,41188,2,0,P|160:280|300:304,1,285,2|8,0:0|0:0,0:0:0:0:
432,312,41854,2,4,P|256:384|80:312,3,380
136,168,44521,6,4,B|208:120|256:24|256:24|304:120|376:168,1,380
456,308,45521,1,8,0:0:0:0:
456,308,45688,2,0,B|348:348|284:268|176:308,1,285,6|8,0:0|0:0,0:0:0:0:
36,228,46521,2,0,P|20:140|84:68,1,190,4|8,0:0|0:0,0:0:0:0:
360,48,47188,5,4,0:0:0:0:
360,48,47854,1,2,0:0:0:0:
432,88,48021,1,0,0:0:0:0:
360,128,48188,1,0,0:0:0:0:
288,88,48354,2,8,P|152:64|52:160,1,285,4|8,0:0|0:0,0:0:0:0:
60,236,49188,5,4,0:0:0:0:
140,248,49521,1,8,0:0:0:0:
140,248,49688,2,0,P|464:192|140:136,1,926.250035333635,6|4,0:0|0:0,0:0:0:0:
400,16,52188,5,8,0:0:0:0:
400,16,52354,2,6,P|256:256|112:16,1,665,6|0,0:0|0:0,0:0:0:0:
256,56,53688,5,6,0:0:0:0:
256,56,54021,1,2,0:0:0:0:
256,56,54188,1,6,0:0:0:0:
416,192,55188,6,0,P|444:300|352:368,3,237.5,6|8|6|8,0:0|0:0|0:0|0:0,0:0:0:0:
256,304,56354,2,0,B|196:192|316:192|256:80,1,237.5,4|8,0:0|0:0,0:0:0:0:
157,16,56854,2,0,P|68:84|96:192,2,237.5,2|4|8,0:0|0:0|0:0,0:0:0:0:
160,304,57854,6,0,P|256:364|352:304,3,237.5,4|8|4|8,0:0|0:0|0:0|0:0,0:0:0:0:
368,220,59021,2,0,B|312:152|200:232|144:164,1,237.5,6|0,0:0|0:0,0:0:0:0:
160,80,59521,2,0,P|256:20|352:80,2,237.5,8|4|8,0:0|0:0|0:0,0:0:0:0:
16,192,60521,5,4,0:0:0:0:
16,192,60854,1,8,0:0:0:0:
16,192,61188,2,0,P|32:312|128:364,1,237.5,6|8,0:0|0:0,0:0:0:0:
208,320,61688,2,0,B|308:248|256:160|204:248|304:320,1,237.5,4|0,0:0|0:0,0:0:0:0:
384,360,62188,2,0,P|473:317|497:189,1,237.5,10|6,0:0|0:0,0:0:0:0:
400,264,62854,5,8,0:0:0:0:
344,168,63021,1,0,0:0:0:0:
288,72,63188,1,4,0:0:0:0:
232,280,63521,1,8,0:0:0:0:
168,184,63688,2,0,P|104:80|32:160,1,237.5,6|0,0:0|0:0,0:0:0:0:
8,232,64188,1,8,0:0:0:0:
64,336,64354,2,0,P|336:336|456:160,1,498.750019025803,4|4,0:0|0:0,0:0:0:0:
60,0,65854,6,0,P|0:96|60:192,3,237.5,4|8|6|8,0:0|0:0|0:0|0:0,0:0:0:0:
152,192,67021,2,2,B|216:280|296:104|360:192,1,237.5
452,192,67521,2,0,P|512:288|452:384,2,237.5,8|4|8,0:0|0:0|0:0,0:0:0:0:
184,48,68521,5,4,0:0:0:0:
184,48,68854,1,8,0:0:0:0:
184,48,69188,2,0,B|24:112|104:232|164:144|128:108,1,237.5,4|8,0:0|0:0,0:0:0:0:
80,16,69688,2,0,P|12:120|40:224,1,237.5,6|0,0:0|0:0,0:0:0:0:
96,140,70188,1,8,0:0:0:0:
96,140,70521,2,0,P|164:232|280:232,1,237.5,4|8,0:0|0:0,0:0:0:0:
328,48,71188,5,4,0:0:0:0:
328,48,71521,1,8,0:0:0:0:
328,48,71855,2,0,B|488:112|408:232|348:144|384:108,1,237.5,4|8,0:0|0:0,0:0:0:0:
432,16,72355,2,0,P|500:120|472:224,1,237.5,6|0,0:0|0:0,0:0:0:0:
416,140,72854,1,8,0:0:0:0:
232,232,73188,1,4,0:0:0:0:
112,264,73521,5,10,0:0:0:0:
168,168,73688,1,2,0:0:0:0:
224,72,73855,1,4,0:0:0:0:
280,280,74188,1,8,0:0:0:0:
344,184,74355,2,0,P|408:80|480:160,1,237.5,6|0,0:0|0:0,0:0:0:0:
504,232,74855,1,8,0:0:0:0:
448,336,75021,1,4,0:0:0:0:
112,72,75354,5,2,0:0:0:0:
112,72,75521,1,2,0:0:0:0:
112,72,75688,1,2,0:0:0:0:
112,72,75854,1,6,0:0:0:0:
400,72,76188,1,12,0:0:0:0:
256,192,76521,1,4,0:0:0:0:
328,344,81854,5,4,0:0:0:0:
240,304,82021,2,0,L|152:352,2,95,0|8|0,0:0|0:0|0:0,0:0:0:0:
328,264,82521,1,2,0:0:0:0:
408,224,82688,2,0,P|488:240|512:336,2,190,0|4|0,0:0|0:0|0:0,0:0:0:0:
328,184,83521,6,0,L|240:136,1,95,8|0,0:0|0:0,0:0:0:0:
176,100,83854,1,2,0:0:0:0:
100,64,84021,2,0,P|12:88|0:176,2,190,0|4|0,0:0|0:0|0:0,0:0:0:0:
176,36,84854,6,0,P|216:58|256:36,1,95,8|0,0:0|0:0,0:0:0:0:
336,36,85188,1,2,0:0:0:0:
412,64,85354,2,0,P|500:88|512:176,2,190,0|4|0,0:0|0:0|0:0,0:0:0:0:
404,144,86188,5,8,0:0:0:0:
336,192,86354,2,0,P|256:236|176:192,1,190,6|0,0:0|0:0,0:0:0:0:
108,144,86854,1,0,0:0:0:0:
88,360,87188,6,4,P|12:192|88:24,1,380
317,8,88188,1,8,0:0:0:0:
317,8,88355,2,0,P|307:143|183:198,1,285,2|8,0:0|0:0,0:0:0:0:
361,294,89188,2,0,P|430:230|466:143,1,190,2|8,0:0|0:0,0:0:0:0:
440,56,89855,6,0,B|228:128|284:-16|72:56,1,380,4|4,0:0|0:0,0:0:0:0:
72,192,90855,1,8,0:0:0:0:
72,192,91022,2,0,B|240:236|184:148|352:192,1,285,6|8,0:0|0:0,0:0:0:0:
508,192,91855,2,0,P|488:292|420:340,1,190,4|8,0:0|0:0,0:0:0:0:
256,360,92522,6,4,P|81:303|25:128,1,380
312,136,93522,1,8,0:0:0:0:
312,136,93688,2,0,P|214:183|262:85,1,285,6|8,0:0|0:0,0:0:0:0:
428,168,94522,2,0,P|352:280|212:304,1,285,2|8,0:0|0:0,0:0:0:0:
80,312,95188,2,4,P|256:384|432:312,3,380
368,144,97854,6,4,P|256:16|144:144,1,380
112,280,98854,1,8,0:0:0:0:
112,280,99021,2,0,L|400:280,1,285,2|8,0:0|0:0,0:0:0:0:
352,368,99854,2,0,L|160:368,1,190,2|8,0:0|0:0,0:0:0:0:
16,224,100521,5,4,0:0:0:0:
496,224,101188,2,0,P|496:272|488:320,2,95,2|0|8,0:0|0:0|0:0,0:0:0:0:
488,144,101688,2,0,P|412:36|268:24,1,285,4|2,0:0|0:0,0:0:0:0:
208,68,102521,5,8,0:0:0:0:
156,128,102854,1,2,0:0:0:0:
156,128,103021,2,4,P|256:352|356:128,1,617.5
208,68,105521,5,6,0:0:0:0:
156,128,105688,2,6,P|256:352|356:128,1,618.450019345437,6|0,0:0|0:0,0:0:0:0:
256,192,107021,1,6,0:0:0:0:
256,192,107354,1,2,0:0:0:0:
256,192,107521,1,6,0:0:0:0:
72,344,108521,5,4,1:0:0:0:
72,344,108854,1,2,0:0:0:0:
52,204,109188,2,0,P|66:116|153:102,1,190,0|2,0:0|0:0,0:0:0:0:
120,171,109688,2,0,P|207:156|221:69,1,190,4|0,0:0|0:0,0:0:0:0:
154,102,110188,2,0,P|168:14|255:0,2,190,8|4|0,0:0|0:0|0:0,0:0:0:0:
440,40,111188,5,4,1:0:0:0:
440,40,111521,1,2,0:0:0:0:
460,180,111855,2,0,P|445:267|358:281,1,190,0|2,0:0|0:0,0:0:0:0:
392,213,112355,2,0,P|304:227|290:314,1,190,4|0,0:0|0:0,0:0:0:0:
358,282,112854,2,0,P|343:369|256:383,2,190,8|4|0,0:0|0:0|0:0,0:0:0:0:
144,40,113854,6,0,L|0:168,1,190,4|2,1:0|0:0,0:0:0:0:
192,112,114521,2,0,L|96:296,1,190,4|8,1:0|0:0,0:0:0:0:
256,168,115188,2,0,L|256:360,2,190,4|10|4,1:0|0:0|0:0,0:0:0:0:
256,40,116188,1,8,0:0:0:0:
256,40,116354,1,0,0:0:0:0:
360,52,116521,6,4,P|256:136|152:52,2,285,4|4|8,0:0|0:0|0:0,0:0:0:0:
296,192,117854,1,6,0:0:0:0:
216,192,118021,1,6,0:0:0:0:
376,192,118354,1,6,0:0:0:0:
136,192,118688,1,6,0:0:0:0:
464,216,119188,6,0,P|408:312|292:312,3,237.5,4|8|6|8,0:0|0:0|0:0|0:0,0:0:0:0:
188,280,120354,2,0,B|188:160|324:224|324:104,1,237.5,4|8,0:0|0:0,0:0:0:0:
220,72,120854,2,0,P|104:72|48:168,2,237.5,2|4|8,0:0|0:0|0:0,0:0:0:0:
192,360,121854,6,0,P|116:276|128:160,3,237.5,4|8|6|8,0:0|0:0|0:0|0:0,0:0:0:0:
180,96,123021,2,2,B|232:72|256:8|256:8|280:72|332:96,1,237.5,6|2,0:0|0:0,0:0:0:0:
384,160,123521,2,0,P|396:276|320:360,2,237.5,8|6|8,0:0|0:0|0:0,0:0:0:0:
114,95,124521,6,4,P|134:313|352:333,1,475
244,112,125521,1,8,0:0:0:0:
244,112,125688,2,0,P|198:249|335:203,1,356.25,6|8,0:0|0:0,0:0:0:0:
256,192,126521,1,4,0:0:0:0:
400,264,126854,5,14,0:0:0:0:
400,160,127021,1,2,0:0:0:0:
400,56,127188,1,4,0:0:0:0:
256,264,127521,1,8,0:0:0:0:
256,160,127688,2,0,P|172:88|88:160,1,237.5,6|0,0:0|0:0,0:0:0:0:
0,104,128188,1,8,0:0:0:0:
24,208,128354,2,4,P|252:360|424:264,1,498.750019025803
256,48,129854,6,0,B|144:8|136:88|24:48,3,237.5,4|8|6|8,0:0|0:0|0:0|0:0,0:0:0:0:
64,144,131021,2,2,B|144:236|92:352|40:224|100:184,1,237.5
168,144,131521,2,0,P|188:272|144:367,2,237.5,8|6|8,0:0|0:0|0:0,0:0:0:0:
256,48,132521,6,0,B|368:8|376:88|488:48,3,237.5,4|8|6|8,0:0|0:0|0:0|0:0,0:0:0:0:
448,144,133688,2,0,B|368:236|420:352|472:224|412:184,1,237.5,2|2,0:0|0:0,0:0:0:0:
344,144,134188,2,0,P|324:272|367:367,2,237.5,8|6|8,0:0|0:0|0:0,0:0:0:0:
64,320,135188,5,4,0:0:0:0:
256,208,135521,1,8,0:0:0:0:
448,320,135854,1,4,0:0:0:0:
216,144,136188,1,8,0:0:0:0:
292,72,136354,2,0,P|256:-14|220:72,1,237.5,6|0,0:0|0:0,0:0:0:0:
296,144,136854,1,8,0:0:0:0:
256,304,137188,1,4,0:0:0:0:
112,264,137521,5,14,0:0:0:0:
112,160,137688,1,2,0:0:0:0:
112,56,137854,1,4,0:0:0:0:
256,264,138188,1,8,0:0:0:0:
256,160,138354,2,0,P|340:88|424:160,1,237.5,6|2,0:0|0:0,0:0:0:0:
512,104,138854,1,8,0:0:0:0:
488,216,139021,1,4,0:0:0:0:
112,56,139354,5,2,0:0:0:0:
112,56,139521,1,2,0:0:0:0:
112,56,139688,1,2,0:0:0:0:
112,56,139854,1,6,0:0:0:0:
400,56,140688,1,2,0:0:0:0:
400,56,140854,1,2,0:0:0:0:
400,56,141021,1,2,0:0:0:0:
400,56,141188,1,6,0:0:0:0:
256,192,141521,1,12,0:0:0:0:
