osu file format v14

[General]
AudioFilename: audio.mp3
AudioLeadIn: 0
PreviewTime: -1
Countdown: 0
SampleSet: Soft
StackLeniency: 0.2
Mode: 0
LetterboxInBreaks: 0
WidescreenStoryboard: 0

[Editor]
Bookmarks: 1507
DistanceSpacing: 0.25
BeatDivisor: 4
GridSize: 32
TimelineZoom: 2

[Metadata]
Title:Zankoku na Tenshi no These
TitleUnicode:残酷な天使のテーゼ
Artist:Yoko Takahashi
ArtistUnicode:高橋洋子
Creator:Xarr
Version:oof
Source:新世紀エヴァンゲリオン
Tags:Neon Genesis Evangelion Anime Opening TV Size A Cruel Angel's Thesis
BeatmapID:1782800
BeatmapSetID:853015

[Difficulty]
HPDrainRate:5
CircleSize:4
OverallDifficulty:8.6
ApproachRate:9.4
SliderMultiplier:2
SliderTickRate:1

[Events]
//Background and Video events
0,0,"evangelion-anime-robot-gigant.jpg",0,0
//Break Periods
//Storyboard Layer 0 (Background)
//Storyboard Layer 1 (Fail)
//Storyboard Layer 2 (Pass)
//Storyboard Layer 3 (Foreground)
//Storyboard Sound Samples

[TimingPoints]
1507,857.142857142857,4,2,0,40,1,0
1507,-142.857142857143,4,2,0,40,0,0
2364,606.060606060606,4,2,0,40,1,0
2970,588.235294117647,4,2,0,40,1,0
2970,-142.857142857143,4,2,0,40,0,0
4146,666.666666666667,4,2,0,40,1,0
4479,750,4,2,0,40,1,0
5979,857.142857142857,4,2,0,40,1,0
6193,750,4,2,0,40,1,0
7505,750,4,2,0,40,1,0
7505,-83.3333333333333,4,2,0,40,0,0
9005,-111.111111111111,4,2,0,40,0,0
10505,705.882352941176,4,2,0,40,1,0
11210,833.333333333333,4,2,0,40,1,0
11626,789.473684210526,4,2,0,40,1,0
12020,750,4,2,0,40,1,0
12020,-105.263157894737,4,2,0,40,0,0
12582,916.030534351145,4,2,0,40,1,0
12582,-125,4,2,0,40,0,0
14414,451.127819548872,4,2,0,45,1,0
14865,476.190476190476,4,2,0,45,1,0
15341,465.704727679161,4,2,0,60,1,0
15341,-50,4,2,0,60,0,1
15806,-41.6666666666667,4,2,0,60,0,1
16272,-50,4,2,0,60,0,1
17203,-45.4545454545455,4,2,0,60,0,1
17669,-41.6666666666667,4,2,0,60,0,1
19066,-50,4,2,0,60,0,1
19532,-37.037037037037,4,2,0,60,0,1
19998,-50,4,2,0,60,0,1
20929,-41.6666666666667,4,2,0,60,0,1
22792,-83.3333333333333,4,2,0,60,0,0
24655,-83.3333333333333,4,2,0,60,0,0
25586,-125,4,2,0,60,0,0
26517,-71.4285714285714,4,2,0,60,0,0
27449,-55.5555555555556,4,2,0,60,0,0
28380,-45.4545454545455,4,2,0,60,0,0
29312,-200,4,2,0,60,0,0
30243,-83.3333333333333,4,2,0,60,0,0
31174,-55.5555555555556,4,2,0,60,0,0
32106,-83.3333333333333,4,2,0,60,0,0
33037,-71.4285714285714,4,2,0,60,0,0
33969,-62.5,4,2,0,60,0,0
34900,-166.666666666667,4,2,0,60,0,0
35832,-71.4285714285714,4,2,0,60,0,0
36763,-55.5555555555556,4,2,0,60,0,0
37694,-83.3333333333333,4,2,0,60,0,0
39557,-83.3333333333333,4,2,0,60,0,0
40489,-125,4,2,0,60,0,0
41420,-62.5,4,2,0,60,0,0
42351,-50,4,2,0,60,0,0
43283,-41.6666666666667,4,2,0,60,0,0
44214,-200,4,2,0,60,0,0
45146,-83.3333333333333,4,2,0,60,0,0
46077,-62.5,4,2,0,60,0,0
47008,-83.3333333333333,4,2,0,60,0,0
47940,-71.4285714285714,4,2,0,60,0,0
48871,-83.3333333333333,4,2,0,60,0,0
49803,-66.6666666666667,4,2,0,60,0,0
50734,-83.3333333333333,4,2,0,60,0,0
51200,-62.5,4,2,0,60,0,0
51665,-50,4,2,0,60,0,0
52597,-55.5555555555556,4,2,0,60,0,0
58651,-45.4545454545455,4,2,0,60,0,0
59117,-38.4615384615385,4,2,0,60,0,0
59582,-33.3333333333333,4,2,0,60,0,0
60048,-55.5555555555556,4,2,0,60,0,0
63774,-50,4,2,0,60,0,0
64705,-45.4545454545455,4,2,0,60,0,0
66102,-100,4,2,0,60,0,0
66568,-43.4782608695652,4,2,0,60,0,1
66743,-43.4782608695652,4,2,0,5,0,0
66801,-43.4782608695652,4,2,0,60,0,0
66917,-31.25,4,2,0,60,0,1
67092,-31.25,4,2,0,5,0,0
67150,-31.25,4,2,0,60,0,0
67267,-25,4,2,0,60,0,1
67441,-25,4,2,0,5,0,0
67499,-142.857142857143,4,2,0,60,0,0
67965,-28.5714285714286,4,2,0,60,0,1
68431,-40,4,2,0,60,0,1
74951,-200,4,2,0,60,0,0
75416,-29.4117647058825,4,2,0,60,0,1
75882,-40,4,2,0,60,0,1
82402,-200,4,2,0,60,0,0
82868,-40,4,2,0,60,0,1
84265,-37.037037037037,4,2,0,60,0,1
89271,-37.037037037037,4,2,0,60,0,0

[HitObjects]
25,300,1507,6,0,P|93:303|148:263,1,139.999995727539
239,371,2970,6,0,P|246:301|255:231,2,139.999995727539
381,184,4479,6,0,P|432:178|493:162,1,100
146,160,5229,2,0,P|100:142|43:107,1,100
255,232,5979,5,0,0:0:0:0:
276,32,6193,2,0,P|270:81|265:131,1,100
494,343,7505,6,0,P|439:272|285:280,1,239.999992675781
202,90,9005,6,0,P|186:175|172:236,1,134.999995880127
68,287,10130,1,0,0:0:0:0:
364,370,10505,6,0,P|348:323|333:276,1,100
396,18,11210,2,0,P|372:62|348:106,1,100
102,166,12020,2,0,P|150:172|203:178,1,94.9999974632264
495,212,12582,6,0,P|340:194|194:177,1,300
95,197,14414,5,0,0:0:0:0:
89,208,14527,1,0,0:0:0:0:
1,189,14639,1,0,0:0:0:0:
1,177,14752,1,0,0:0:0:0:
67,86,14865,5,0,0:0:0:0:
67,86,15103,1,0,0:0:0:0:
28,287,15222,1,0,0:0:0:0:
1,177,15341,6,0,B|161:145|106:310|263:273,1,300
474,325,15806,6,0,B|487:251|513:172|513:172|481:205|452:227,1,239.999992675781
263,274,16155,1,0,0:0:0:0:
348,162,16272,6,0,P|365:255|392:362,1,200
131,339,16621,2,0,P|167:245|197:150,1,200
100,18,16970,1,0,0:0:0:0:
100,18,17203,6,0,P|78:64|95:140,1,110.000003356934
0,184,17436,2,0,P|36:219|114:226,1,110.000003356934
406,117,17669,6,0,P|431:170|421:228,1,119.999996337891
512,290,17902,2,0,P|468:330|410:339,1,119.999996337891
169,78,18135,5,0,0:0:0:0:
331,282,18251,1,0,0:0:0:0:
277,16,18484,6,0,B|340:192|154:169|220:354,1,359.999989013672
220,354,18950,1,0,0:0:0:0:
442,284,19066,6,0,B|479:251|517:215|517:215|423:252|325:283,1,300
55,359,19532,6,0,P|86:233|120:63,1,270.000001029968
43,15,19881,1,0,0:0:0:0:
220,57,19998,6,0,P|315:83|416:102,1,200
508,262,20347,2,0,P|409:280|313:306,1,200
222,360,20696,1,0,0:0:0:0:
28,66,20929,6,0,L|10:192,1,119.999996337891
146,46,21162,2,0,L|128:172,1,119.999996337891
486,350,21395,6,0,L|504:224,1,119.999996337891
368,370,21628,2,0,L|386:244,1,119.999996337891
236,0,21860,5,0,0:0:0:0:
279,88,21977,1,0,0:0:0:0:
246,157,22093,1,0,0:0:0:0:
266,203,22210,1,0,0:0:0:0:
243,286,22326,5,0,0:0:0:0:
289,277,22442,1,0,0:0:0:0:
245,273,22559,1,0,0:0:0:0:
282,285,22675,1,0,0:0:0:0:
178,340,22792,6,0,P|112:350|12:367,1,119.999996337891
344,175,23257,2,0,P|401:185|510:202,1,119.999996337891
278,366,23607,1,0,0:0:0:0:
278,366,23723,6,0,P|259:262|226:109,1,239.999992675781
149,285,24422,1,0,0:0:0:0:
512,177,24655,6,0,P|444:121|357:131,2,179.999994506836
381,384,25586,6,0,P|396:305|417:210,1,160
494,332,26285,1,0,0:0:0:0:
170,106,26517,6,0,P|99:178|0:160,2,209.999993591309
330,375,27449,6,0,P|248:275|115:298,2,269.999991760254
512,59,28380,6,0,P|474:146|247:131,2,330.000010070801
447,3,29312,6,0,P|400:12|350:24,1,100
154,232,30010,1,0,0:0:0:0:
181,30,30127,1,0,0:0:0:0:
85,138,30243,6,0,P|168:119|248:166,1,179.999994506836
29,54,30942,1,0,0:0:0:0:
512,220,31174,6,0,P|484:102|402:268,1,449.99998626709
428,176,31873,1,0,0:0:0:0:
428,176,31989,1,0,0:0:0:0:
397,354,32106,6,0,P|410:270|430:169,1,179.999994506836
283,384,32804,1,0,0:0:0:0:
221,93,33037,6,0,P|131:193|-1:169,1,279.999991455078
73,19,33736,2,0,P|83:56|99:125,1,69.9999978637696
309,15,33969,6,0,P|436:11|498:94,2,240
245,210,34900,6,0,P|234:151|220:92,1,119.999996337891
159,371,35832,6,0,B|151:211|326:174|418:255|363:388|256:341,1,419.999987182618
441,174,36763,6,0,B|531:62|433:-26|361:-17|224:119|430:254|474:144|474:307|427:378,1,539.999983520508
440,355,37578,1,0,0:0:0:0:
440,355,37694,6,0,P|381:342|322:331,1,119.999996337891
187,125,38160,2,0,P|246:114|304:101,1,119.999996337891
351,230,38509,1,0,0:0:0:0:
351,230,38626,6,0,B|227:204|260:319|130:289,1,239.999992675781
322,331,39324,1,0,0:0:0:0:
112,384,39557,6,0,P|102:290|87:205,2,179.999994506836
0,148,40489,6,0,P|64:103|141:116,1,160
87,205,41187,1,0,0:0:0:0:
458,302,41420,6,0,B|398:313|356:361|356:361|335:300|283:264,2,240
17,233,42351,6,0,B|77:190|101:114|101:114|150:177|226:194,2,300
508,40,43283,6,0,B|419:57|360:141|360:141|330:44|247:-6,2,359.999989013672
512,293,44214,6,0,P|500:243|489:187,1,100
301,336,44913,1,0,0:0:0:0:
348,149,45029,1,0,0:0:0:0:
400,286,45146,6,0,P|324:235|219:256,1,179.999994506836
490,195,45844,1,0,0:0:0:0:
17,125,46077,6,0,P|143:149|280:4,1,320
27,296,46776,1,0,0:0:0:0:
27,296,46892,1,0,0:0:0:0:
120,196,47008,6,0,P|127:286|139:391,1,179.999994506836
17,125,47707,1,0,0:0:0:0:
244,378,47940,6,0,P|258:200|276:22,1,349.999989318848
275,29,48638,1,0,0:0:0:0:
108,222,48871,6,0,P|54:264|-12:306,1,119.999996337891
386,207,49221,2,0,P|440:249|504:290,1,119.999996337891
270,370,49570,2,0,L|261:284,1,69.9999978637696
44,72,49803,6,0,P|88:137|120:209,1,150.000005722046
447,57,50152,2,0,P|403:122|371:194,1,150.000005722046
233,0,50502,1,0,0:0:0:0:
472,357,50734,6,0,P|381:358|317:295,1,179.999994506836
34,261,51200,6,0,P|108:275|233:177,1,240
512,101,51665,6,0,P|368:117|275:7,1,300
275,7,52131,6,0,L|261:128,1,100
247,255,52364,1,0,0:0:0:0:
247,255,52480,1,0,0:0:0:0:
404,305,52597,6,0,P|334:250|246:255,1,179.999994506836
7,188,52946,2,0,P|104:190|168:132,1,179.999994506836
60,67,53295,1,0,0:0:0:0:
60,67,53412,1,0,0:0:0:0:
210,32,53528,6,0,L|414:-1,1,179.999994506836
512,163,53878,2,0,L|311:128,1,179.999994506836
248,209,54227,2,0,L|254:308,1,89.9999972534181
356,384,54460,6,0,B|400:335|400:335|361:161,1,179.999994506836
128,224,54809,2,0,B|104:335|104:335|148:384,1,179.999994506836
254,299,55158,1,0,0:0:0:0:
254,299,55275,1,0,0:0:0:0:
0,310,55391,6,0,P|18:222|41:121,1,179.999994506836
168,13,55740,2,0,P|186:97|209:202,1,179.999994506836
339,282,56090,2,0,P|348:232|362:162,1,89.9999972534181
490,30,56323,6,0,P|409:79|307:50,1,179.999994506836
178,247,56672,2,0,P|265:234|339:282,1,179.999994506836
237,338,57021,1,0,0:0:0:0:
237,338,57137,1,0,0:0:0:0:
65,211,57254,6,0,P|93:296|114:383,1,179.999994506836
333,198,57603,2,0,P|352:110|381:25,1,179.999994506836
24,64,57952,2,0,P|63:59|117:51,1,89.9999972534181
382,26,58185,6,0,P|247:38|113:53,1,269.999991760254
417,114,58651,6,0,P|252:132|89:151,1,330.000010070801
454,203,59117,6,0,P|260:223|66:246,1,389.999982147218
489,292,59582,6,0,P|263:316|38:344,1,450.000017166138
42,344,60048,6,0,B|8:261|8:261|82:159,1,179.999994506836
260,32,60397,2,0,B|294:115|294:115|220:217,1,179.999994506836
175,99,60747,1,0,0:0:0:0:
175,99,60863,1,0,0:0:0:0:
345,269,60980,6,0,P|256:286|169:308,1,179.999994506836
336,123,61329,2,0,P|423:144|511:162,1,179.999994506836
475,357,61678,2,0,L|458:268,1,89.9999972534181
315,24,61911,6,0,L|283:207,1,179.999994506836
140,380,62260,2,0,L|104:196,1,179.999994506836
18,125,62610,1,0,0:0:0:0:
18,125,62726,1,0,0:0:0:0:
82,38,62842,6,0,P|151:102|258:94,1,179.999994506836
466,148,63192,2,0,P|378:153|314:214,1,179.999994506836
229,380,63541,2,0,L|209:254,1,89.9999972534181
169,6,63774,6,0,P|183:94|200:203,1,200
435,346,64123,2,0,P|450:247|466:148,1,200
489,34,64472,2,0,P|437:50|360:72,1,100
0,135,64705,6,0,P|107:143|202:205,1,220.000006713867
332,384,65054,1,0,0:0:0:0:
332,384,65171,6,0,L|295:34,1,330.000010070801
25,219,65637,2,0,P|82:225|135:266,1,110.000003356934
332,384,65869,1,0,0:0:0:0:
314,213,65986,1,0,0:0:0:0:
460,279,66102,6,0,L|356:291,1,100
45,319,66452,1,0,0:0:0:0:
460,279,66568,6,0,L|239:304,1,172.500003290176
172,307,66801,1,0,0:0:0:0:
479,170,66917,6,0,L|220:199,1,240
122,212,67150,1,0,0:0:0:0:
498,62,67267,6,0,L|173:98,1,300
72,103,67499,6,0,P|89:50|101:-1,1,104.999996795654
16,278,67965,6,0,B|153:325|66:172|277:199|268:333|215:301|228:423|441:414|315:265|487:325,1,525.00000500679
475,322,68431,6,0,P|478:259|449:204,1,125
338,166,68664,1,0,0:0:0:0:
512,108,68780,1,0,0:0:0:0:
494,7,68897,2,0,P|438:35|404:87,1,125
367,250,69129,1,0,0:0:0:0:
283,281,69246,1,0,0:0:0:0:
204,240,69362,6,0,P|192:174|172:101,1,125
468,226,69595,2,0,P|452:286|441:347,1,125
113,337,69828,6,0,L|236:360,1,125
512,108,70061,2,0,L|390:133,1,125
310,234,70294,5,0,0:0:0:0:
288,10,70410,2,0,L|300:134,1,125
325,383,70643,2,0,L|295:87,1,250
183,99,70992,1,0,0:0:0:0:
406,77,71109,1,0,0:0:0:0:
127,213,71225,6,0,P|56:116|102:3,1,250
406,77,71574,1,0,0:0:0:0:
183,99,71691,2,0,L|336:82,1,125
510,222,71924,1,0,0:0:0:0:
510,222,72040,1,0,0:0:0:0:
510,222,72156,6,0,B|456:211|420:170|420:170|406:249|337:301,1,250
466,322,72506,1,0,0:0:0:0:
268,374,72622,6,0,P|239:319|255:231,1,125
143,0,72855,1,0,0:0:0:0:
237,60,72971,1,0,0:0:0:0:
137,120,73088,6,0,P|68:100|26:42,1,125
117,257,73321,2,0,P|48:280|-18:255,1,125
373,208,73554,6,0,P|442:188|484:130,1,125
395,343,73787,2,0,P|462:365|530:341,1,125
268,376,74019,5,0,0:0:0:0:
241,297,74136,1,0,0:0:0:0:
289,215,74252,1,0,0:0:0:0:
232,114,74369,1,0,0:0:0:0:
356,0,74485,5,0,0:0:0:0:
144,28,74601,1,0,0:0:0:0:
367,25,74718,1,0,0:0:0:0:
135,0,74834,1,0,0:0:0:0:
251,250,74951,6,0,L|261:171,1,75
0,232,75416,6,0,B|528:173,1,510.000009727478
467,351,75882,6,0,L|335:322,1,125
186,136,76115,1,0,0:0:0:0:
81,255,76231,1,0,0:0:0:0:
194,247,76348,6,0,B|220:292|220:292|197:388,1,125
69,147,76581,2,0,B|43:102|43:102|66:6,1,125
512,50,76814,6,0,P|449:71|414:126,1,125
281,55,77046,2,0,P|281:121|322:171,1,125
285,356,77279,6,0,P|222:335|187:280,1,125
54,325,77511,2,0,P|54:258|95:208,1,125
98,3,77745,5,0,0:0:0:0:
0,114,77861,2,0,P|61:104|124:98,1,125
186,211,78094,2,0,P|247:61|168:-23,1,250
54,325,78443,1,0,0:0:0:0:
54,325,78560,1,0,0:0:0:0:
54,325,78676,6,0,P|177:340|316:372,1,250
484,282,79026,1,0,0:0:0:0:
405,369,79142,6,0,P|392:308|376:248,1,125
499,5,79375,2,0,P|453:46|410:92,1,125
267,234,79608,1,0,0:0:0:0:
344,163,79724,1,0,0:0:0:0:
123,97,79841,2,0,P|182:116|243:133,1,125
507,202,80073,5,0,0:0:0:0:
0,250,80306,1,0,0:0:0:0:
153,290,80539,6,0,L|174:166,1,125
355,104,80772,2,0,L|336:227,1,125
494,358,81005,6,0,L|475:234,1,125
21,33,81238,2,0,L|39:156,1,125
272,375,81471,5,0,0:0:0:0:
248,33,81703,5,0,0:0:0:0:
248,33,81780,5,0,0:0:0:0:
248,33,81858,5,0,0:0:0:0:
248,33,81936,5,0,0:0:0:0:
166,213,82169,6,0,B|135:203|135:203|162:191,1,62.5
349,177,82286,2,0,B|380:187|380:187|352:198,1,62.5
255,153,82402,6,0,L|261:227,1,75
243,375,82868,6,0,B|251:311|251:311|236:276|236:276|244:216|244:216|269:188|269:188|278:132|278:132|264:95|264:95|274:-9,1,375
486,58,83333,6,0,P|429:83|367:79,1,125
143,12,83566,1,0,0:0:0:0:
105,228,83683,1,0,0:0:0:0:
68,121,83799,2,0,P|130:116|185:141,1,125
499,373,84032,1,0,0:0:0:0:
499,373,84265,6,0,B|529:313|529:313|511:243,1,135.000000514984
347,230,84498,2,0,B|316:289|316:289|334:359,1,135.000000514984
224,52,84731,6,0,B|251:114|251:114|234:179,1,135.000000514984
27,200,84964,2,0,B|-1:136|-1:136|14:71,1,135.000000514984
143,294,85196,5,0,0:0:0:0:
108,0,85313,2,0,L|123:133,1,135.000000514984
469,303,85545,6,0,B|396:295|396:295|349:250|349:250|265:344|265:344|218:300|218:300|117:291,1,405.000001544952
143,294,86011,1,0,0:0:0:0:
185,59,86128,6,0,B|267:4|267:4|252:204,1,270.000001029968
67,365,86477,1,0,0:0:0:0:
67,365,86593,2,0,B|36:323|36:323|55:222,1,135.000000514984
497,174,86826,5,0,0:0:0:0:
15,148,87059,1,0,0:0:0:0:
263,16,87292,5,0,0:0:0:0:
259,103,87408,1,0,0:0:0:0:
254,190,87525,1,0,0:0:0:0:
250,277,87641,1,0,0:0:0:0:
245,364,87758,1,0,0:0:0:0:
373,286,87990,6,0,L|505:313,1,135.000000514984
144,295,88223,2,0,L|11:322,1,135.000000514984
512,70,88456,6,0,L|379:97,1,135.000000514984
5,70,88689,2,0,L|137:97,1,135.000000514984
266,383,88922,5,0,0:0:0:0:
245,0,89271,1,0,0:0:0:0:
