osu file format v14

[General]
AudioFilename: audio.mp3
AudioLeadIn: 0
PreviewTime: 67479
Countdown: 0
SampleSet: Soft
StackLeniency: 0.3
Mode: 0
LetterboxInBreaks: 0
WidescreenStoryboard: 1

[Editor]
DistanceSpacing: 0.7
BeatDivisor: 4
GridSize: 32
TimelineZoom: 4.499998

[Metadata]
Title:Zankoku na Tenshi no These
TitleUnicode:残酷な天使のテーゼ
Artist:Yoko Takahashi
ArtistUnicode:高橋洋子
Creator:Moge-ko
Version:Normal
Source:新世紀エヴァンゲリオン
Tags:Neon Genesis Evangelion Anime TV Size A Cruel Angel's Thesis Angel Shirō Sagisu HydroCannon13
BeatmapID:1618408
BeatmapSetID:769703

[Difficulty]
HPDrainRate:3
CircleSize:3
OverallDifficulty:3
ApproachRate:5
SliderMultiplier:1.2
SliderTickRate:1

[Events]
//Background and Video events
0,0,"bg.jpg",0,0
//Break Periods
//Storyboard Layer 0 (Background)
//Storyboard Layer 1 (Fail)
//Storyboard Layer 2 (Pass)
//Storyboard Layer 3 (Foreground)
//Storyboard Sound Samples

[TimingPoints]
1507,857.142857142857,4,2,0,15,1,0
1507,-90.6043308870164,4,2,0,15,0,0
2364,606.060606060606,4,2,0,15,1,0
2970,588.235294117647,4,2,0,15,1,0
4146,666.666666666667,4,2,0,15,1,0
4479,750,4,2,0,15,1,0
5979,857.142857142857,4,2,0,15,1,0
6193,750,4,2,0,15,1,0
7505,750,4,2,0,15,1,0
7505,-90.6043308870164,4,2,0,15,0,0
10505,705.882352941176,4,2,0,15,1,0
11210,833.333333333333,4,2,0,15,1,0
11626,789.473684210526,4,2,0,15,1,0
12020,750,4,2,0,15,1,0
12582,916.030534351145,4,2,0,15,1,0
14414,451.127819548872,4,3,0,45,1,0
14865,476.190476190476,4,3,0,45,1,0
15341,465.704727679161,4,2,1,35,1,0
18484,-100,4,2,1,35,0,0
18600,-100,4,2,1,35,0,0
22792,-125,4,2,1,35,0,0
52597,-100,4,2,1,35,0,0
67499,-83.3333333333333,4,2,1,55,0,1
89388,-83.3333333333333,4,2,1,55,0,0

[Colours]
Combo1 : 173,182,211
Combo2 : 139,129,199
Combo3 : 218,200,97

[HitObjects]
122,144,1507,6,0,B|58:136|-21:216|34:344|138:344|188:307|188:307|224:279|282:287|314:317|314:317|277:240|310:174|431:114|499:209|498:275|476:305,1,840,2|0,0:0|0:0,0:0:0:0:
394,272,7505,6,0,B|358:201|402:149|402:149|453:94|412:27|412:27|332:28|309:95|309:95|256:53|185:69,1,529.77599366639,2|2,0:0|0:0,0:0:0:0:
256,192,12020,12,8,14414,0:0:0:0:
40,51,15341,6,0,P|48:47|164:51,1,120,4|8,1:2|0:0,0:0:0:0:
265,95,16272,2,0,L|256:-3,2,90,0|0|2,1:0|0:0|0:0,0:0:0:0:
240,149,17203,6,0,P|257:144|303:149,1,60,0|2,1:0|0:0,0:0:0:0:
342,167,17669,2,0,P|359:171|405:167,1,60,8|2,0:0|0:0,0:0:0:0:
444,148,18135,2,0,L|434:258,1,90,0|0,1:0|0:0,0:0:0:0:
330,343,19066,6,0,P|272:327|214:338,1,120,0|8,1:0|0:0,0:0:0:0:
107,282,19998,2,0,L|98:380,2,90,0|0|2,1:0|0:0|0:0,0:0:0:0:
86,225,20929,6,0,P|103:229|149:225,1,60,8|10,0:0|0:0,0:0:0:0:
190,210,21395,2,0,P|207:205|253:210,1,60,8|10,0:0|0:0,0:0:0:0:
290,232,21860,2,0,L|280:121,1,90,10|2,1:3|0:3,0:0:0:0:
334,34,22792,6,0,L|308:328,1,288,4|0,1:0|1:0,0:0:0:0:
221,281,24655,2,0,P|113:276|129:123,1,288,2|0,1:0|1:0,0:0:0:0:
169,205,26517,6,0,B|216:180|262:201,1,96,2|0,1:0|1:0,0:0:0:0:
329,268,27449,2,0,B|376:293|422:272,1,96,2|0,1:0|1:0,0:0:0:0:
489,204,28380,2,0,P|450:92|379:192,1,288,2|0,1:0|1:0,0:0:0:0:
421,272,30243,6,0,L|326:278,1,96,2|0,1:0|1:0,0:0:0:0:
257,346,31174,2,0,L|162:339,1,96,2|0,1:0|1:0,0:0:0:0:
93,271,32106,6,0,B|68:224|89:178,1,96,2|0,1:0|1:0,0:0:0:0:
156,110,33037,2,0,B|177:64|152:17,1,96,2|0,1:0|1:0,0:0:0:0:
71,69,33969,6,0,B|232:85|232:85|266:51|317:44|361:70,1,288,2|0,1:0|1:0,0:0:0:0:
308,159,35832,6,0,L|321:310,1,144,4|0,1:0|0:0,0:0:0:0:
324,340,36763,2,0,P|256:318|187:337,1,144,4|2,1:0|3:0,0:0:0:0:
157,361,37694,6,0,B|202:301|153:228|153:228|106:158|156:92,1,288,4|0,0:0|1:0,0:0:0:0:
221,163,39557,2,0,B|288:205|357:157|357:157|433:109|497:165,1,288,2|0,1:0|1:0,0:0:0:0:
425,230,41420,6,0,B|446:276|421:323,1,96,2|0,1:0|1:0,0:0:0:0:
349,376,42351,2,0,L|254:369,1,96,2|0,1:0|1:0,0:0:0:0:
189,309,43283,2,0,P|153:238|303:154,1,288,2|0,1:0|1:0,0:0:0:0:
383,192,45146,6,0,B|404:146|379:99,1,96,2|0,1:0|1:0,0:0:0:0:
311,31,46077,2,0,L|216:37,1,96,2|0,1:0|1:0,0:0:0:0:
147,105,47008,6,0,B|126:151|151:198,1,96,2|0,1:0|1:0,0:0:0:0:
238,237,47940,2,0,B|259:191|234:144,1,96,2|0,1:0|1:0,0:0:0:0:
150,197,48871,6,0,P|126:253|151:329,1,144,2|0,1:0|0:0,0:0:0:0:
174,352,49803,2,0,L|269:344,1,96,0|0,1:0|1:0,0:0:0:0:
373,331,50734,5,4,1:0:0:0:
279,310,51200,1,4,0:0:0:0:
344,239,51665,1,4,1:0:0:0:
438,260,52131,1,4,0:0:0:0:
409,168,52597,6,0,P|366:93|422:31,1,180,4|2,0:0|0:0,0:0:0:0:
467,21,53528,2,0,L|280:5,1,180,0|2,1:0|0:0,0:0:0:0:
246,1,54460,6,0,B|270:56|270:56|248:112,1,120,0|8,1:0|0:0,0:0:0:0:
213,205,55391,2,0,B|180:288|180:288|216:370,1,180,0|2,1:0|0:0,0:0:0:0:
265,355,56323,6,0,B|304:336|353:352|353:352|404:371|454:345,1,180,0|2,1:0|0:0,0:0:0:0:
481,326,57254,2,0,P|497:252|462:210,1,120,0|8,1:0|0:0,0:0:0:0:
377,206,58185,5,0,1:0:0:0:
419,93,58651,1,8,0:0:0:0:
324,18,59117,1,2,0:0:0:0:
223,84,59582,1,8,0:0:0:0:
255,200,60048,6,0,L|68:184,1,180,4|2,1:1|0:0,0:0:0:0:
28,176,60980,2,0,B|-10:263|-10:263|24:351,1,180,0|2,1:0|0:0,0:0:0:0:
39,384,61911,6,0,L|158:373,1,120,0|8,1:0|0:0,0:0:0:0:
266,363,62842,2,0,P|302:307|222:251,1,180,0|2,1:0|0:0,0:0:0:0:
183,272,63774,6,0,B|221:185|221:185|187:97,1,180,0|2,1:0|0:0,0:0:0:0:
175,59,64705,2,0,L|304:70,1,120,0|8,1:0|0:0,0:0:0:0:
413,84,65637,6,0,B|375:171|375:171|409:259,1,180,4|0,0:1|0:0,0:0:0:0:
424,294,66568,2,0,L|325:284,2,90,4|4|4,0:0|0:0|0:0,0:0:0:0:
471,300,67499,5,0,1:0:0:0:
391,180,67965,1,8,0:0:0:0:
255,230,68431,2,0,P|240:285|255:340,2,107.999996704102,0|0|2,1:0|0:0|0:0,0:0:0:0:
285,189,69362,6,0,L|134:202,1,143.999995605469,0|8,1:0|0:0,0:0:0:0:
91,201,70061,1,2,0:0:0:0:
48,174,70294,2,0,P|33:119|48:64,1,107.999996704102,0|0,1:0|0:0,0:0:0:0:
211,2,71225,5,0,1:0:0:0:
129,120,71691,1,8,0:0:0:0:
230,221,72156,2,0,L|220:328,2,107.999996704102,0|0|2,1:0|0:0|0:0,0:0:0:0:
195,184,73088,6,0,P|233:190|271:184,1,71.9999978027344,0|2,1:0|0:0,0:0:0:0:
314,172,73554,2,0,P|352:166|390:172,1,71.9999978027344,8|2,0:0|0:0,0:0:0:0:
431,191,74019,2,0,P|446:142|427:81,1,107.999996704102,0|2,1:0|0:3,0:0:0:0:
256,45,74951,5,0,1:0:0:0:
314,172,75416,1,8,1:0:0:0:
212,273,75882,2,0,P|197:218|212:163,2,107.999996704102,0|0|2,1:0|0:0|0:0,0:0:0:0:
240,314,76814,6,0,P|202:308|164:314,1,71.9999978027344,0|2,1:0|0:0,0:0:0:0:
120,328,77279,2,0,P|82:334|44:328,1,71.9999978027344,8|2,0:0|0:0,0:0:0:0:
10,297,77745,2,0,P|-5:242|10:187,1,107.999996704102,0|0,1:0|0:0,0:0:0:0:
173,126,78676,5,0,1:0:0:0:
42,64,79142,1,8,0:0:0:0:
189,24,79608,2,0,P|244:39|299:24,2,107.999996704102,0|0|2,1:0|0:0|0:0,0:0:0:0:
141,6,80539,5,4,1:1:0:0:
147,56,80772,1,4,1:1:0:0:
152,97,81005,2,0,P|157:135|146:169,1,71.9999978027344,12|12,0:0|0:0,0:0:0:0:
122,204,81471,2,0,L|229:192,1,107.999996704102,0|8,1:0|0:3,0:0:0:0:
390,166,82402,5,4,0:1:0:0:
324,50,82868,1,12,0:0:0:0:
468,112,83333,2,0,P|483:167|468:222,2,107.999996704102,0|0|2,0:1|0:0|0:0,0:0:0:0:
441,71,84265,6,0,P|403:77|365:71,1,71.9999978027344,0|2,1:0|0:0,0:0:0:0:
324,50,84731,2,0,P|286:44|248:50,1,71.9999978027344,8|2,0:0|0:0,0:0:0:0:
217,85,85196,2,0,L|207:193,1,107.999996704102,0|2,1:0|0:3,0:0:0:0:
190,373,86128,5,0,1:0:0:0:
329,303,86593,2,0,P|333:268|327:232,1,71.9999978027344,8|2,0:0|0:3,0:0:0:0:
309,185,87059,2,0,P|305:150|311:115,1,71.9999978027344,8|2,0:0|0:3,0:0:0:0:
339,72,87525,1,2,0:3:0:0:
221,155,87990,5,8,0:0:0:0:
172,166,88223,1,8,0:0:0:0:
123,153,88456,2,0,P|89:138|62:115,1,71.9999978027344,8|8,0:0|0:0,0:0:0:0:
33,74,88922,6,0,P|40:132|30:189,1,107.999996704102,8|8,0:0|0:0,0:0:0:0:
