osu file format v14

[General]
AudioFilename: audio.mp3
AudioLeadIn: 0
PreviewTime: 67479
Countdown: 0
SampleSet: Soft
StackLeniency: 0.2
Mode: 0
LetterboxInBreaks: 0
WidescreenStoryboard: 0

[Editor]
Bookmarks: 38164
DistanceSpacing: 2
BeatDivisor: 4
GridSize: 32
TimelineZoom: 2.599999

[Metadata]
Title:Zankoku na Tenshi no These
TitleUnicode:残酷な天使のテーゼ
Artist:Yoko Takahashi
ArtistUnicode:高橋洋子
Creator:Moge-ko
Version:Insane
Source:新世紀エヴァンゲリオン
Tags:Neon Genesis Evangelion Anime TV Size A Cruel Angel's Thesis Angel Shirō Sagisu HydroCannon13
BeatmapID:1618407
BeatmapSetID:769703

[Difficulty]
HPDrainRate:6
CircleSize:4
OverallDifficulty:8
ApproachRate:8.8
SliderMultiplier:2
SliderTickRate:1

[Events]
//Background and Video events
0,0,"bg.jpg",0,0
//Break Periods
//Storyboard Layer 0 (Background)
//Storyboard Layer 1 (Fail)
//Storyboard Layer 2 (Pass)
//Storyboard Layer 3 (Foreground)
//Storyboard Sound Samples

[TimingPoints]
1507,857.142857142857,4,2,0,15,1,0
1507,-133.333333333333,4,2,0,15,0,0
2364,606.060606060606,4,2,0,15,1,0
2970,588.235294117647,4,2,0,15,1,0
2970,-133.333333333333,4,2,0,15,0,0
4146,666.666666666667,4,2,0,15,1,0
4479,750,4,2,0,15,1,0
4479,-133.333333333333,4,2,0,15,0,0
5979,857.142857142857,4,2,0,15,1,0
6193,750,4,2,0,15,1,0
6193,-133.333333333333,4,2,0,15,0,0
7505,750,4,2,0,15,1,0
7505,-133.333333333333,4,2,0,15,0,0
10505,705.882352941176,4,2,0,15,1,0
10505,-133.333333333333,4,2,0,15,0,0
11210,833.333333333333,4,2,0,15,1,0
11210,-133.333333333333,4,2,0,15,0,0
11626,789.473684210526,4,2,0,15,1,0
12020,750,4,2,0,15,1,0
12020,-133.333333333333,4,2,0,15,0,0
12582,916.030534351145,4,2,0,15,1,0
14414,451.127819548872,4,3,0,45,1,0
14865,476.190476190476,4,3,0,45,1,0
15341,465.704727679161,4,2,1,35,1,0
15341,-100,4,2,1,35,0,0
18484,-100,4,2,1,35,0,0
18600,-100,4,2,1,35,0,0
22792,-133.333333333333,4,2,1,35,0,0
52597,-100,4,2,1,35,0,0
58185,-83.3333333333333,4,2,1,35,0,0
58651,-71.4285714285714,4,2,1,35,0,0
59117,-62.5,4,2,1,35,0,0
59582,-55.5555555555556,4,2,1,35,0,0
60048,-100,4,2,1,35,0,0
65637,-133.333333333333,4,2,1,35,0,0
66568,-100,4,2,1,35,0,0
66917,-66.6666666666667,4,2,1,35,0,0
67267,-50,4,2,1,35,0,0
67499,-100,4,2,1,55,0,1
67965,-40,4,2,1,55,0,1
68431,-100,4,2,1,55,0,1
75416,-40,4,2,1,55,0,1
75882,-100,4,2,1,55,0,1
82868,-40,4,2,1,55,0,1
83333,-100,4,2,1,55,0,1
89388,-100,4,2,1,55,0,0

[Colours]
Combo1 : 173,182,211
Combo2 : 139,129,199
Combo3 : 218,200,97

[HitObjects]
80,51,1507,6,0,P|93:44|228:50,1,150.000005722046,2|2,0:0|0:0,0:0:0:0:
318,130,2970,2,0,P|362:160|446:128,2,150.000005722046,2|2|2,0:0|0:0|0:0,0:0:0:0:
382,86,4479,6,0,L|368:237,1,150.000005722046,2|2,0:0|0:0,0:0:0:0:
358,341,5604,1,2,0:0:0:0:
462,178,5979,1,2,0:0:0:0:
459,185,6193,1,2,0:0:0:0:
369,236,6568,2,0,L|239:223,1,112.500004291535,2|0,0:0|0:0,0:0:0:0:
151,292,7505,6,0,P|144:279|155:149,1,150.000005722046,2|2,0:0|0:0,0:0:0:0:
254,48,9005,2,0,L|142:59,2,112.500004291535,2|0|2,0:0|0:0|0:0,0:0:0:0:
322,116,10505,6,0,L|401:122,1,75.0000028610231,2|0,0:0|0:0,0:0:0:0:
471,82,11210,2,0,P|480:122|472:157,1,75.0000028610231,2|2,0:0|0:0,0:0:0:0:
414,216,12020,6,0,L|339:222,1,75.0000028610231,2|0,0:0|0:0,0:0:0:0:
310,228,12582,2,0,B|391:222|428:320|374:379|310:371|277:353|277:353|238:332|190:351,1,350,2|0,0:0|0:0,0:0:0:0:
120,374,14414,5,8,0:0:0:0:
128,304,14526,1,8,0:0:0:0:
136,234,14639,1,8,0:0:0:0:
144,164,14752,1,8,0:0:0:0:
152,94,14865,1,0,0:0:0:0:
312,228,15103,5,4,0:0:0:0:
359,246,15222,1,4,0:0:0:0:
408,236,15341,6,0,P|433:229|507:236,1,100,4|2,1:2|0:0,0:0:0:0:
439,104,15806,2,0,P|390:112|341:103,1,100,8|2,0:0|0:0,0:0:0:0:
254,3,16155,1,2,0:3:0:0:
253,14,16272,6,0,L|240:165,2,150,0|0|2,1:0|0:0|0:0,0:0:0:0:
341,103,17203,5,0,1:0:0:0:
240,163,17436,1,2,0:0:0:0:
442,43,17669,5,8,0:0:0:0:
324,286,17902,2,0,L|380:282,1,50,2|0,0:0|0:0,0:0:0:0:
472,274,18135,5,0,1:0:0:0:
387,252,18251,1,0,0:0:0:0:
471,374,18484,5,0,0:0:0:0:
476,368,18600,2,0,P|488:321|472:274,1,100,8|2,0:0|0:0,0:0:0:0:
337,9,19066,6,0,P|324:56|341:103,1,100,0|2,1:0|0:0,0:0:0:0:
512,194,19532,2,0,L|403:183,1,100,8|2,0:0|0:0,0:0:0:0:
240,163,19881,1,2,0:3:0:0:
234,169,19998,2,0,P|209:238|227:310,2,150,0|0|2,1:0|0:0|0:0,0:0:0:0:
438,103,20929,5,8,0:0:0:0:
75,146,21162,1,10,0:0:0:0:
318,240,21395,5,8,0:0:0:0:
254,3,21628,1,10,0:0:0:0:
337,275,21860,6,0,P|337:248|345:222,1,50,10|2,1:3|0:3,0:0:0:0:
472,249,22093,1,2,0:3:0:0:
472,274,22210,1,2,0:3:0:0:
466,298,22326,2,0,L|452:143,1,150,8|8,1:3|0:3,0:0:0:0:
449,111,22792,5,4,1:0:0:0:
335,12,23257,6,0,P|329:48|335:85,1,75.0000028610231,0|0,1:0|0:0,0:0:0:0:
373,179,23723,2,0,L|210:164,1,150.000005722046,0|0,1:0|1:0,0:0:0:0:
126,155,24422,1,0,0:0:0:0:
56,265,24655,6,0,P|107:243|163:245,2,112.500004291535,2|0|0,1:0|0:0|0:0,0:0:0:0:
16,335,25586,2,0,L|31:172,1,150.000005722046,0|0,1:0|1:0,0:0:0:0:
42,88,26285,1,0,0:0:0:0:
121,144,26517,2,0,P|138:92|122:34,2,112.500004291535,2|0|0,1:0|0:0|0:0,0:0:0:0:
190,213,27449,2,0,P|173:265|189:323,2,112.500004291535,2|0|0,1:0|0:0|0:0,0:0:0:0:
370,259,28380,6,0,L|257:268,2,112.500004291535,2|0|0,1:0|0:0|0:0,0:0:0:0:
439,189,29312,2,0,L|276:174,1,150.000005722046,0|0,1:0|1:0,0:0:0:0:
192,166,30010,5,2,0:0:0:0:
269,140,30127,1,0,0:0:0:0:
208,87,30243,2,0,L|64:100,2,112.500004291535,2|0|0,1:0|0:0|0:0,0:0:0:0:
269,140,31174,2,0,P|288:70|244:11,1,150.000005722046,2|0,1:0|1:0,0:0:0:0:
192,166,31873,5,0,0:0:0:0:
253,219,31989,1,0,0:0:0:0:
329,192,32106,2,0,L|472:205,2,112.500004291535,2|0|0,1:0|0:0|0:0,0:0:0:0:
253,219,33037,2,0,P|234:289|280:347,1,150.000005722046,2|0,1:0|1:0,0:0:0:0:
311,273,33736,1,0,0:0:0:0:
278,346,33969,6,0,L|165:335,2,112.500004291535,2|0|0,1:0|0:0|0:0,0:0:0:0:
460,260,34900,2,0,L|310:273,1,150.000005722046,0|0,1:0|1:0,0:0:0:0:
41,152,35832,6,0,P|112:129|183:147,1,150.000005722046,4|0,1:0|1:0,0:0:0:0:
253,219,36530,1,0,0:0:0:0:
477,81,36763,2,0,P|406:104|333:84,1,150.000005722046,4|0,1:0|1:0,0:0:0:0:
257,8,37461,1,2,3:0:0:0:
260,18,37578,1,2,3:0:0:0:
263,28,37694,5,4,0:0:0:0:
183,220,38160,6,0,P|189:184|183:147,1,75.0000028610231,0|0,1:0|0:0,0:0:0:0:
113,15,38626,2,0,L|263:28,1,150.000005722046,0|0,1:0|1:0,0:0:0:0:
387,39,39324,1,0,0:0:0:0:
315,127,39557,6,0,P|298:179|314:237,2,112.500004291535,2|0|0,1:0|0:0|0:0,0:0:0:0:
387,306,40489,2,0,P|316:329|243:309,1,150.000005722046,0|0,1:0|1:0,0:0:0:0:
183,220,41187,1,0,0:0:0:0:
139,315,41420,6,0,P|87:298|33:310,2,112.500004291535,2|0|0,1:0|0:0|0:0,0:0:0:0:
183,220,42351,2,0,L|294:230,1,112.500004291535,2|0,1:0|0:0,0:0:0:0:
361,140,43050,1,0,0:0:0:0:
120,161,43283,6,0,L|7:172,2,112.500004291535,2|0|0,1:0|0:0|0:0,0:0:0:0:
169,89,44214,2,0,P|206:151|183:220,1,150.000005722046,0|0,1:0|1:0,0:0:0:0:
120,279,44913,1,0,0:0:0:0:
197,305,45029,1,0,0:0:0:0:
275,332,45146,6,0,L|284:219,2,112.500004291535,2|0|0,1:0|0:0|0:0,0:0:0:0:
182,220,46077,2,0,L|169:70,1,150.000005722046,2|0,1:0|1:0,0:0:0:0:
257,0,46776,5,0,0:0:0:0:
194,53,46892,1,0,0:0:0:0:
272,81,47008,2,0,L|410:68,2,112.500004291535,2|0|0,1:0|0:0|0:0,0:0:0:0:
410,158,47940,2,0,P|384:226|410:299,1,150.000005722046,2|0,1:0|1:0,0:0:0:0:
480,354,48638,1,0,0:0:0:0:
289,377,48871,6,0,L|300:266,2,112.500004291535,2|0|0,1:0|0:0|0:0,0:0:0:0:
201,306,49803,2,0,P|149:289|91:305,2,112.500004291535,0|0|0,1:0|0:0|0:0,0:0:0:0:
300,266,50734,6,0,L|307:187,1,75.0000028610231,4|0,1:0|0:0,0:0:0:0:
170,69,51200,2,0,L|177:147,1,75.0000028610231,4|0,0:0|0:0,0:0:0:0:
436,105,51665,6,0,P|402:111|361:104,1,75.0000028610231,4|0,1:0|0:0,0:0:0:0:
48,230,52131,2,0,P|82:224|123:231,1,75.0000028610231,4|2,0:0|0:3,0:0:0:0:
185,270,52480,1,2,0:3:0:0:
227,332,52597,6,0,P|213:281|235:225,1,100,4|2,0:0|0:0,0:0:0:0:
291,284,52946,2,0,P|342:297|379:344,1,100,0|0,0:0|0:0,0:0:0:0:
300,365,53295,1,2,0:0:0:0:
498,144,53528,6,0,P|512:195|490:251,1,100,0|2,1:0|0:0,0:0:0:0:
434,191,53878,2,0,P|383:178|346:131,1,100,0|0,0:0|0:0,0:0:0:0:
425,113,54227,1,2,0:0:0:0:
226,237,54460,6,0,P|218:182|238:130,1,100,0|2,1:0|0:0,0:0:0:0:
323,15,54809,2,0,P|279:49|224:58,1,100,0|0,0:0|0:0,0:0:0:0:
82,42,55158,1,2,0:0:0:0:
91,50,55275,1,2,0:3:0:0:
100,58,55391,6,0,P|117:105|110:155,1,100,0|2,1:0|0:0,0:0:0:0:
120,255,55740,2,0,P|69:246|30:214,1,100,0|0,0:0|0:0,0:0:0:0:
22,116,56090,1,2,0:0:0:0:
370,69,56323,6,0,P|352:116|359:166,1,100,0|2,1:0|0:0,0:0:0:0:
350,266,56672,2,0,P|400:257|439:225,1,100,0|0,0:0|0:0,0:0:0:0:
448,127,57022,1,2,0:0:0:0:
273,331,57254,6,0,P|249:258|278:192,2,150,0|0|2,1:0|0:0|0:0,0:0:0:0:
28,175,58185,6,0,P|48:166|144:178,1,119.999996337891,0|2,1:0|0:0,0:0:0:0:
369,151,58651,6,0,P|345:160|234:146,1,139.999995727539,8|2,0:0|0:0,0:0:0:0:
128,6,59000,1,2,0:3:0:0:
129,17,59117,6,0,L|142:176,1,160,2|2,0:0|0:3,0:0:0:0:
219,326,59582,6,0,L|234:145,1,179.999994506836,8|2,0:0|0:0,0:0:0:0:
495,271,59932,1,2,0:3:0:0:
487,265,60048,6,0,P|467:254|336:272,2,150,4|0|2,1:1|0:0|0:0,0:0:0:0:
435,28,60980,2,0,P|424:68|435:133,1,100,0|2,1:0|0:0,0:0:0:0:
451,153,61329,2,0,L|338:143,1,100,0|0,0:0|0:0,0:0:0:0:
320,141,61678,1,2,0:0:0:0:
46,284,61911,6,0,P|57:244|46:179,1,100,0|2,1:0|0:0,0:0:0:0:
30,159,62260,2,0,L|142:168,1,100,0|0,0:0|0:0,0:0:0:0:
161,171,62610,1,2,0:0:0:0:
345,264,62842,2,0,L|195:277,2,150,0|0|2,1:0|0:0|0:0,0:0:0:0:
414,116,63774,6,0,P|423:167|414:216,1,100,0|2,1:0|0:0,0:0:0:0:
508,348,64123,2,0,P|459:330|421:298,1,100,0|0,0:0|0:0,0:0:0:0:
302,288,64472,2,0,P|320:271|344:263,1,50,2|2,0:0|0:3,0:0:0:0:
258,365,64705,2,0,L|157:357,1,100,0|2,1:0|0:0,0:0:0:0:
48,287,65054,1,0,0:0:0:0:
56,283,65171,2,0,P|92:241|83:147,1,150,8|2,0:0|0:3,0:0:0:0:
7,202,65637,6,0,L|238:222,1,225.000008583069,4|0,0:1|0:0,0:0:0:0:
259,224,66452,1,0,0:0:0:0:
287,227,66568,6,0,P|272:176|287:132,1,100,4|8,0:0|0:0,0:0:0:0:
364,265,66917,6,0,P|319:307|236:295,1,150,4|8,0:0|0:0,0:0:0:0:
357,179,67267,6,0,P|415:196|447:274,1,100,4|0,0:0|0:0,0:0:0:0:
287,227,67499,6,0,P|273:167|324:101,1,150,0|0,1:0|0:0,0:0:0:0:
357,179,67965,6,0,L|103:155,1,250,8|2,0:0|0:0,0:0:0:0:
51,68,68314,1,2,0:3:0:0:
134,2,68431,6,0,P|176:-8|262:14,1,100,0|2,1:0|0:0,0:0:0:0:
301,74,68780,2,0,P|322:79|365:68,1,50,0|8,0:0|0:0,0:0:0:0:
482,11,69129,1,2,0:0:0:0:
384,265,69362,6,0,L|249:254,1,100,0|2,1:0|0:0,0:0:0:0:
25,234,69828,1,8,0:0:0:0:
220,315,70061,1,2,0:0:0:0:
162,158,70294,5,0,1:0:0:0:
239,185,70410,2,0,P|244:160|239:126,1,50,0|2,0:0|0:0,0:0:0:0:
381,32,70643,5,0,0:0:0:0:
300,10,70759,2,0,P|298:34|303:59,1,50,8|0,0:0|0:0,0:0:0:0:
371,131,70992,1,2,0:0:0:0:
512,18,71225,6,0,L|502:124,1,100,0|2,1:0|0:0,0:0:0:0:
460,307,71691,2,0,L|450:200,1,100,8|2,0:0|0:0,0:0:0:0:
239,185,72040,1,2,0:3:0:0:
191,254,72156,6,0,P|232:270|290:254,1,100,0|2,1:0|0:0,0:0:0:0:
460,307,72506,2,0,P|419:291|359:309,1,100,0|0,0:0|0:0,0:0:0:0:
322,373,72855,1,2,0:0:0:0:
372,131,73088,5,0,1:0:0:0:
460,307,73321,1,2,0:0:0:0:
381,32,73554,5,8,0:0:0:0:
285,258,73786,1,2,0:0:0:0:
372,131,74019,5,0,1:0:0:0:
462,156,74136,2,0,L|511:152,1,50,2|0,0:3|0:3,0:0:0:0:
289,52,74369,2,0,L|239:48,1,50,2|0,0:3|1:0,0:0:0:0:
14,241,74601,5,2,0:3:0:0:
70,296,74718,1,2,0:3:0:0:
165,312,74834,1,2,0:3:0:0:
285,258,74951,6,0,P|341:231|422:262,1,150,0|0,1:0|0:0,0:0:0:0:
352,322,75416,6,0,L|374:71,1,250,8|2,1:0|0:0,0:0:0:0:
443,12,75766,1,0,0:0:0:0:
464,102,75882,6,0,P|415:100|374:73,1,100,0|2,1:0|0:0,0:0:0:0:
232,181,76231,2,0,P|253:167|276:160,1,50,0|8,0:0|0:0,0:0:0:0:
511,200,76581,1,2,0:0:0:0:
443,12,76814,5,0,1:0:0:0:
285,258,77046,1,2,0:0:0:0:
159,9,77279,5,8,0:0:0:0:
232,181,77512,1,2,0:0:0:0:
340,64,77745,5,0,1:0:0:0:
262,96,77861,2,0,P|256:73|257:45,1,50,0|2,0:0|0:0,0:0:0:0:
285,258,78094,5,0,0:0:0:0:
363,290,78211,2,0,P|369:267|368:239,1,50,8|0,0:0|0:0,0:0:0:0:
232,181,78443,1,2,0:0:0:0:
100,301,78676,6,0,P|148:309|197:301,1,100,0|2,1:0|0:0,0:0:0:0:
385,333,79142,2,0,P|337:324|288:333,1,100,8|2,0:0|0:0,0:0:0:0:
191,382,79608,5,0,1:0:0:0:
198,300,79724,2,0,L|202:250,1,50,2|2,0:3|0:0,0:0:0:0:
52,132,79957,6,0,P|101:123|149:132,1,100,0|0,0:0|0:0,0:0:0:0:
286,69,80306,2,0,P|261:74|237:70,1,50,2|0,0:0|0:0,0:0:0:0:
174,13,80539,5,4,1:1:0:0:
288,334,80772,1,4,1:1:0:0:
355,5,81005,5,12,0:0:0:0:
198,300,81238,1,12,0:0:0:0:
465,127,81471,6,0,P|415:118|367:127,1,100,0|8,1:0|0:3,0:0:0:0:
313,200,81820,1,8,0:3:0:0:
248,136,81936,1,0,1:0:0:0:
248,136,82169,5,2,0:1:0:0:
198,300,82286,1,2,0:1:0:0:
146,175,82402,6,0,P|135:102|179:44,1,150,4|0,0:1|0:0,0:0:0:0:
248,136,82868,6,0,L|-30:110,1,250,12|2,0:0|0:0,0:0:0:0:
5,203,83217,1,2,0:3:0:0:
84,247,83333,6,0,P|97:295|83:343,1,100,0|2,0:1|0:0,0:0:0:0:
188,384,83683,2,0,P|183:359|188:335,1,50,0|8,0:0|0:0,0:0:0:0:
281,223,84032,1,2,0:0:0:0:
84,247,84265,5,0,1:0:0:0:
295,306,84498,1,2,0:0:0:0:
442,136,84731,5,8,0:0:0:0:
218,275,84963,1,2,0:0:0:0:
452,370,85196,5,0,1:0:0:0:
486,296,85313,2,0,L|435:291,1,50,0|2,0:0|0:0,0:0:0:0:
318,69,85545,5,2,0:3:0:0:
302,150,85662,2,0,L|351:145,1,50,8|0,0:0|0:0,0:0:0:0:
442,136,85895,1,2,0:0:0:0:
228,193,86128,6,0,P|219:144|233:96,1,100,0|2,1:0|0:0,0:0:0:0:
442,136,86593,5,8,0:0:0:0:
288,334,86826,1,2,0:3:0:0:
128,184,87059,2,0,L|233:193,1,100,8|2,0:0|0:3,0:0:0:0:
309,233,87408,5,2,0:3:0:0:
302,150,87525,2,0,L|297:93,1,50,2|8,0:3|0:3,0:0:0:0:
456,7,87758,2,0,L|451:63,1,50,2|0,0:3|0:0,0:0:0:0:
431,197,87990,5,8,0:0:0:0:
205,17,88223,1,8,0:0:0:0:
288,334,88456,5,8,0:0:0:0:
360,37,88689,1,8,0:0:0:0:
75,256,88922,6,0,P|118:267|176:256,1,100,8|0,0:0|0:0,0:0:0:0:
336,334,89271,2,0,P|314:328|285:334,1,50,8|0,0:0|0:0,0:0:0:0:
