osu file format v14

[General]
AudioFilename: audio.mp3
AudioLeadIn: 0
PreviewTime: 67479
Countdown: 0
SampleSet: Soft
StackLeniency: 0.5
Mode: 0
LetterboxInBreaks: 0
WidescreenStoryboard: 1

[Editor]
DistanceSpacing: 1.3
BeatDivisor: 4
GridSize: 4
TimelineZoom: 1.9

[Metadata]
Title:Zankoku na Tenshi no These
TitleUnicode:残酷な天使のテーゼ
Artist:Yoko Takahashi
ArtistUnicode:高橋洋子
Creator:Moge-ko
Version:HC's Advanced
Source:新世紀エヴァンゲリオン
Tags:Neon Genesis Evangelion Anime TV Size A Cruel Angel's Thesis Angel Shirō Sagisu HydroCannon13
BeatmapID:1620385
BeatmapSetID:769703

[Difficulty]
HPDrainRate:4
CircleSize:3.2
OverallDifficulty:5
ApproachRate:6
SliderMultiplier:1.5
SliderTickRate:1

[Events]
//Background and Video events
0,0,"bg.jpg",0,0
//Break Periods
//Storyboard Layer 0 (Background)
//Storyboard Layer 1 (Fail)
//Storyboard Layer 2 (Pass)
//Storyboard Layer 3 (Foreground)
//Storyboard Sound Samples

[TimingPoints]
1507,857.142857142857,4,2,0,15,1,0
2364,606.060606060606,4,2,0,15,1,0
2970,588.235294117647,4,2,0,15,1,0
4146,666.666666666667,4,2,0,15,1,0
4479,750,4,2,0,15,1,0
5979,857.142857142857,4,2,0,15,1,0
5979,-91.743119266055,4,2,0,15,0,0
6193,750,4,2,0,15,1,0
7505,750,4,2,0,15,1,0
10505,705.882352941176,4,2,0,15,1,0
11210,833.333333333333,4,2,0,15,1,0
11626,789.473684210526,4,2,0,15,1,0
12020,750,4,2,0,15,1,0
12582,916.030534351145,4,2,0,15,1,0
14414,451.127819548872,4,3,0,45,1,0
14865,476.190476190476,4,3,0,45,1,0
15341,465.704727679161,4,2,1,35,1,0
18484,-100,4,2,1,35,0,0
18600,-100,4,2,1,35,0,0
22792,-100,4,2,1,35,0,0
52597,-100,4,2,1,35,0,0
66568,-76.9230769230769,4,2,1,35,0,0
67499,-100,4,2,1,55,0,1
67965,-76.9230769230769,4,2,1,55,0,1
68431,-100,4,2,1,55,0,1
75416,-76.9230769230769,4,2,1,55,0,1
75882,-100,4,2,1,55,0,1
80539,-76.9230769230769,4,2,1,55,0,1
82402,-100,4,2,1,55,0,1
82868,-76.9230769230769,4,2,1,55,0,1
83333,-100,4,2,1,55,0,1
87990,-76.9230769230769,4,2,1,55,0,1
89388,-100,4,2,1,55,0,0

[Colours]
Combo1 : 173,182,211
Combo2 : 139,129,199
Combo3 : 218,200,97

[HitObjects]
427,168,1507,6,0,B|395:153|356:169|356:169|356:157|356:157|320:173|284:157,1,150,2|2,0:0|0:0,0:0:0:0:
293,161,2970,2,0,B|310:265|310:265|288:321,2,150,2|2|2,0:0|0:0|0:0,0:0:0:0:
272,63,4479,6,0,P|289:25|323:0,1,75,2|0,0:0|0:0,0:0:0:0:
443,98,5229,2,0,P|406:84|368:88,1,75,2|2,0:0|0:0,0:0:0:0:
293,161,5979,2,0,P|235:166|183:145,1,112.5,2|2,0:0|0:0,0:0:0:0:
185,146,7505,6,0,P|210:191|161:295,1,150,2|2,0:0|0:0,0:0:0:0:
182,280,9005,2,0,B|255:264|255:264|305:280,2,112.5,2|0|2,0:0|0:0|0:0,0:0:0:0:
78,301,10505,2,0,L|84:375,2,75,2|0|2,0:0|0:0|0:0,0:0:0:0:
68,201,11626,1,2,0:0:0:0:
162,237,12020,6,0,P|231:241|277:224,1,112.5,2|2,0:0|0:0,0:0:0:0:
256,192,12811,12,8,14414,0:0:0:0:
184,182,15341,6,0,L|276:175,1,75,4|2,1:2|0:0,0:0:0:0:
346,133,15806,2,0,L|353:225,1,75,8|2,0:0|0:0,0:0:0:0:
353,226,16155,1,2,0:3:0:0:
354,244,16272,2,0,P|440:259|461:285,2,112.5,0|0|2,1:0|0:0|0:0,0:0:0:0:
262,278,17203,5,0,1:0:0:0:
262,278,17436,1,2,0:0:0:0:
218,126,17669,2,0,L|226:40,1,75,8|2,0:0|0:0,0:0:0:0:
316,80,18135,1,0,1:0:0:0:
316,80,18251,2,0,P|385:73|416:80,1,75,0|0,0:0|0:0,0:0:0:0:
262,278,19066,5,0,1:0:0:0:
126,137,19532,1,8,0:0:0:0:
100,330,19998,2,0,P|54:297|0:299,2,112.5,0|0|2,1:0|0:0|0:0,0:0:0:0:
206,333,20929,6,0,L|213:245,1,75,8|10,0:0|0:0,0:0:0:0:
314,269,21395,1,8,0:0:0:0:
291,174,21628,1,10,0:0:0:0:
387,187,21860,6,0,L|433:181,2,37.5,10|2|2,1:3|0:3|0:3,0:0:0:0:
369,93,22326,2,0,L|372:55,2,37.5,8|8|8,1:3|0:3|0:3,0:0:0:0:
296,201,22792,6,0,L|305:278,1,75,4|0,1:0|0:0,0:0:0:0:
304,275,23257,2,0,P|374:278|443:333,2,150,0|0|0,1:0|1:0|1:0,0:0:0:0:
224,331,24422,1,0,0:0:0:0:
150,266,24655,6,0,L|156:150,2,112.5,2|0|0,1:0|0:0|0:0,0:0:0:0:
224,331,25586,2,0,P|302:336|380:320,1,150,0|0,1:0|1:0,0:0:0:0:
452,267,26285,1,0,0:0:0:0:
349,162,26517,6,0,B|356:86|356:86|380:55,2,112.5,2|0|0,1:0|0:0|0:0,0:0:0:0:
251,172,27449,2,0,B|244:96|244:96|220:65,2,112.5,2|0|0,1:0|0:0|0:0,0:0:0:0:
261,269,28380,2,0,P|202:274|143:247,2,112.5,2|0|0,1:0|0:0|0:0,0:0:0:0:
358,263,29312,2,0,L|345:105,1,150,0|0,1:0|1:0,0:0:0:0:
208,129,30010,1,2,0:0:0:0:
208,129,30127,1,0,0:0:0:0:
207,129,30243,6,0,P|152:124|105:94,2,112.5,2|0|0,1:0|0:0|0:0,0:0:0:0:
298,92,31174,2,0,P|369:92|426:143,1,150,2|0,1:0|1:0,0:0:0:0:
356,278,31873,1,0,0:0:0:0:
356,278,31989,1,0,0:0:0:0:
356,278,32106,6,0,P|360:333|390:380,2,112.5,2|0|0,1:0|0:0|0:0,0:0:0:0:
302,196,33037,2,0,P|230:208|156:188,1,150,2|0,1:0|1:0,0:0:0:0:
101,107,33736,1,0,0:0:0:0:
79,254,33969,6,0,B|70:328|70:328|86:370,2,112.5,2|0|0,1:0|0:0|0:0,0:0:0:0:
156,188,34900,2,0,L|240:194,1,75,0|0,1:0|0:0,0:0:0:0:
304,257,35366,2,0,L|378:251,1,75,0|0,1:0|0:0,0:0:0:0:
255,341,35832,6,0,B|183:362|182:303|108:328,1,150,4|0,1:0|1:0,0:0:0:0:
14,350,36530,1,0,0:0:0:0:
14,350,36763,2,0,L|5:271,2,75,4|0|0,1:0|0:0|1:0,0:0:0:0:
99,234,37461,1,2,3:0:0:0:
97,216,37578,1,2,3:0:0:0:
95,198,37694,5,4,0:0:0:0:
95,198,38160,2,0,P|166:215|248:171,2,150,0|0|0,1:0|1:0|1:0,0:0:0:0:
26,128,39324,1,0,0:0:0:0:
24,268,39557,6,0,B|30:344|30:344|16:379,2,112.5,2|0|0,1:0|0:0|0:0,0:0:0:0:
95,198,40489,2,0,P|162:168|234:185,1,150,0|0,1:0|1:0,0:0:0:0:
313,242,41187,1,0,0:0:0:0:
386,111,41420,6,0,B|380:35|380:35|394:0,2,112.5,2|0|0,1:0|0:0|0:0,0:0:0:0:
394,208,42351,2,0,B|400:284|400:284|386:319,2,112.5,2|0|0,1:0|0:0|0:0,0:0:0:0:
300,215,43283,2,0,P|250:245|182:241,2,112.5,2|0|0,1:0|0:0|0:0,0:0:0:0:
289,118,44214,2,0,P|215:114|155:157,1,150,0|0,1:0|1:0,0:0:0:0:
101,304,44913,1,0,0:0:0:0:
101,304,45029,1,0,0:0:0:0:
101,304,45146,6,0,P|65:264|7:252,2,112.5,2|0|0,1:0|0:0|0:0,0:0:0:0:
183,356,46077,2,0,L|269:349,2,75,2|0|0,1:0|0:0|1:0,0:0:0:0:
209,211,46776,1,0,0:0:0:0:
209,211,46892,1,0,0:0:0:0:
209,211,47008,6,0,P|263:199|300:158,2,112.5,2|0|0,1:0|0:0|0:0,0:0:0:0:
213,113,47940,2,0,L|205:31,2,75,2|0|0,1:0|0:0|1:0,0:0:0:0:
127,159,48638,1,0,0:0:0:0:
267,197,48871,6,0,B|347:213|332:164|411:177,1,150,2|0,1:0|1:0,0:0:0:0:
479,247,49570,1,0,0:0:0:0:
436,334,49803,2,0,L|283:348,1,150,0|0,1:0|1:0,0:0:0:0:
197,308,50501,1,0,0:0:0:0:
317,218,50734,6,0,P|371:226|398:249,1,75,4|0,1:0|0:0,0:0:0:0:
230,180,51200,2,0,P|263:137|297:125,1,75,4|0,0:0|0:0,0:0:0:0:
153,236,51665,2,0,P|132:185|139:150,1,75,4|0,1:0|0:0,0:0:0:0:
241,275,52131,1,4,0:0:0:0:
281,128,52364,1,2,0:3:0:0:
279,110,52480,1,2,0:3:0:0:
276,91,52597,6,0,P|228:65|172:70,2,112.5,4|0|2,0:0|0:0|0:0,0:0:0:0:
275,189,53528,2,0,P|331:173|374:87,1,150,0|8,1:0|0:0,0:0:0:0:
333,9,54227,1,2,0:0:0:0:
219,106,54460,6,0,L|94:99,2,112.5,0|0|2,1:0|0:0|0:0,0:0:0:0:
216,200,55391,2,0,L|328:206,2,112.5,0|0|2,1:0|0:0|0:0,0:0:0:0:
116,196,56323,6,0,B|108:275|108:275|124:317,2,112.5,0|0|2,1:0|0:0|0:0,0:0:0:0:
126,101,57254,2,0,B|47:93|47:93|5:109,2,112.5,0|0|2,1:0|0:0|0:0,0:0:0:0:
223,112,58185,6,0,P|228:148|214:185,1,75,0|2,1:0|0:0,0:0:0:0:
148,255,58651,2,0,P|135:289|139:326,1,75,8|2,0:0|0:0,0:0:0:0:
234,302,59117,2,0,P|270:297|305:310,1,75,2|2,0:0|0:3,0:0:0:0:
420,235,59582,2,0,P|385:222|348:226,1,75,8|2,0:0|0:0,0:0:0:0:
288,109,60048,6,0,L|443:116,1,150,4|8,1:1|0:0,0:0:0:0:
503,189,60747,1,2,0:0:0:0:
420,235,60980,2,0,B|415:309|415:309|434:351,2,112.5,0|0|2,1:0|0:0|0:0,0:0:0:0:
331,116,61911,6,0,B|337:42|337:42|362:3,2,112.5,0|0|2,1:0|0:0|0:0,0:0:0:0:
324,214,62842,2,0,P|351:245|394:254,1,75,0|2,1:0|0:0,0:0:0:0:
419,253,63192,2,0,P|363:259|319:293,1,112.5,0|2,0:0|0:0,0:0:0:0:
185,356,63774,6,0,L|178:195,1,150,0|8,1:0|0:0,0:0:0:0:
206,105,64472,1,2,0:0:0:0:
206,105,64705,2,0,P|165:102|130:113,1,75,0|2,1:0|0:0,0:0:0:0:
271,183,65171,1,8,0:0:0:0:
367,173,65404,1,2,0:0:0:0:
394,322,65637,6,0,B|353:308|294:326|294:326|304:297|304:297|250:315|213:302,1,225,4|0,0:1|0:0,0:0:0:0:
16,313,66568,6,0,L|113:303,1,97.4999955368044,4|8,0:0|0:0,0:0:0:0:
123,266,66917,2,0,L|25:256,1,97.4999955368044,4|8,0:0|0:0,0:0:0:0:
0,232,67267,1,4,0:0:0:0:
56,95,67499,6,0,L|60:4,1,75,0|2,1:0|0:0,0:0:0:0:
173,167,67965,2,0,B|171:135|171:135|182:102|182:102|181:70,1,97.4999955368044,8|2,0:0|0:0,0:0:0:0:
291,158,68431,2,0,P|344:134|421:151,2,112.5,0|0|2,1:0|0:0|0:0,0:0:0:0:
245,244,69362,5,0,1:0:0:0:
320,305,69595,1,2,0:0:0:0:
175,312,69828,2,0,L|98:306,1,75,8|2,0:0|0:0,0:0:0:0:
147,220,70294,1,0,1:0:0:0:
147,220,70410,2,0,P|160:182|153:135,1,75,0|0,0:0|0:0,0:0:0:0:
129,123,70759,2,0,L|134:40,1,75,8|2,0:0|0:0,0:0:0:0:
225,83,71225,6,0,P|261:92|299:87,1,75,0|2,1:0|0:0,0:0:0:0:
385,44,71691,2,0,P|421:34|458:39,1,75,8|2,0:0|0:0,0:0:0:0:
326,180,72156,2,0,P|266:189|209:174,1,112.5,0|0,1:0|0:0,0:0:0:0:
181,164,72622,2,0,P|188:209|184:257,1,75,8|2,0:0|0:0,0:0:0:0:
174,335,73088,5,0,1:0:0:0:
270,322,73321,1,2,0:0:0:0:
348,380,73554,1,8,0:0:0:0:
444,367,73786,1,2,0:0:0:0:
507,284,74019,2,0,L|510:246,3,37.5,0|2|0|2,1:0|0:3|0:3|0:3,0:0:0:0:
494,213,74485,2,0,L|498:172,3,37.5,0|2|2|2,1:0|0:3|0:3|0:3,0:0:0:0:
469,245,74951,6,0,L|394:238,1,75,0|2,1:0|0:0,0:0:0:0:
284,79,75416,2,0,B|331:70|331:70|381:88,1,97.4999955368044,8|2,1:0|0:0,0:0:0:0:
275,205,75882,2,0,P|219:212|159:177,2,112.5,0|0|2,1:0|0:0|0:0,0:0:0:0:
328,123,76814,5,0,1:0:0:0:
377,206,77046,1,2,0:0:0:0:
404,63,77279,2,0,P|366:33|322:28,1,75,8|2,0:0|0:0,0:0:0:0:
250,63,77745,1,0,1:0:0:0:
250,63,77861,2,0,L|166:58,1,75,0|0,0:0|0:0,0:0:0:0:
141,44,78211,2,0,P|87:51|46:81,1,75,8|2,0:0|0:0,0:0:0:0:
124,140,78676,6,0,P|131:198|116:236,1,75,0|2,1:0|0:0,0:0:0:0:
74,295,79142,2,0,P|65:331|70:368,1,75,8|2,0:0|0:0,0:0:0:0:
204,283,79608,1,0,1:0:0:0:
204,283,79724,2,0,L|285:278,1,75,2|0,0:3|0:0,0:0:0:0:
315,291,80073,2,0,L|396:286,1,75,8|2,0:0|0:0,0:0:0:0:
389,85,80539,5,4,1:1:0:0:
329,195,80772,1,4,1:1:0:0:
219,135,81005,1,12,0:0:0:0:
279,25,81238,1,12,0:0:0:0:
219,135,81471,5,0,1:0:0:0:
129,54,81703,2,0,L|79:49,2,48.7499977684022,8|8|0,0:3|0:3|1:0,0:0:0:0:
308,107,82169,1,2,0:1:0:0:
339,105,82286,1,2,0:1:0:0:
370,103,82402,6,0,L|364:196,1,75,4|2,0:1|0:0,0:0:0:0:
285,344,82868,2,0,B|285:314|285:314|274:281|274:281|276:249,1,97.4999955368044,12|2,0:0|0:0,0:0:0:0:
210,118,83333,2,0,P|158:139|102:136,2,112.5,0|0|2,0:1|0:0|0:0,0:0:0:0:
291,63,84265,5,0,1:0:0:0:
301,160,84498,1,2,0:0:0:0:
385,34,84731,1,8,0:0:0:0:
396,130,84963,1,2,0:0:0:0:
489,102,85196,1,0,1:0:0:0:
489,102,85313,2,0,P|491:154|471:192,1,75,0|2,0:0|0:3,0:0:0:0:
460,203,85662,2,0,L|464:286,1,75,8|2,0:0|0:0,0:0:0:0:
370,247,86128,6,0,P|321:250|289:267,1,75,0|2,1:0|0:0,0:0:0:0:
277,356,86593,2,0,P|314:355|349:342,1,75,8|2,0:0|0:3,0:0:0:0:
468,256,87059,1,8,0:0:0:0:
435,164,87292,2,0,L|439:113,2,37.5,2|2|2,0:3|0:3|0:3,0:0:0:0:
353,218,87758,1,2,0:3:0:0:
281,37,87990,5,8,0:0:0:0:
267,164,88223,1,8,0:0:0:0:
140,150,88456,1,8,0:0:0:0:
154,23,88689,1,8,0:0:0:0:
281,37,88922,2,0,P|329:55|388:49,1,97.4999955368044,8|0,0:0|0:0,0:0:0:0:
414,38,89271,2,0,L|419:86,1,48.7499977684022,8|0,0:0|0:0,0:0:0:0:
