osu file format v14

[General]
AudioFilename: audio.mp3
AudioLeadIn: 0
PreviewTime: 66172
Countdown: 0
SampleSet: None
StackLeniency: 0.2
Mode: 0
LetterboxInBreaks: 0
WidescreenStoryboard: 0

[Editor]
Bookmarks: 16732,16965,17199,17432,17665,20464,20697,20930,21163,21396,21863,23379,23495,23612,26061,26410,26760,26993,27343,27693,27926,28276,28626,28859,35389,36322,37255,50314,50781,51247,51714,52180,57777,58243,58710,59176,59643,66522,66872,67105,69904,70837,73635,76434,80165,81098,87628,88094,88327,88561,88910
DistanceSpacing: 1.1
BeatDivisor: 4
GridSize: 4
TimelineZoom: 1

[Metadata]
Title:Zankoku na Tenshi no These
TitleUnicode:残酷な天使のテーゼ
Artist:Yoko Takahashi
ArtistUnicode:高橋洋子
Creator:-NeBu-
Version:People Weave Together Love To Create History
Source:新世紀エヴァンゲリオン
Tags:Neon Genesis Evangelion opening Cruel Angel's Thesis
BeatmapID:1728259
BeatmapSetID:824721

[Difficulty]
HPDrainRate:4.5
CircleSize:4
OverallDifficulty:9.5
ApproachRate:10
SliderMultiplier:3.59999990463257
SliderTickRate:1

[Events]
//Background and Video events
0,0,"thumb-1920-36455.jpg",0,0
//Break Periods
//Storyboard Layer 0 (Background)
//Storyboard Layer 1 (Fail)
//Storyboard Layer 2 (Pass)
//Storyboard Layer 3 (Foreground)
//Storyboard Sound Samples

[TimingPoints]
997,750,4,2,1,45,1,0
997,-133.333333333333,4,2,1,45,0,0
11497,-181.818181818181,4,2,1,45,0,0
12059,-399.999999999997,4,2,1,45,0,0
13934,466.417910447761,4,2,1,65,1,0
14867,466.417910447761,4,2,1,75,1,0
14867,-80,4,2,1,75,0,1
16732,-80,4,2,1,75,0,1
16965,-57.1428571428571,4,2,1,75,0,1
17199,-44.4444444444445,4,2,1,75,0,1
17432,-36.3636363636364,4,2,1,75,0,1
17665,-80,4,2,1,75,0,1
22329,-133.333333333333,4,2,1,60,0,0
26993,-80,4,2,1,60,0,0
27926,-57.1428571428571,4,2,1,60,0,0
28859,-285.714285714286,4,2,1,60,0,0
29559,-133.333333333333,4,2,1,60,0,0
41919,-57.1428571428571,4,2,1,60,0,0
42852,-40,4,2,1,60,0,0
43784,-1000,4,2,1,60,0,0
44484,-133.333333333333,4,2,1,60,0,0
50314,-200,4,2,1,60,0,0
50781,-80,4,2,1,60,0,0
51247,-50,4,2,1,60,0,0
51714,-29.8507462686567,4,2,1,60,0,0
52180,-100,4,2,1,70,0,0
57777,-200,4,2,1,70,0,0
58243,-100,4,2,1,70,0,0
58710,-66.6666666666667,4,2,1,70,0,0
59176,-50,4,2,1,70,0,0
59643,-100,4,2,1,70,0,0
66172,-40,4,2,1,75,0,0
66872,-30.7692307692308,4,2,1,75,0,0
67105,-1000,4,2,1,60,0,1
67572,-66.6666666666667,4,2,1,80,0,1
74568,-1000,4,2,1,80,0,1
75034,-66.6666666666667,4,2,1,80,0,1
82031,-50,4,2,1,85,0,1
88910,-66.6666666666667,4,2,1,60,0,0

[Colours]
Combo1 : 255,192,0
Combo2 : 0,202,0
Combo3 : 18,124,255
Combo4 : 242,24,57
SliderTrackOverride : 50,10,10

[HitObjects]
80,272,997,6,0,B|110:246|110:246|70:79,1,202.500002360344,0|0,0:0|0:0,0:0:0:0:
142,21,1747,2,0,B|161:102|161:102|176:115|176:115|171:134|171:134|194:226,1,202.500002360344,0|0,0:0|0:0,0:0:0:0:
364,103,2497,2,0,B|281:92|281:92|248:124|248:124|149:112,2,202.500002360344,0|0|0,0:0|0:0|0:0,0:0:0:0:
203,197,3809,1,0,0:0:0:0:
203,197,3997,6,0,P|131:185|107:65,1,202.500002360344,0|0,0:0|0:0,0:0:0:0:
228,122,4747,2,0,P|266:150|269:239,1,135.000001573563,0|0,0:0|0:0,0:0:0:0:
324,72,5497,2,0,L|424:87,1,101.250001180172,0|0,0:0|0:0,0:0:0:0:
242,30,6059,2,0,B|126:46|210:112|66:121,1,202.500002360344,0|0,0:0|0:0,0:0:0:0:
342,384,6997,6,0,L|322:176,1,202.500002360344,0|0,0:0|0:0,0:0:0:0:
261,118,7747,2,0,B|217:151|217:151|189:298,1,202.500002360344,0|0,0:0|0:0,0:0:0:0:
512,52,8497,2,0,B|440:48|440:48|436:52|436:52|307:44,2,202.500002360344,0|0|0,0:0|0:0|0:0,0:0:0:0:
512,52,9809,1,0,0:0:0:0:
131,92,9997,6,0,P|211:88|283:180,1,202.500002360344,0|0,0:0|0:0,0:0:0:0:
267,254,10747,2,0,P|307:214|387:182,1,135.000001573563,0|0,0:0|0:0,0:0:0:0:
197,316,11497,6,0,P|173:288|110:263,1,99.0000003986359,0|0,0:0|0:0,0:0:0:0:
357,0,12059,6,0,B|274:99|377:99|311:188,1,202.499994635582,0|0,0:0|0:0,0:0:0:0:
229,342,13934,5,8,0:0:0:0:
282,41,14050,1,8,0:0:0:0:
105,165,14167,1,8,0:0:0:0:
406,218,14283,1,8,0:0:0:0:
256,192,14400,1,4,0:0:0:0:
105,165,14633,5,8,0:0:0:0:
406,218,14750,1,8,0:0:0:0:
297,28,14867,6,0,B|161:63|283:140|109:148,1,224.999994039536,4|0,0:0|0:0,0:0:0:0:
220,336,15216,1,0,0:0:0:0:
105,237,15333,2,0,P|85:157|9:33,1,224.999994039536,10|0,0:0|0:0,0:0:0:0:
52,332,15683,1,2,0:0:0:0:
141,15,15799,2,0,L|368:38,1,224.999994039536,2|0,0:0|0:0,0:0:0:0:
436,232,16149,1,2,0:0:0:0:
330,4,16266,2,0,P|323:62|328:128,1,112.499997019768,8|0,0:0|0:0,0:0:0:0:
243,234,16499,1,2,0:0:0:0:
481,355,16616,1,0,0:0:0:0:
146,338,16732,6,0,P|138:280|112:216,1,112.499997019768,2|0,0:0|0:0,0:0:0:0:
266,24,16965,6,0,L|290:188,1,157.499997329712,2|0,0:0|0:0,0:0:0:0:
0,109,17199,6,0,L|204:133,1,202.500002360344,10|0,0:0|0:0,0:0:0:0:
459,218,17432,6,0,B|305:232|406:322|239:328,1,247.499995803833,2|0,0:0|0:0,0:0:0:0:
174,130,17665,5,2,0:0:0:0:
440,56,17782,1,2,0:0:0:0:
72,0,17898,1,0,0:0:0:0:
168,384,18015,2,0,P|140:268|62:168,1,224.999994039536,2|0,0:0|0:0,0:0:0:0:
336,56,18365,1,0,0:0:0:0:
40,264,18481,1,0,0:0:0:0:
391,187,18598,6,0,L|55:147,1,337.499991059303,2|0,0:0|0:0,0:0:0:0:
294,52,19064,2,0,P|358:28|522:8,1,224.999994039536,10|0,0:0|0:0,0:0:0:0:
216,340,19414,1,0,0:0:0:0:
199,353,19531,2,0,B|187:285|187:285|143:249|143:249|167:149,1,224.999994039536,2|0,0:0|0:0,0:0:0:0:
428,36,19880,1,2,0:0:0:0:
269,213,19997,2,0,L|45:181,1,224.999994039536,8|2,0:0|0:0,0:0:0:0:
324,292,20347,1,0,0:0:0:0:
402,102,20464,6,0,P|386:46|358:-2,1,112.499997019768,10|0,0:0|0:0,0:0:0:0:
296,279,20697,2,0,P|312:223|340:175,1,112.499997019768,2|0,0:0|0:0,0:0:0:0:
77,207,20930,2,0,P|93:151|121:103,1,112.499997019768,10|0,0:0|0:0,0:0:0:0:
183,384,21163,2,0,P|167:328|139:280,1,112.499997019768,2|0,0:0|0:0,0:0:0:0:
312,376,21396,5,10,0:0:0:0:
421,68,21513,1,0,0:0:0:0:
160,184,21630,1,8,0:0:0:0:
493,116,21746,1,2,0:0:0:0:
176,32,21863,5,8,0:0:0:0:
448,188,21979,1,0,0:0:0:0:
163,283,22096,1,8,0:0:0:0:
376,140,22213,1,0,0:0:0:0:
0,283,22329,6,0,P|45:293|112:358,1,135.000001573563
92,216,22679,1,0,0:0:0:0:
92,216,22796,2,0,P|64:152|64:72,1,135.000001573563,8|0,0:0|0:0,0:0:0:0:
226,246,23145,2,0,P|215:283|213:327,1,67.5000007867814,0|0,0:0|0:0,0:0:0:0:
204,144,23379,1,0,0:0:0:0:
204,144,23495,1,0,0:0:0:0:
204,144,23612,2,0,P|208:104|220:72,2,67.5000007867814,0|8|0,0:0|0:0|0:0,0:0:0:0:
288,360,23962,1,0,0:0:0:0:
182,223,24195,6,0,P|150:167|86:119,1,135.000001573563,0|0,0:0|0:0,0:0:0:0:
195,338,24545,1,0,0:0:0:0:
179,322,24661,2,0,L|323:354,1,135.000001573563,8|0,0:0|0:0,0:0:0:0:
48,360,25011,1,0,0:0:0:0:
36,352,25128,2,0,P|48:296|32:216,1,135.000001573563,0|0,0:0|0:0,0:0:0:0:
156,308,25478,1,0,0:0:0:0:
152,292,25594,2,0,P|216:326|256:376,1,135.000001573563,8|0,0:0|0:0,0:0:0:0:
120,157,25944,1,0,0:0:0:0:
321,132,26061,6,0,L|101:160,2,202.500002360344,0|0|0,0:0|0:0|0:0,0:0:0:0:
512,381,26993,6,0,P|381:278|216:259,2,337.499991059303,0|0|0,0:0|0:0|0:0,0:0:0:0:
467,0,27926,6,0,B|239:-12|318:188|38:140,2,472.499991989136,0|0|0,0:0|0:0|0:0,0:0:0:0:
0,384,28859,6,0,L|16:248,1,125.999992816925,0|8,0:0|0:0,0:0:0:0:
467,0,29559,5,0,0:0:0:0:
467,0,29675,1,0,0:0:0:0:
467,0,29792,2,0,L|491:140,1,135.000001573563,0|0,0:0|0:0,0:0:0:0:
438,299,30142,2,0,P|422:231|328:139,1,202.500002360344,0|0,0:0|0:0,0:0:0:0:
88,182,30725,2,0,P|200:130|252:-2,1,270.000003147125,0|8,0:0|0:0,0:0:0:0:
296,292,31424,1,0,0:0:0:0:
296,292,31541,1,0,0:0:0:0:
296,292,31658,6,0,L|160:316,1,135.000001573563,0|0,0:0|0:0,0:0:0:0:
0,164,32007,1,0,0:0:0:0:
0,164,32124,2,0,P|64:184|116:232,1,135.000001573563,8|0,0:0|0:0,0:0:0:0:
243,157,32590,2,0,B|287:146|328:150|328:150|335:99|335:99|459:53,1,270.000003147125,0|8,0:0|0:0,0:0:0:0:
86,319,33290,2,0,P|55:307|11:303,1,67.5000007867814,0|0,0:0|0:0,0:0:0:0:
184,276,33523,6,0,L|396:256,2,202.500002360344,0|0|0,0:0|0:0|0:0,0:0:0:0:
31,149,34456,2,0,P|88:172|175:181,1,135.000001573563,0|0,0:0|0:0,0:0:0:0:
360,52,34806,1,0,0:0:0:0:
512,0,34922,2,0,L|380:28,1,135.000001573563,8|0,0:0|0:0,0:0:0:0:
181,197,35389,6,0,P|157:137|104:79,1,135.000001573563,0|0,0:0|0:0,0:0:0:0:
152,296,35739,1,0,0:0:0:0:
152,296,35856,1,8,0:0:0:0:
231,26,36089,1,0,0:0:0:0:
428,112,36322,6,0,P|452:52|505:-6,1,135.000001573563,0|0,0:0|0:0,0:0:0:0:
457,211,36672,1,0,0:0:0:0:
457,211,36789,1,8,0:0:0:0:
264,231,37022,1,8,0:0:0:0:
503,252,37255,6,0,P|404:264|315:313,1,202.500002360344,8|0,0:0|0:0,0:0:0:0:
269,384,37721,2,0,P|217:342|152:328,1,135.000001573563,8|0,0:0|0:0,0:0:0:0:
54,188,38071,1,0,0:0:0:0:
54,188,38187,2,0,L|32:341,1,135.000001573563,0|0,0:0|0:0,0:0:0:0:
130,300,38537,1,0,0:0:0:0:
119,291,38654,1,8,0:0:0:0:
202,146,38887,1,0,0:0:0:0:
220,376,39120,6,0,P|193:236|155:171,2,202.500002360344,0|0|0,0:0|0:0|0:0,0:0:0:0:
304,240,40053,2,0,B|424:150|264:92|396:-11,1,270.000003147125,0|8,0:0|0:0,0:0:0:0:
188,191,40753,1,0,0:0:0:0:
348,337,40869,1,0,0:0:0:0:
219,70,40986,6,0,L|237:274,2,202.500002360344,0|0|0,0:0|0:0|0:0,0:0:0:0:
340,376,41919,6,0,B|300:208|400:56|400:56|464:84|488:164,2,472.499991989136,0|0|0,0:0|0:0|0:0,0:0:0:0:
485,373,42852,6,0,B|360:8|80:360|-2:-6,2,674.999982118607,0|0|0,0:0|0:0|0:0,0:0:0:0:
511,0,43784,6,0,L|472:4,1,35.9999990463257,0|8,0:0|0:0,0:0:0:0:
40,249,44484,6,0,P|69:257|103:283,1,67.5000007867814,0|0,0:0|0:0,0:0:0:0:
392,220,44717,2,0,L|237:252,1,135.000001573563,0|0,0:0|0:0,0:0:0:0:
172,248,45067,2,0,P|240:267|317:381,1,202.500002360344,0|0,0:0|0:0,0:0:0:0:
447,36,45650,2,0,P|311:57|168:56,1,270.000003147125,0|8,0:0|0:0,0:0:0:0:
307,285,46350,1,0,0:0:0:0:
351,4,46466,1,0,0:0:0:0:
24,340,46583,6,0,B|108:329|108:329|149:300|149:300|239:312,2,202.500002360344,0|0|0,0:0|0:0|0:0,0:0:0:0:
484,120,47516,2,0,P|299:87|253:17,1,270.000003147125,0|8,0:0|0:0,0:0:0:0:
140,216,48215,2,0,P|143:255|129:285,1,67.5000007867814,0|0,0:0|0:0,0:0:0:0:
340,317,48449,6,0,P|349:255|382:178,1,135.000001573563,0|0,0:0|0:0,0:0:0:0:
244,304,48798,2,0,L|255:380,2,67.5000007867814,0|8|0,0:0|0:0|0:0,0:0:0:0:
282,211,49148,1,0,0:0:0:0:
121,258,49381,6,0,L|72:55,1,202.500002360344,0|0,0:0|0:0,0:0:0:0:
188,141,49848,2,0,L|113:270,1,135.000001573563,8|0,0:0|0:0,0:0:0:0:
198,162,50314,6,0,B|273:165|223:213|320:217,1,134.999996423721,0|0,0:0|0:0,0:0:0:0:
388,130,50781,6,0,B|205:137|326:255|95:262,1,337.499991059303,0|0,0:0|0:0,0:0:0:0:
41,92,51247,6,0,B|338:104|141:295|517:307,1,539.999985694885,0|0,0:0|0:0,0:0:0:0:
487,36,51714,6,0,B|167:106|417:275|11:360,1,602.999986326218,0|8,0:0|0:0,0:0:0:0:
13,360,52063,1,0,0:0:0:0:
233,94,52180,6,0,P|290:110|367:204,1,179.999995231629,8|0,0:0|0:0,0:0:0:0:
137,384,52530,1,0,0:0:0:0:
137,384,52646,2,0,P|152:285|194:203,1,179.999995231629,8|0,0:0|0:0,0:0:0:0:
347,110,52996,1,0,0:0:0:0:
281,185,53113,5,0,0:0:0:0:
186,213,53229,1,0,0:0:0:0:
342,304,53346,1,0,0:0:0:0:
268,72,53463,1,0,0:0:0:0:
163,325,53579,2,0,L|358:302,1,179.999995231629,8|0,0:0|0:0,0:0:0:0:
101,257,53929,1,0,0:0:0:0:
316,131,54046,6,0,P|274:121|153:51,1,179.999995231629,0|0,0:0|0:0,0:0:0:0:
411,182,54395,1,0,0:0:0:0:
248,328,54512,2,0,L|441:346,1,179.999995231629,8|0,0:0|0:0,0:0:0:0:
179,379,54862,1,0,0:0:0:0:
288,216,54978,5,0,0:0:0:0:
93,229,55095,1,0,0:0:0:0:
213,296,55212,1,0,0:0:0:0:
7,360,55328,1,0,0:0:0:0:
200,192,55445,2,0,P|244:178|288:150,1,89.9999976158143,8|0,0:0|0:0,0:0:0:0:
89,70,55678,2,0,P|45:56|1:28,1,89.9999976158143,0|0,0:0|0:0,0:0:0:0:
364,168,55911,6,0,P|414:183|516:271,1,179.999995231629,0|0,0:0|0:0,0:0:0:0:
148,216,56261,1,0,0:0:0:0:
148,216,56378,2,0,P|98:201|-4:113,1,179.999995231629,8|0,0:0|0:0,0:0:0:0:
335,41,56728,1,0,0:0:0:0:
260,380,56844,2,0,L|241:280,1,89.9999976158143,0|0,0:0|0:0,0:0:0:0:
464,124,57077,2,0,P|462:177|446:221,1,89.9999976158143,0|0,0:0|0:0,0:0:0:0:
218,305,57311,5,8,0:0:0:0:
190,56,57427,1,0,0:0:0:0:
436,236,57544,1,0,0:0:0:0:
140,367,57660,1,0,0:0:0:0:
190,56,57777,6,0,L|292:65,1,89.9999976158143,0|0,0:0|0:0,0:0:0:0:
168,56,58127,1,0,0:0:0:0:
348,192,58243,6,0,L|162:212,1,179.999995231629,8|0,0:0|0:0,0:0:0:0:
379,188,58593,1,0,0:0:0:0:
120,12,58710,6,0,L|404:36,1,270.000003147125,0|0,0:0|0:0,0:0:0:0:
43,5,59060,1,0,0:0:0:0:
357,311,59176,6,0,L|-15:351,1,359.999990463257,8|0,0:0|0:0,0:0:0:0:
389,34,59526,1,0,0:0:0:0:
90,309,59643,6,0,P|175:281|229:200,1,179.999995231629,0|0,0:0|0:0,0:0:0:0:
128,384,59993,1,0,0:0:0:0:
88,120,60109,2,0,P|59:85|37:46,1,89.9999976158143,8|0,0:0|0:0,0:0:0:0:
248,248,60342,1,0,0:0:0:0:
16,180,60459,1,0,0:0:0:0:
264,280,60575,6,0,P|284:292|356:316,1,89.9999976158143,0|0,0:0|0:0,0:0:0:0:
212,120,60809,1,0,0:0:0:0:
244,368,60925,1,0,0:0:0:0:
355,119,61042,2,0,P|367:75|399:35,1,89.9999976158143,8|0,0:0|0:0,0:0:0:0:
157,265,61275,2,0,P|145:309|113:349,1,89.9999976158143,0|0,0:0|0:0,0:0:0:0:
109,156,61508,6,0,P|157:96|261:60,1,179.999995231629,0|0,0:0|0:0,0:0:0:0:
157,265,61858,1,0,0:0:0:0:
118,344,61975,2,0,P|50:368|18:368,1,89.9999976158143,8|0,0:0|0:0,0:0:0:0:
330,233,62208,2,0,P|354:301|354:333,1,89.9999976158143,0|0,0:0|0:0,0:0:0:0:
228,0,62441,6,0,L|200:192,1,179.999995231629,0|0,0:0|0:0,0:0:0:0:
76,110,62791,1,0,0:0:0:0:
122,245,62908,2,0,P|94:189|-6:121,1,179.999995231629,8|0,0:0|0:0,0:0:0:0:
136,376,63257,1,0,0:0:0:0:
262,126,63374,6,0,P|286:42|286:30,1,89.9999976158143,0|0,0:0|0:0,0:0:0:0:
205,288,63607,1,0,0:0:0:0:
205,288,63724,1,0,0:0:0:0:
78,84,63840,6,0,P|49:1|42:-8,1,89.9999976158143,8|0,0:0|0:0,0:0:0:0:
312,340,64074,1,0,0:0:0:0:
312,340,64190,1,0,0:0:0:0:
199,83,64307,5,0,0:0:0:0:
237,380,64423,1,0,0:0:0:0:
199,83,64540,1,0,0:0:0:0:
237,380,64656,1,0,0:0:0:0:
199,83,64773,6,0,P|258:67|302:67,1,89.9999976158143,8|0,0:0|0:0,0:0:0:0:
495,107,65006,2,0,P|451:115|403:143,1,89.9999976158143,0|0,0:0|0:0,0:0:0:0:
224,317,65240,5,0,0:0:0:0:
381,223,65356,1,0,0:0:0:0:
130,160,65473,1,8,0:0:0:0:
287,66,65589,1,8,0:0:0:0:
215,355,65706,5,8,0:0:0:0:
419,232,65822,1,0,0:0:0:0:
92,151,65939,1,0,0:0:0:0:
296,28,66055,1,0,0:0:0:0:
253,343,66172,6,0,P|233:223|173:127,1,224.999994039536,8|0,0:0|0:0,0:0:0:0:
172,384,66406,1,0,0:0:0:0:
349,267,66522,6,0,B|414:154|289:168|393:42,1,224.999994039536,8|0,0:0|0:0,0:0:0:0:
264,372,66755,1,0,0:0:0:0:
88,316,66872,6,0,B|-7:178|151:169|10:25,1,292.500000619888,8|0,0:0|0:0,0:0:0:0:
508,384,67105,6,0,L|477:377,1,26.9999992847443,10|0,0:0|0:0,0:0:0:0:
481,378,67572,6,0,L|452:96,1,270.000003147125,10|0,0:0|0:0,0:0:0:0:
129,266,67922,1,0,0:0:0:0:
238,0,68038,2,0,P|310:112|331:245,1,270.000003147125,2|0,0:0|0:0,0:0:0:0:
196,376,68388,1,2,0:0:0:0:
49,130,68505,2,0,P|65:46|81:-2,1,135.000001573563,8|0,0:0|0:0,0:0:0:0:
456,156,68738,1,2,0:0:0:0:
296,376,68854,1,0,0:0:0:0:
256,8,68971,6,0,P|308:54|344:116,1,135.000001573563,2|0,0:0|0:0,0:0:0:0:
147,384,69204,2,0,P|165:319|203:263,1,135.000001573563,0|0,0:0|0:0,0:0:0:0:
382,262,69437,2,0,L|110:218,1,270.000003147125,10|2,0:0|0:0,0:0:0:0:
448,200,69787,1,0,0:0:0:0:
197,283,69904,5,2,0:0:0:0:
444,78,70020,1,0,0:0:0:0:
216,364,70137,1,0,0:0:0:0:
425,0,70254,2,0,B|256:7|355:116|190:114,1,270.000003147125,2|0,0:0|0:0,0:0:0:0:
440,320,70603,1,0,0:0:0:0:
225,12,70720,1,0,0:0:0:0:
238,384,70837,6,0,P|282:240|362:152,1,270.000003147125,2|0,0:0|0:0,0:0:0:0:
26,108,71186,1,0,0:0:0:0:
268,104,71303,2,0,L|-4:136,1,270.000003147125,10|0,0:0|0:0,0:0:0:0:
180,364,71653,1,0,0:0:0:0:
100,32,71769,1,2,0:0:0:0:
180,364,71886,1,0,0:0:0:0:
100,32,72003,1,0,0:0:0:0:
45,363,72119,2,0,B|36:144|251:267|233:15,1,405.000004720688,2|2,0:0|0:0,0:0:0:0:
16,132,72586,1,0,0:0:0:0:
288,232,72702,6,0,P|342:242|441:291,1,135.000001573563,2|0,0:0|0:0,0:0:0:0:
149,55,72936,2,0,P|95:65|-4:114,1,135.000001573563,2|0,0:0|0:0,0:0:0:0:
393,61,73169,2,0,P|438:29|542:-5,1,135.000001573563,10|0,0:0|0:0,0:0:0:0:
100,264,73403,2,0,P|68:309|33:413,1,135.000001573563,2|0,0:0|0:0,0:0:0:0:
267,70,73635,5,8,0:0:0:0:
174,324,73752,1,0,0:0:0:0:
188,16,73868,1,8,0:0:0:0:
256,372,73985,1,0,0:0:0:0:
104,0,74102,1,8,0:0:0:0:
344,384,74218,1,0,0:0:0:0:
24,12,74335,1,8,0:0:0:0:
428,380,74451,1,0,0:0:0:0:
24,12,74568,6,0,L|21:35,1,17.9999995231628,8|0,0:0|0:0,0:0:0:0:
512,384,74918,1,0,0:0:0:0:
512,384,75034,6,0,P|456:248|372:136,1,270.000003147125,10|0,0:0|0:0,0:0:0:0:
24,172,75384,1,0,0:0:0:0:
32,152,75501,2,0,B|180:163|91:274|254:288,1,270.000003147125,2|0,0:0|0:0,0:0:0:0:
433,23,75851,1,2,0:0:0:0:
433,23,75967,2,0,L|381:155,1,135.000001573563,8|0,0:0|0:0,0:0:0:0:
85,379,76200,2,0,P|65:287|45:243,1,135.000001573563,2|0,0:0|0:0,0:0:0:0:
344,216,76434,5,8,0:0:0:0:
56,116,76550,1,0,0:0:0:0:
432,60,76667,5,8,0:0:0:0:
144,80,76783,1,0,0:0:0:0:
364,216,76900,6,0,P|408:248|472:332,1,135.000001573563,10|0,0:0|0:0,0:0:0:0:
126,54,77133,2,0,P|60:68|0:98,1,135.000001573563,2|0,0:0|0:0,0:0:0:0:
300,365,77366,1,2,0:0:0:0:
448,183,77483,2,0,P|460:79|452:35,1,135.000001573563,2|0,0:0|0:0,0:0:0:0:
285,149,77716,2,0,B|237:213|237:213|277:253|277:253|253:389,1,270.000003147125,2|0,0:0|0:0,0:0:0:0:
444,160,78066,1,0,0:0:0:0:
68,72,78183,1,0,0:0:0:0:
418,301,78299,6,0,L|382:21,1,270.000003147125,2|0,0:0|0:0,0:0:0:0:
176,369,78649,1,0,0:0:0:0:
42,10,78766,2,0,P|94:126|86:274,1,270.000003147125,10|0,0:0|0:0,0:0:0:0:
319,92,79116,1,0,0:0:0:0:
319,92,79232,2,0,B|239:104|239:104|211:160|211:160|75:176,1,270.000003147125,2|0,0:0|0:0,0:0:0:0:
348,260,79582,1,2,0:0:0:0:
348,260,79699,2,0,P|404:272|488:312,1,135.000001573563,8|0,0:0|0:0,0:0:0:0:
128,312,79932,2,0,P|72:324|-12:364,1,135.000001573563,2|0,0:0|0:0,0:0:0:0:
316,148,80165,5,2,0:0:0:0:
188,212,80282,1,0,0:0:0:0:
352,56,80398,2,0,P|432:40|496:36,1,135.000001573563,2|0,0:0|0:0,0:0:0:0:
133,295,80631,2,0,P|65:289|0:275,1,135.000001573563,10|0,0:0|0:0,0:0:0:0:
485,36,80865,1,2,0:0:0:0:
0,275,80981,1,0,0:0:0:0:
448,112,81098,5,10,0:0:0:0:
44,200,81214,1,0,0:0:0:0:
390,176,81331,1,8,0:0:0:0:
107,146,81447,1,0,0:0:0:0:
320,228,81564,5,8,0:0:0:0:
184,124,81681,1,0,0:0:0:0:
312,384,81797,5,8,0:0:0:0:
200,0,81914,1,0,0:0:0:0:
152,356,82031,6,0,L|200:-4,1,359.999990463257,8|0,0:0|0:0,0:0:0:0:
420,352,82380,1,0,0:0:0:0:
68,99,82497,2,0,B|267:69|138:249|408:211,1,359.999990463257,10|0,0:0|0:0,0:0:0:0:
172,352,82847,1,0,0:0:0:0:
316,93,82964,6,0,P|388:29|480:-3,1,179.999995231629,2|0,0:0|0:0,0:0:0:0:
248,312,83197,1,0,0:0:0:0:
137,47,83313,2,0,B|110:91|67:99|67:99|117:176|117:176|79:251|79:251|72:354,1,359.999990463257,2|0,0:0|0:0,0:0:0:0:
59,9,83663,1,2,0:0:0:0:
146,384,83780,1,0,0:0:0:0:
295,43,83896,6,0,P|325:127|333:216,1,179.999995231629,2|0,0:0|0:0,0:0:0:0:
216,340,84130,2,0,P|185:255|177:166,1,179.999995231629,2|0,0:0|0:0,0:0:0:0:
512,191,84363,2,0,L|324:219,1,179.999995231629,10|0,0:0|0:0,0:0:0:0:
0,140,84596,2,0,L|188:168,1,179.999995231629,2|0,0:0|0:0,0:0:0:0:
72,304,84829,5,2,0:0:0:0:
332,376,84946,1,2,0:0:0:0:
72,304,85062,1,0,0:0:0:0:
253,20,85179,2,0,P|213:200|229:384,1,359.999990463257,2|0,0:0|0:0,0:0:0:0:
512,152,85529,1,0,0:0:0:0:
172,192,85645,1,0,0:0:0:0:
512,152,85762,6,0,B|296:143|432:308|187:286,1,359.999990463257,2|0,0:0|0:0,0:0:0:0:
0,0,86112,1,0,0:0:0:0:
0,0,86229,2,0,B|214:28|51:167|296:188,1,359.999990463257,10|0,0:0|0:0,0:0:0:0:
379,98,86578,1,0,0:0:0:0:
379,98,86695,2,0,P|331:182|315:270,1,179.999995231629,2|0,0:0|0:0,0:0:0:0:
192,64,86928,1,0,0:0:0:0:
272,368,87045,2,0,P|284:284|88:312,1,359.999990463257,2|0,0:0|0:0,0:0:0:0:
193,311,87394,2,0,P|173:235|85:193,1,179.999995231629,2|0,0:0|0:0,0:0:0:0:
397,242,87628,5,8,0:0:0:0:
195,147,87744,1,0,0:0:0:0:
481,16,87861,5,8,0:0:0:0:
72,82,87978,1,0,0:0:0:0:
344,272,88094,6,0,P|391:288|509:359,1,179.999995231629,8|0,0:0|0:0,0:0:0:0:
160,80,88327,2,0,P|113:96|-5:167,1,179.999995231629,8|0,0:0|0:0,0:0:0:0:
500,108,88561,6,0,B|156:112|383:294|-16:256,1,539.999985694885,2|6,0:0|0:0,0:0:0:0:
