osu file format v14

[General]
AudioFilename: audio.mp3
AudioLeadIn: 0
PreviewTime: 66989
Countdown: 0
SampleSet: Soft
StackLeniency: 0.5
Mode: 0
LetterboxInBreaks: 0
WidescreenStoryboard: 0

[Editor]
Bookmarks: 997,11497,13934,14867,22329,52180,67105,89493
DistanceSpacing: 1.1
BeatDivisor: 4
GridSize: 32
TimelineZoom: 1.7

[Metadata]
Title:Zankoku na Tenshi no These
TitleUnicode:残酷な天使のテーゼ
Artist:Yoko Takahashi
ArtistUnicode:高橋洋子
Creator:moph
Version:Normal
Source:新世紀エヴァンゲリオン
Tags:Neon Genesis Evangelion opening Cruel Angel's Thesis ambient rizen
BeatmapID:1425695
BeatmapSetID:672960

[Difficulty]
HPDrainRate:3
CircleSize:3
OverallDifficulty:3.8
ApproachRate:4.8
SliderMultiplier:1.6
SliderTickRate:1

[Events]
//Background and Video events
Video,0,"video.flv"
0,0,"bg.jpg",0,0
//Break Periods
//Storyboard Layer 0 (Background)
//Storyboard Layer 1 (Fail)
//Storyboard Layer 2 (Pass)
//Storyboard Layer 3 (Foreground)
//Storyboard Sound Samples

[TimingPoints]
997,750,4,2,3,40,1,0
13934,466.417910447761,4,2,2,40,1,0
14867,466.417910447761,4,2,1,60,1,0
22329,-100,4,2,2,60,0,0
52180,-100,4,2,1,65,0,0
67105,-100,4,2,1,70,0,1
88910,-100,4,2,1,70,0,0

[Colours]
Combo1 : 87,122,242
Combo2 : 255,37,26
Combo3 : 255,124,28
Combo4 : 145,111,191

[HitObjects]
38,316,997,6,0,P|98:347|197:294,1,160,2|0,0:0|0:0,0:0:0:0:
355,338,2497,2,0,L|487:362,2,120,0|0|0,0:0|0:0|0:0,0:0:0:0:
386,255,3997,6,0,B|412:178|412:178|374:84,1,160,2|0,0:0|0:0,0:0:0:0:
208,76,5497,2,0,L|85:76,1,120,0|0,0:0|0:0,0:0:0:0:
67,295,6997,6,0,L|233:293,1,160,2|0,0:0|0:0,0:0:0:0:
145,137,8497,2,0,L|144:17,2,120,2|0|0,0:0|0:0|0:0,0:0:0:0:
209,197,9997,2,0,P|290:209|355:156,1,160,2|2,0:0|0:0,0:0:0:0:
256,192,11497,12,8,13934,0:3:0:0:
20,321,14867,6,0,P|70:275|172:285,1,160,4|10,0:0|0:0,0:0:0:0:
337,295,15799,2,0,L|456:307,2,120,2|2|2,0:0|0:0|0:0,0:0:0:0:
262,247,16732,2,0,B|231:169|231:169|270:85,1,160,2|10,0:0|0:0,0:0:0:0:
296,18,17432,1,2,0:0:0:0:
351,86,17665,2,0,L|526:95,1,160,2|8,0:0|0:0,0:0:0:0:
503,273,18598,6,0,P|429:288|351:258,1,160,2|10,0:0|0:0,0:0:0:0:
175,256,19531,2,0,B|192:313|192:313|168:386,2,120,2|2|2,0:0|0:0|0:0,0:0:0:0:
106,311,20464,2,0,B|69:324|69:324|9:303,2,80,10|2|10,0:0|0:0|0:0,0:0:0:0:
95,223,21163,1,2,0:0:0:0:
26,168,21396,2,0,P|3:97|31:17,1,160,10|8,0:3|0:3,0:0:0:0:
188,94,22329,6,0,B|254:89|254:89|277:107|277:107|349:100,1,160,4|8,0:0|0:0,0:0:0:0:
468,222,23262,2,0,B|402:227|402:227|379:209|379:209|307:216,1,160,0|10,0:0|0:0,0:0:0:0:
250,275,23962,1,0,0:0:0:0:
178,326,24195,2,0,P|223:358|288:354,2,120,2|0|0,0:3|0:0|0:0,0:0:0:0:
166,238,25128,2,0,B|86:265|86:265|-4:233,1,160,0|10,0:0|0:0,0:0:0:0:
144,120,26061,6,0,B|88:104|88:104|2:126,2,120,2|0|2,0:3|0:0|0:0,0:0:0:0:
167,204,26993,2,0,B|181:260|181:260|243:323,2,120,2|0|2,0:3|0:0|0:0,0:0:0:0:
226,138,27926,2,0,B|267:97|267:97|291:12,2,120,2|0|0,0:3|0:0|0:0,0:0:0:0:
287,201,28859,2,0,P|370:225|458:185,1,160,0|10,0:0|0:0,0:0:0:0:
473,121,29559,1,0,0:0:0:0:
434,38,29792,6,0,P|351:14|263:54,1,160,2|8,0:3|0:0,0:0:0:0:
241,114,30491,1,0,0:0:0:0:
157,86,30725,2,0,B|146:140|146:140|164:187|164:187|151:277,1,160,0|10,0:0|0:0,0:0:0:0:
72,214,31424,1,0,0:0:0:0:
80,301,31658,2,0,P|141:334|224:309,1,160,2|8,0:3|0:0,0:0:0:0:
253,226,32357,1,0,0:0:0:0:
311,291,32590,2,0,B|387:327|387:327|481:290,1,160,2|10,0:3|0:0,0:0:0:0:
511,229,33290,1,0,0:0:0:0:
467,152,33523,6,0,L|477:19,2,120,2|0|0,0:3|0:0|0:0,0:0:0:0:
385,118,34456,2,0,B|302:109|302:109|240:163,1,160,0|10,0:0|0:0,0:0:0:0:
76,213,35389,2,0,B|159:204|159:204|221:258,1,160,6|8,0:0|0:0,0:0:0:0:
283,312,36089,1,0,0:0:0:0:
365,341,36322,2,0,P|455:337|493:271,1,160,6|8,0:0|0:0,0:0:0:0:
433,117,37255,6,0,P|343:121|305:187,1,160,12|8,0:3|0:0,0:0:0:0:
134,209,38187,2,0,P|224:213|262:279,1,160,0|10,0:0|0:0,0:0:0:0:
240,351,38887,1,0,0:0:0:0:
173,292,39120,2,0,L|34:322,2,120,2|0|0,0:3|0:0|0:0,0:0:0:0:
134,209,40053,2,0,B|105:130|105:130|141:41,1,160,0|8,0:0|0:0,0:0:0:0:
309,61,40986,6,0,P|364:42|428:65,2,120,2|0|0,0:3|0:0|0:0,0:0:0:0:
367,127,41919,2,0,P|355:184|302:228,2,120,2|0|0,0:3|0:0|0:0,0:0:0:0:
280,142,42852,2,0,P|236:103|224:35,2,120,2|0|0,0:3|0:0|0:0,0:0:0:0:
312,224,43784,2,0,B|347:297|347:297|320:379,1,160,0|10,0:0|0:0,0:0:0:0:
246,326,44484,1,0,0:0:0:0:
171,372,44717,6,0,L|32:346,2,120,2|0|0,0:3|0:0|0:0,0:0:0:0:
170,283,45650,2,0,B|142:209|142:209|182:103,1,160,2|10,0:3|0:0,0:0:0:0:
247,89,46350,1,0,0:0:0:0:
169,46,46583,2,0,L|30:72,2,120,2|0|0,0:3|0:0|0:0,0:0:0:0:
247,89,47516,2,0,B|329:117|329:117|409:90,1,160,2|10,0:3|0:0,0:0:0:0:
482,66,48215,1,0,0:0:0:0:
466,153,48449,6,0,P|486:209|463:272,2,120,2|0|0,0:3|0:0|0:0,0:0:0:0:
395,205,49381,2,0,P|377:148|397:93,2,120,0|0|0,0:0|0:0|0:0,0:0:0:0:
391,293,50314,2,0,P|317:321|231:280,1,160,4|4,0:0|0:0,0:0:0:0:
80,358,51247,2,0,B|108:278|108:278|64:178,1,160,6|6,0:0|0:0,0:0:0:0:
8,154,51947,1,8,0:3:0:0:
44,73,52180,6,0,L|203:77,1,160,14|8,0:3|0:0,0:0:0:0:
257,148,52880,1,2,0:0:0:0:
296,69,53113,2,0,P|376:48|456:98,1,160,2|8,0:0|0:0,0:0:0:0:
472,163,53812,1,2,0:0:0:0:
448,248,54046,2,0,L|491:371,2,120,2|2|2,0:0|0:0|0:0,0:0:0:0:
361,264,54978,2,0,L|355:396,2,120,2|2|2,0:0|0:0|0:0,0:0:0:0:
275,286,55911,6,0,P|207:317|133:281,1,160,2|8,0:0|0:0,0:0:0:0:
83,212,56611,1,2,0:0:0:0:
14,156,56844,2,0,P|82:125|156:161,1,160,2|8,0:0|0:0,0:0:0:0:
206,230,57544,1,2,0:0:0:0:
269,168,57777,2,0,B|243:97|243:97|269:17,1,160,2|10,0:0|0:0,0:0:0:0:
445,15,58710,2,0,B|471:86|471:86|445:166,1,160,2|10,0:0|0:0,0:0:0:0:
408,246,59409,1,2,0:0:0:0:
477,300,59643,6,0,P|416:334|331:286,1,160,2|8,0:0|0:0,0:0:0:0:
309,216,60342,1,2,0:0:0:0:
255,285,60575,2,0,L|107:352,1,160,2|8,0:0|0:0,0:0:0:0:
21,337,61275,1,2,0:0:0:0:
76,267,61508,2,0,B|50:210|50:210|83:142,2,120,2|2|2,0:0|0:0|0:0,0:0:0:0:
147,215,62441,2,0,B|172:266|172:266|146:323,2,120,2|2|2,0:0|0:0|0:0,0:0:0:0:
157,127,63374,6,0,B|234:159|234:159|317:125,1,160,2|8,0:0|0:0,0:0:0:0:
352,55,64074,1,2,0:0:0:0:
436,79,64307,2,0,B|405:155|405:155|436:243,1,160,2|8,0:0|0:0,0:0:0:0:
351,266,65006,1,2,0:0:0:0:
423,316,65240,2,0,P|359:353|281:319,1,160,4|8,0:3|0:3,0:0:0:0:
116,269,66172,6,0,B|59:283|59:283|-7:268,2,120,12|12|12,0:0|0:0|0:0,0:0:0:0:
79,188,67105,6,0,B|47:115|47:115|80:17,1,160,14|14,0:3|0:0,0:0:0:0:
248,44,68038,2,0,L|395:19,2,120,2|2|2,0:0|0:0|0:0,0:0:0:0:
281,125,68971,2,0,B|314:198|314:198|281:293,1,160,2|10,0:0|0:0,0:0:0:0:
206,304,69671,1,2,0:0:0:0:
269,365,69904,2,0,P|324:361|373:313,2,120,2|2|0,0:0|0:0|0:0,0:0:0:0:
206,304,70837,6,0,L|44:345,1,160,2|10,0:0|0:0,0:0:0:0:
10,264,71536,1,0,0:0:0:0:
26,177,71769,2,0,B|4:122|4:122|25:63,2,120,2|2|2,0:0|0:0|0:0,0:0:0:0:
94,232,72702,2,0,B|190:217,1,80,2|2,0:0|0:0,0:0:0:0:
193,133,73169,2,0,B|273:116,1,80,10|2,0:0|0:0,0:0:0:0:
327,49,73635,2,0,B|397:22|397:22|490:62,1,160,10|8,0:3|0:3,0:0:0:0:
429,131,74335,1,8,0:3:0:0:
483,200,74568,6,0,P|508:277|476:353,1,160,8|14,0:3|0:0,0:0:0:0:
305,323,75501,2,0,B|286:272|286:272|311:196,2,120,2|2|2,0:0|0:0|0:0,0:0:0:0:
220,349,76434,2,0,P|173:367|121:361,1,80,2|2,0:0|0:0,0:0:0:0:
63,331,76900,2,0,P|38:299|27:261,1,80,10|2,0:0|0:0,0:0:0:0:
32,173,77367,2,0,B|94:188|94:188|150:162,2,120,2|2|0,0:0|0:0|0:0,0:0:0:0:
10,87,78299,6,0,P|72:53|166:83,1,160,2|10,0:0|0:0,0:0:0:0:
322,17,79232,2,0,B|290:91|290:91|328:174,1,160,2|8,0:0|0:0,0:0:0:0:
302,249,79932,1,2,0:0:0:0:
386,225,80165,2,0,L|481:191,2,80,2|2|10,0:0|0:0|0:0,0:0:0:0:
363,310,80865,1,2,0:0:0:0:
279,336,81098,2,0,P|225:299|223:202,1,160,10|8,0:3|0:0,0:0:0:0:
283,151,81797,1,8,0:3:0:0:
245,70,82031,6,0,B|169:96|169:96|86:67,1,160,8|14,0:3|0:0,0:0:0:0:
54,241,82964,2,0,B|38:296|38:296|56:362,2,120,2|2|2,0:0|0:0|0:0,0:0:0:0:
21,159,83896,2,0,P|56:150|118:177,1,80,2|2,0:0|0:0,0:0:0:0:
146,234,84363,2,0,P|181:225|243:252,1,80,10|2,0:0|0:0,0:0:0:0:
254,318,84830,2,0,B|310:302|310:302|369:318,2,120,2|2|0,0:0|0:0|0:0,0:0:0:0:
222,235,85763,6,0,B|197:150|197:150|227:73,1,160,2|8,0:0|0:0,0:0:0:0:
390,31,86695,2,0,B|415:116|415:116|385:193,1,160,2|8,0:0|0:0,0:0:0:0:
327,246,87395,1,2,0:0:0:0:
408,286,87627,2,0,L|502:283,2,80,2|2|2,0:0|0:0|0:0,0:0:0:0:
368,365,88327,1,2,0:0:0:0:
289,323,88561,2,0,L|146:328,1,120,2|6,0:0|0:0,0:0:0:0:
