osu file format v14

[General]
AudioFilename: audio.mp3
AudioLeadIn: 0
PreviewTime: 66989
Countdown: 0
SampleSet: Soft
StackLeniency: 0.5
Mode: 0
LetterboxInBreaks: 0
WidescreenStoryboard: 0

[Editor]
Bookmarks: 997,11497,13934,14867,22329,52180,67105,89493
DistanceSpacing: 1
BeatDivisor: 4
GridSize: 32
TimelineZoom: 1.7

[Metadata]
Title:Zankoku na Tenshi no These
TitleUnicode:残酷な天使のテーゼ
Artist:Yoko Takahashi
ArtistUnicode:高橋洋子
Creator:moph
Version:Advanced
Source:新世紀エヴァンゲリオン
Tags:Neon Genesis Evangelion opening Cruel Angel's Thesis ambient rizen
BeatmapID:1425694
BeatmapSetID:672960

[Difficulty]
HPDrainRate:3.5
CircleSize:3.5
OverallDifficulty:5
ApproachRate:6
SliderMultiplier:1.9
SliderTickRate:1

[Events]
//Background and Video events
Video,0,"video.flv"
0,0,"bg.jpg",0,0
//Break Periods
//Storyboard Layer 0 (Background)
//Storyboard Layer 1 (Fail)
//Storyboard Layer 2 (Pass)
//Storyboard Layer 3 (Foreground)
//Storyboard Sound Samples

[TimingPoints]
997,750,4,2,3,40,1,0
997,-133.333333333333,4,2,3,40,0,0
13934,466.417910447761,4,2,2,40,1,0
13934,-133.333333333333,4,2,2,40,0,0
14867,466.417910447761,4,2,1,70,1,0
14867,-100,4,2,1,70,0,0
22329,-133.333333333333,4,2,2,60,0,0
50314,-117.647058823529,4,2,2,60,0,0
52180,-117.647058823529,4,2,1,65,0,0
66172,-100,4,2,1,65,0,0
67105,-100,4,2,1,70,0,1
88910,-100,4,2,1,70,0,0

[Colours]
Combo1 : 87,122,242
Combo2 : 255,37,26
Combo3 : 255,124,28
Combo4 : 145,111,191

[HitObjects]
444,240,997,6,0,P|371:242|326:302,1,142.500005435944,2|0,0:0|0:0,0:0:0:0:
162,332,2497,2,0,L|55:323,2,106.875004076958,0|0|0,0:0|0:0|0:0,0:0:0:0:
147,247,3997,6,0,B|124:182|124:182|155:97,1,142.500005435944,2|0,0:0|0:0,0:0:0:0:
204,47,5122,1,0,0:0:0:0:
262,109,5497,2,0,L|326:109,2,53.4375020384789,0|0|0,0:0|0:0|0:0,0:0:0:0:
463,36,6997,6,0,P|423:84|438:181,1,142.500005435944,2|0,0:0|0:0,0:0:0:0:
389,328,8497,2,0,P|393:267|362:219,2,106.875004076958,2|0|0,0:0|0:0|0:0,0:0:0:0:
311,292,9997,6,0,L|227:302,1,71.2500027179719,2|0,0:0|0:0,0:0:0:0:
155,313,10747,2,0,L|71:323,1,71.2500027179719,2|0,0:0|0:0,0:0:0:0:
256,192,11497,12,8,13934,0:3:0:0:
167,204,14867,6,0,L|280:200,1,95,4|0,0:0|0:0,0:0:0:0:
322,135,15333,2,0,P|350:188|336:250,1,95,10|0,0:0|0:0,0:0:0:0:
329,266,15683,1,2,0:0:0:0:
329,266,15799,2,0,B|398:251|398:251|480:273,2,142.5,2|2|2,0:0|0:0|0:0,0:0:0:0:
269,340,16732,6,0,P|215:351|171:336,1,95,2|2,0:0|0:0,0:0:0:0:
128,258,17199,1,10,0:0:0:0:
85,343,17432,1,2,0:0:0:0:
34,268,17665,1,2,0:0:0:0:
34,268,17782,2,0,B|18:222|18:222|36:167,1,95,2|2,0:0|0:0,0:0:0:0:
48,133,18131,2,0,L|154:154,1,95,8|0,0:0|0:0,0:0:0:0:
210,86,18598,6,0,P|258:76|327:108,1,95,2|0,0:0|0:0,0:0:0:0:
350,6,19064,2,0,P|382:42|389:118,1,95,10|0,0:0|0:0,0:0:0:0:
491,97,19531,1,2,0:0:0:0:
491,98,19647,2,0,P|475:144|413:188,1,95,0|2,0:0|0:0,0:0:0:0:
396,185,19997,2,0,L|409:298,1,95,8|2,0:0|0:0,0:0:0:0:
454,361,20464,6,0,P|406:374|351:357,1,95,10|2,0:0|0:0,0:0:0:0:
305,288,20930,1,10,0:0:0:0:
210,285,21163,1,2,0:0:0:0:
149,363,21396,2,0,P|103:373|58:361,1,95,10|8,0:3|0:3,0:0:0:0:
31,329,21746,1,10,0:3:0:0:
31,329,21863,2,0,L|80:230,1,95,8|8,0:3|0:3,0:0:0:0:
36,166,22329,6,0,P|17:91|39:29,1,142.500005435944,4|8,0:0|0:0,0:0:0:0:
193,101,23262,2,0,B|260:134|260:134|327:102,1,142.500005435944,0|10,0:0|0:0,0:0:0:0:
393,151,23962,1,0,0:0:0:0:
403,66,24195,2,0,P|451:52|520:76,2,106.875004076958,2|0|0,0:3|0:0|0:0,0:0:0:0:
393,151,25128,2,0,B|421:218|421:218|389:303,1,142.500005435944,0|10,0:0|0:0,0:0:0:0:
360,360,25827,1,0,0:0:0:0:
277,338,26061,6,0,L|161:359,2,106.875004076958,2|0|2,0:3|0:0|0:0,0:0:0:0:
238,261,26993,2,0,B|231:225|231:225|242:179,1,71.2500027179719,2|0,0:3|0:0,0:0:0:0:
321,214,27460,2,0,B|328:178|328:178|317:132,1,71.2500027179719,10|0,0:0|0:0,0:0:0:0:
268,76,27926,2,0,B|319:61|319:61|386:78,2,106.875004076958,2|0|0,0:3|0:0|0:0,0:0:0:0:
186,103,28859,2,0,L|110:103,1,71.2500027179719,0|2,0:0|0:0,0:0:0:0:
35,134,29325,1,10,0:0:0:0:
106,200,29559,1,0,0:0:0:0:
106,200,29675,1,0,0:0:0:0:
106,200,29792,6,0,L|220:200,2,106.875004076958,2|0|0,0:3|0:0|0:0,0:0:0:0:
90,284,30725,2,0,L|240:283,1,142.500005435944,0|10,0:0|0:0,0:0:0:0:
308,343,31424,1,0,0:0:0:0:
308,343,31540,1,0,0:0:0:0:
308,343,31657,2,0,L|422:343,2,106.875004076958,2|0|0,0:3|0:0|0:0,0:0:0:0:
317,257,32590,2,0,B|291:191|291:191|325:103,1,142.500005435944,2|10,0:3|0:0,0:0:0:0:
368,55,33290,1,0,0:0:0:0:
400,133,33523,6,0,P|456:144|523:125,2,106.875004076958,2|0|0,0:3|0:0|0:0,0:0:0:0:
316,124,34456,2,0,B|254:129|254:129|245:118|245:118|170:124,1,142.500005435944,0|10,0:0|0:0,0:0:0:0:
13,72,35389,2,0,P|59:108|43:213,1,142.500005435944,6|8,0:0|0:0,0:0:0:0:
1,248,36089,1,0,0:0:0:0:
27,329,36322,2,0,L|184:317,1,142.500005435944,6|8,0:0|0:0,0:0:0:0:
260,346,37021,1,10,0:3:0:0:
260,346,37138,1,8,0:3:0:0:
260,346,37255,6,0,L|417:334,1,142.500005435944,12|8,0:3|0:0,0:0:0:0:
464,176,38187,2,0,B|490:103|490:103|461:35,1,142.500005435944,0|10,0:0|0:0,0:0:0:0:
382,17,38887,1,0,0:0:0:0:
334,88,39120,2,0,P|273:108|237:100,1,71.2500027179719,2|0,0:3|0:0,0:0:0:0:
192,64,39587,2,0,L|48:40,2,142.500005435944,8|0|8,0:0|0:0|0:0,0:0:0:0:
138,226,40986,6,0,L|20:208,2,106.875004076958,2|0|0,0:3|0:0|0:0,0:0:0:0:
153,310,41919,2,0,P|185:335|231:343,1,71.2500027179719,2|0,0:3|0:0,0:0:0:0:
299,342,42385,2,0,P|332:331|360:309,1,71.2500027179719,10|0,0:0|0:0,0:0:0:0:
374,226,42852,2,0,L|492:208,2,106.875004076958,2|0|0,0:3|0:0|0:0,0:0:0:0:
300,182,43784,2,0,B|320:113|320:113|294:30,1,142.500005435944,0|10,0:0|0:0,0:0:0:0:
215,63,44484,1,0,0:0:0:0:
132,39,44717,6,0,L|13:53,2,106.875004076958,2|0|0,0:3|0:0|0:0,0:0:0:0:
124,124,45650,2,0,B|89:188|89:188|126:269,1,142.500005435944,2|10,0:3|0:0,0:0:0:0:
132,345,46350,1,0,0:0:0:0:
132,345,46466,1,0,0:0:0:0:
132,345,46583,2,0,L|13:331,2,106.875004076958,2|0|0,0:3|0:0|0:0,0:0:0:0:
202,295,47516,2,0,P|280:283|351:325,1,142.500005435944,2|10,0:3|0:0,0:0:0:0:
410,350,48215,1,0,0:0:0:0:
444,271,48449,6,0,P|483:305|492:377,2,106.875004076958,2|0|0,0:3|0:0|0:0,0:0:0:0:
407,193,49381,2,0,B|389:144|389:144|411:76,1,106.875004076958,0|0,0:0|0:0,0:0:0:0:
415,49,49848,2,0,L|343:49,1,71.2500027179719,10|0,0:0|0:0,0:0:0:0:
276,106,50314,6,0,B|155:110|155:110|100:70,1,161.500003080368,4|4,0:0|0:0,0:0:0:0:
5,220,51247,2,0,B|126:216|126:216|181:256,1,161.500003080368,6|6,0:0|0:0,0:0:0:0:
202,341,51947,1,8,0:3:0:0:
202,341,52063,1,8,0:3:0:0:
202,341,52180,6,0,P|134:349|80:318,2,121.125002310276,14|2|2,0:3|0:0|0:0,0:0:0:0:
285,309,53113,2,0,P|353:301|407:332,1,121.125002310276,2|2,0:0|0:0,0:0:0:0:
430,354,53579,2,0,L|435:257,1,80.750001540184,8|2,0:0|0:0,0:0:0:0:
456,187,54046,2,0,B|478:126|478:126|455:59,2,121.125002310276,2|2|2,0:0|0:0|0:0,0:0:0:0:
386,131,54978,2,0,P|316:125|273:77,1,121.125002310276,2|2,0:0|0:0,0:0:0:0:
256,53,55445,2,0,L|175:43,1,80.750001540184,8|2,0:0|0:0,0:0:0:0:
114,107,55911,6,0,B|50:113|50:113|-6:80,2,121.125002310276,2|2|2,0:0|0:0|0:0,0:0:0:0:
137,193,56844,2,0,P|191:221|267:200,1,121.125002310276,2|2,0:0|0:0,0:0:0:0:
285,185,57311,2,0,L|385:212,1,80.750001540184,8|2,0:0|0:0,0:0:0:0:
444,170,57777,2,0,B|449:241|449:241|437:268|437:268|445:347,1,161.500003080368,2|10,0:0|0:0,0:0:0:0:
362,347,58477,1,0,0:0:0:0:
362,347,58593,1,0,0:0:0:0:
362,347,58710,2,0,B|288:311|288:311|201:354,1,161.500003080368,2|10,0:0|0:0,0:0:0:0:
131,368,59409,1,2,0:0:0:0:
54,318,59643,6,0,P|108:280|163:283,2,121.125002310276,2|2|2,0:0|0:0|0:0,0:0:0:0:
9,241,60575,2,0,B|-7:185|-7:185|10:124,1,121.125002310276,2|2,0:0|0:0,0:0:0:0:
24,81,61042,2,0,L|126:110,1,80.750001540184,8|2,0:0|0:0,0:0:0:0:
172,156,61508,2,0,B|188:100|188:100|169:36,2,121.125002310276,2|2|2,0:0|0:0|0:0,0:0:0:0:
251,195,62441,2,0,P|314:202|369:160,1,121.125002310276,2|2,0:0|0:0,0:0:0:0:
376,129,62908,2,0,L|462:132,1,80.750001540184,8|2,0:0|0:0,0:0:0:0:
456,220,63374,6,0,B|443:259|443:259|456:305,1,80.750001540184,2|0,0:0|0:0,0:0:0:0:
462,345,63724,1,2,0:0:0:0:
462,345,63840,2,0,L|376:353,1,80.750001540184,8|2,0:0|0:0,0:0:0:0:
310,308,64307,1,2,0:0:0:0:
310,308,64423,2,0,L|224:316,1,80.750001540184,0|2,0:0|0:0,0:0:0:0:
199,348,64773,2,0,L|113:356,1,80.750001540184,8|2,0:0|0:0,0:0:0:0:
45,305,65240,6,0,B|17:227|17:227|43:153,1,161.500003080368,4|8,0:3|0:3,0:0:0:0:
239,226,66172,6,0,B|297:219|297:219|319:232|319:232|388:220,2,142.5,12|12|12,0:0|0:0|0:0,0:0:0:0:
194,140,67105,6,0,P|181:92|200:38,1,95,14|0,0:3|0:0,0:0:0:0:
284,22,67572,2,0,L|389:39,1,95,14|0,0:0|0:0,0:0:0:0:
471,22,68038,2,0,B|443:94|443:94|473:189,1,142.5,2|2,0:0|0:0,0:0:0:0:
477,202,68505,2,0,P|492:253|480:301,1,95,8|2,0:0|0:0,0:0:0:0:
408,350,68971,2,0,P|335:355|284:309,1,142.5,2|0,0:0|0:0,0:0:0:0:
273,265,69437,2,0,L|188:329,1,95,10|2,0:0|0:0,0:0:0:0:
123,382,69904,2,0,B|96:308|96:308|138:218,1,142.5,2|2,0:0|0:0,0:0:0:0:
137,204,70370,2,0,L|17:203,1,95,8|0,0:0|0:0,0:0:0:0:
42,107,70837,6,0,P|87:94|143:111,1,95,2|0,0:0|0:0,0:0:0:0:
160,14,71303,2,0,P|201:36|225:76,1,95,10|0,0:0|0:0,0:0:0:0:
215,171,71769,2,0,B|286:192|286:192|356:168,1,142.5,2|2,0:0|0:0,0:0:0:0:
393,147,72236,2,0,P|377:191|384:237,1,95,8|2,0:0|0:0,0:0:0:0:
479,242,72702,2,0,P|494:197|487:151,2,95,2|2|10,0:0|0:0|0:0,0:0:0:0:
425,320,73402,1,2,0:0:0:0:
338,359,73635,2,0,L|220:378,1,95,10|8,0:3|0:3,0:0:0:0:
200,383,73985,1,8,0:3:0:0:
200,383,74102,2,0,L|145:301,1,95,8|8,0:3|0:3,0:0:0:0:
102,319,74451,1,8,0:3:0:0:
102,319,74568,6,0,L|-16:338,1,95,8|0,0:3|0:0,0:0:0:0:
5,239,75034,2,0,B|-7:193|-7:193|11:137,1,95,14|0,0:0|0:0,0:0:0:0:
18,53,75501,2,0,B|83:81|83:81|153:57,1,142.5,2|2,0:0|0:0,0:0:0:0:
197,46,75967,2,0,P|182:96|200:148,1,95,8|2,0:0|0:0,0:0:0:0:
278,94,76434,2,0,B|325:83|325:83|372:93,2,95,2|2|10,0:0|0:0|0:0,0:0:0:0:
323,177,77133,1,2,0:0:0:0:
387,246,77366,2,0,P|321:268|256:242,1,142.5,2|2,0:0|0:0,0:0:0:0:
215,218,77833,2,0,B|227:270|227:270|215:309,1,95,8|0,0:0|0:0,0:0:0:0:
128,349,78299,6,0,L|10:349,1,95,2|0,0:0|0:0,0:0:0:0:
0,257,78766,2,0,L|118:257,1,95,10|0,0:0|0:0,0:0:0:0:
60,168,79232,2,0,B|35:97|35:97|63:25,1,142.5,2|2,0:0|0:0,0:0:0:0:
98,63,79699,2,0,P|142:75|211:53,1,95,8|2,0:0|0:0,0:0:0:0:
278,31,80165,2,0,P|322:19|391:41,2,95,2|2|10,0:0|0:0|0:0,0:0:0:0:
326,112,80865,1,2,0:0:0:0:
245,162,81098,2,0,P|321:207|378:190,1,142.5,10|2,0:3|0:0,0:0:0:0:
403,162,81564,1,8,0:0:0:0:
490,220,81797,1,8,0:3:0:0:
490,220,81914,1,8,0:3:0:0:
490,220,82031,6,0,B|501:266|501:266|489:321,1,95,8|0,0:3|0:0,0:0:0:0:
420,376,82497,2,0,L|306:376,1,95,14|0,0:0|0:0,0:0:0:0:
342,282,82964,2,0,P|277:255|202:304,1,142.5,2|2,0:0|0:0,0:0:0:0:
207,332,83430,2,0,B|160:342|160:342|107:330,1,95,8|2,0:0|0:0,0:0:0:0:
110,236,83896,2,0,B|63:246|63:246|10:234,2,95,2|2|10,0:0|0:0|0:0,0:0:0:0:
65,151,84596,1,2,0:0:0:0:
1,79,84829,2,0,P|64:55|137:91,1,142.5,2|2,0:0|0:0,0:0:0:0:
152,125,85296,2,0,L|254:99,1,95,8|0,0:0|0:0,0:0:0:0:
336,124,85762,6,0,B|323:75|323:75|336:30,1,95,2|0,0:0|0:0,0:0:0:0:
430,34,86228,2,0,B|443:83|443:83|430:128,1,95,10|0,0:0|0:0,0:0:0:0:
481,206,86695,2,0,P|510:272|477:351,1,142.5,2|2,0:0|0:0,0:0:0:0:
447,358,87161,2,0,L|351:334,1,95,8|2,0:0|0:0,0:0:0:0:
259,343,87628,2,0,B|271:298|271:298|255:241,2,95,2|2|2,0:0|0:0|0:0,0:0:0:0:
174,299,88327,1,2,0:0:0:0:
107,367,88561,2,0,P|80:299|115:219,1,142.5,2|6,0:0|0:0,0:0:0:0:
