osu file format v14

[General]
AudioFilename: audio.ogg
AudioLeadIn: 0
PreviewTime: 53595
Countdown: 0
SampleSet: Normal
StackLeniency: 0.7
Mode: 1
LetterboxInBreaks: 0
WidescreenStoryboard: 0

[Editor]
Bookmarks: 141,6807,13474,20141,26814,40160,53493,60160,66826,73493,80160,86826,93493,100160
DistanceSpacing: 0.7
BeatDivisor: 4
GridSize: 32
TimelineZoom: 1

[Metadata]
Title:Victory in the Dream World
TitleUnicode:夢の中の勝者を目指して!
Artist:Yoko Shimomura
ArtistUnicode:下村陽子
Creator:Kazaze
Version:Kantan
Source:マリオ&ルイージRPG4 ドリームアドベンチャー
Tags:video game instrumental electronic Youko nintendo 3ds mario and luigi dream team bros マリオ & ルイージ RPG4 adventure alphadream try again Yume no Naka no shousha o mezashite! battle theme -Tenshi-
BeatmapID:2472925
BeatmapSetID:1183663

[Difficulty]
HPDrainRate:7
CircleSize:5
OverallDifficulty:2.5
ApproachRate:5
SliderMultiplier:1.4
SliderTickRate:1

[Events]
//Background and Video events
0,0,"Dreamteam2.jpg",0,-20
//Break Periods
//Storyboard Layer 0 (Background)
//Storyboard Layer 1 (Fail)
//Storyboard Layer 2 (Pass)
//Storyboard Layer 3 (Foreground)
//Storyboard Layer 4 (Overlay)
//Storyboard Sound Samples

[TimingPoints]
262,416.666666666667,4,1,0,60,1,0
40366,-100,4,1,0,40,0,0
46824,-100,4,1,0,50,0,0
50209,-100,4,1,0,60,0,0
53595,-100,4,1,0,70,0,1
80209,-100,4,1,0,60,0,1
80262,-100,4,1,0,60,0,0
80470,-100,4,1,0,30,0,0
93543,-100,4,1,0,60,0,0

[HitObjects]
93,198,262,5,6,0:0:0:0:
220,218,1512,1,0,0:0:0:0:
220,218,1928,1,2,0:0:0:0:
220,218,2762,1,2,0:0:0:0:
220,218,3178,1,0,0:0:0:0:
163,232,3595,1,6,0:0:0:0:
251,174,4845,1,2,0:0:0:0:
251,174,5262,1,0,0:0:0:0:
338,182,6095,1,0,0:0:0:0:
338,182,6512,1,0,0:0:0:0:
338,182,6928,1,6,0:0:0:0:
209,198,8595,1,0,0:0:0:0:
209,198,9012,1,2,0:0:0:0:
209,198,9845,1,2,0:0:0:0:
228,288,10262,1,0,0:0:0:0:
108,173,10887,1,0,0:0:0:0:
279,171,11512,1,2,0:0:0:0:
245,197,11928,1,0,0:0:0:0:
271,191,12762,1,0,0:0:0:0:
201,271,13178,1,0,0:0:0:0:
197,264,13595,1,6,0:0:0:0:
365,207,15262,1,0,0:0:0:0:
192,219,15678,1,2,0:0:0:0:
268,204,16512,1,2,0:0:0:0:
268,204,16928,1,0,0:0:0:0:
274,244,17345,1,0,0:0:0:0:
246,216,18178,1,2,0:0:0:0:
363,259,18595,1,0,0:0:0:0:
194,244,20262,1,2,0:0:0:0:
310,207,20678,1,0,0:0:0:0:
325,173,21512,1,0,0:0:0:0:
325,173,21928,1,2,0:0:0:0:
302,193,22762,1,0,0:0:0:0:
302,193,23178,1,0,0:0:0:0:
302,193,23595,1,2,0:0:0:0:
309,186,24012,1,0,0:0:0:0:
343,144,24845,1,0,0:0:0:0:
258,206,25262,1,2,0:0:0:0:
248,163,26512,1,0,0:0:0:0:
226,216,26928,1,6,0:0:0:0:
319,128,27345,1,2,0:0:0:0:
316,189,28178,1,2,0:0:0:0:
264,225,28595,1,0,0:0:0:0:
256,99,29012,1,2,0:0:0:0:
261,164,29845,1,0,0:0:0:0:
220,232,30262,1,2,0:0:0:0:
384,266,30678,1,2,0:0:0:0:
244,278,31512,1,2,0:0:0:0:
244,278,31928,1,0,0:0:0:0:
226,169,33178,1,0,0:0:0:0:
240,222,33595,1,6,0:0:0:0:
142,155,34012,1,2,0:0:0:0:
316,189,34845,1,2,0:0:0:0:
264,225,35262,1,0,0:0:0:0:
256,99,35678,1,2,0:0:0:0:
261,164,36512,1,0,0:0:0:0:
220,232,36928,1,2,0:0:0:0:
384,266,37345,1,2,0:0:0:0:
244,278,38178,1,2,0:0:0:0:
244,278,38595,1,0,0:0:0:0:
237,186,39845,1,0,0:0:0:0:
240,222,40262,1,2,0:0:0:0:
309,255,40678,1,0,0:0:0:0:
250,284,41928,1,0,0:0:0:0:
266,151,42345,1,2,0:0:0:0:
255,188,43178,1,2,0:0:0:0:
255,188,43595,1,0,0:0:0:0:
284,169,44012,1,2,0:0:0:0:
208,206,45262,1,0,0:0:0:0:
208,206,45678,1,2,0:0:0:0:
255,188,46512,1,2,0:0:0:0:
255,188,46928,1,0,0:0:0:0:
284,169,47345,1,2,0:0:0:0:
258,225,48595,1,0,0:0:0:0:
258,225,49012,1,2,0:0:0:0:
310,228,49428,1,0,0:0:0:0:
174,273,50262,1,0,0:0:0:0:
268,193,50678,1,2,0:0:0:0:
294,153,51095,1,0,0:0:0:0:
235,243,51512,1,2,0:0:0:0:
235,243,51928,1,0,0:0:0:0:
222,209,53595,1,6,0:0:0:0:
239,251,54012,1,2,0:0:0:0:
239,251,54845,1,2,0:0:0:0:
239,251,55262,1,0,0:0:0:0:
239,251,55678,1,2,0:0:0:0:
239,251,56512,1,2,0:0:0:0:
252,213,56928,1,0,0:0:0:0:
252,213,57762,1,2,0:0:0:0:
285,282,58178,1,2,0:0:0:0:
285,282,58595,1,0,0:0:0:0:
285,282,59845,1,0,0:0:0:0:
285,282,60262,1,6,0:0:0:0:
186,180,60887,1,0,0:0:0:0:
186,180,61928,1,2,0:0:0:0:
276,192,62553,1,0,0:0:0:0:
283,233,63178,1,2,0:0:0:0:
191,268,63595,1,0,0:0:0:0:
316,108,65262,1,0,0:0:0:0:
305,194,66095,1,2,0:0:0:0:
170,264,66512,1,0,0:0:0:0:
135,281,66928,1,6,0:0:0:0:
111,247,67345,1,2,0:0:0:0:
111,247,68178,1,2,0:0:0:0:
97,289,68595,1,0,0:0:0:0:
97,289,69012,1,2,0:0:0:0:
239,251,69845,1,2,0:0:0:0:
252,213,70262,1,0,0:0:0:0:
252,213,71095,1,2,0:0:0:0:
285,282,71512,1,2,0:0:0:0:
285,282,71928,1,0,0:0:0:0:
285,282,73178,1,0,0:0:0:0:
285,282,73595,1,6,0:0:0:0:
186,180,74220,1,0,0:0:0:0:
186,180,75262,1,2,0:0:0:0:
276,192,75887,1,0,0:0:0:0:
283,233,76512,1,2,0:0:0:0:
191,268,76928,1,0,0:0:0:0:
316,108,78595,1,0,0:0:0:0:
225,181,79012,1,0,0:0:0:0:
170,264,79428,1,2,0:0:0:0:
305,194,79845,1,0,0:0:0:0:
135,281,80262,1,2,0:0:0:0:
220,218,81512,1,0,0:0:0:0:
220,218,81928,1,2,0:0:0:0:
220,218,82762,1,2,0:0:0:0:
220,218,83178,1,0,0:0:0:0:
163,232,83595,1,2,0:0:0:0:
251,174,84845,1,2,0:0:0:0:
251,174,85262,1,0,0:0:0:0:
338,182,86095,1,0,0:0:0:0:
338,182,86512,1,0,0:0:0:0:
338,182,86928,1,2,0:0:0:0:
209,198,88595,1,0,0:0:0:0:
209,198,89012,1,2,0:0:0:0:
209,198,89845,1,2,0:0:0:0:
228,288,90262,1,0,0:0:0:0:
108,173,90887,1,0,0:0:0:0:
279,171,91512,1,2,0:0:0:0:
245,197,91928,1,0,0:0:0:0:
271,191,92762,1,0,0:0:0:0:
201,271,93178,1,0,0:0:0:0:
197,264,93595,1,6,0:0:0:0:
365,207,95262,1,0,0:0:0:0:
192,219,95678,1,2,0:0:0:0:
268,204,96512,1,2,0:0:0:0:
268,204,96928,1,0,0:0:0:0:
274,244,97345,1,0,0:0:0:0:
246,216,98178,1,2,0:0:0:0:
363,259,98595,1,0,0:0:0:0:
194,244,100262,1,2,0:0:0:0:
310,207,100678,1,0,0:0:0:0:
325,173,101512,1,0,0:0:0:0:
325,173,101928,1,2,0:0:0:0:
302,193,102762,1,0,0:0:0:0:
302,193,103178,1,0,0:0:0:0:
302,193,103595,1,2,0:0:0:0:
309,186,104012,1,0,0:0:0:0:
343,144,104845,1,0,0:0:0:0:
258,206,105262,1,2,0:0:0:0:
246,186,106512,1,0,0:0:0:0:
226,216,106928,1,6,0:0:0:0:
