osu file format v14

[General]
AudioFilename: audio.mp3
AudioLeadIn: 0
PreviewTime: 37714
Countdown: 0
SampleSet: Soft
StackLeniency: 0.7
Mode: 0
LetterboxInBreaks: 0
SkinPreference:Default
WidescreenStoryboard: 1

[Editor]
DistanceSpacing: 1
BeatDivisor: 4
GridSize: 16
TimelineZoom: 2.599999

[Metadata]
Title:Super pump up!
TitleUnicode:スーパーポンプアップ!
Artist:Yoko Shimomura
ArtistUnicode:下村陽子
Creator:AJT
Version:Normal
Source:マリオ&ルイージRPG3!!!
Tags:Mario & and Luigi Bowser's Inside Story RPG 3 MiniGame Mini Game Pump it up Nintendo DS Video Game Electronic Instrumental Bloxi
BeatmapID:3407279
BeatmapSetID:1659561

[Difficulty]
HPDrainRate:3
CircleSize:3
OverallDifficulty:4
ApproachRate:6
SliderMultiplier:1.3
SliderTickRate:2

[Events]
//Background and Video events
0,0,"minigame.jpg",0,0
//Break Periods
2,27255,31340
//Storyboard Layer 0 (Background)
//Storyboard Layer 1 (Fail)
//Storyboard Layer 2 (Pass)
//Storyboard Layer 3 (Foreground)
//Storyboard Layer 4 (Overlay)
//Storyboard Sound Samples

[TimingPoints]
381,333.43151038917,4,2,0,35,1,0
3047,-100,4,2,0,45,0,0
5714,-100,4,2,0,55,0,0
37725,-100,4,2,0,65,0,1
59064,-100,4,2,0,65,0,0

[Colours]
Combo1 : 164,231,154
Combo2 : 97,169,228
Combo3 : 249,113,113
Combo4 : 249,208,132
SliderBorder : 255,255,255

[HitObjects]
320,152,381,6,0,L|320:288,2,130,0|8|0,1:0|0:0|3:0,0:0:0:0:
256,40,1381,1,8,0:0:0:0:
192,152,1714,2,0,L|192:288,2,130,0|8|0,1:0|0:0|1:0,0:0:0:0:
256,40,2715,1,8,0:0:0:0:
256,40,2881,1,8,0:0:0:0:
191,51,3048,6,0,P|104:21|12:56,2,195,0|0|8,1:0|1:0|0:0,0:0:0:0:
321,51,4382,2,0,P|407:21|499:56,2,195,0|2|8,1:0|1:2|0:0,0:0:0:0:
256,72,5549,1,8,0:0:0:0:
256,136,5715,5,4,1:2:0:0:
136,184,6049,1,8,0:0:0:0:
136,184,6216,2,0,B|169:251|101:319|136:378,1,195,0|8,1:0|1:0,0:0:0:0:
256,328,7049,2,0,B|400:328,2,130,0|8|0,1:0|1:0|1:0,0:0:0:0:
304,376,7883,2,0,L|368:376,2,65,4|8|8,3:0|1:0|1:0,0:0:0:0:
256,328,8383,6,0,L|256:128,2,195,2|2|10,1:2|1:2|1:2,0:0:0:0:
384,320,9717,5,2,1:2:0:0:
384,192,10050,1,8,1:0:0:0:
384,64,10383,2,0,B|384:27|384:27|355:27,1,65,0|4,1:0|3:0,0:0:0:0:
308,72,10717,1,8,1:0:0:0:
256,32,10884,1,8,1:0:0:0:
204,72,11050,5,4,1:2:0:0:
136,184,11384,1,8,0:0:0:0:
136,184,11550,2,0,B|203:151|271:219|330:184,1,195,0|8,1:0|1:0,0:0:0:0:
456,192,12384,1,0,1:0:0:0:
456,64,12717,1,8,1:0:0:0:
324,64,13051,1,0,1:0:0:0:
324,64,13218,2,0,L|260:64,2,65,4|8|8,3:0|1:0|1:0,0:0:0:0:
388,64,13718,6,0,B|416:128|368:192|388:264,2,195,2|2|10,1:2|1:2|1:2,0:0:0:0:
256,64,15051,1,0,1:0:0:0:
253,192,15385,1,8,1:0:0:0:
144,272,15718,2,0,B|144:336,1,65,0|4,1:0|3:0,0:0:0:0:
204,312,16052,1,8,1:0:0:0:
256,352,16218,1,8,1:0:0:0:
308,312,16385,5,4,1:2:0:0:
312,117,16885,1,0,1:0:0:0:
117,117,17386,1,8,1:0:0:0:
0,176,17719,2,0,B|0:213|0:213|29:213,1,65,0|2,1:0|0:0,0:0:0:0:
92,212,18052,2,0,B|129:212|129:212|129:241,1,65,8|2,1:0|0:0,0:0:0:0:
128,304,18386,2,0,B|128:384,2,65,0|4|8,1:0|3:0|1:0,0:0:0:0:
184,272,18886,1,8,1:0:0:0:
184,272,19053,6,0,L|384:272,2,195,2|2|10,1:2|1:2|1:2,0:0:0:0:
176,144,20386,1,0,1:0:0:0:
176,16,20720,1,8,1:0:0:0:
304,16,21053,2,0,B|341:16|341:16|341:45,1,65,0|4,1:0|3:0,0:0:0:0:
340,108,21387,2,0,B|340:145|340:145|369:145,1,65,8|8,1:0|1:0,0:0:0:0:
432,144,21720,5,4,1:2:0:0:
436,339,22220,1,0,1:0:0:0:
241,339,22720,1,8,1:0:0:0:
128,272,23054,2,0,B|128:235|128:235|157:235,1,65,0|2,1:0|0:0,0:0:0:0:
220,236,23387,2,0,B|257:236|257:236|257:207,1,65,8|2,1:0|0:0,0:0:0:0:
256,144,23721,2,0,B|256:64,2,65,0|4|8,1:0|3:0|1:0,0:0:0:0:
312,176,24221,1,8,1:0:0:0:
312,176,24388,6,0,L|512:176,2,195,2|2|10,1:2|1:2|1:2,0:0:0:0:
176,176,25721,1,2,1:2:0:0:
48,176,26055,2,0,L|48:240,1,65,8|2,1:0|0:0,0:0:0:0:
48,304,26388,2,0,B|48:341|48:341|77:341,1,65,0|4,1:0|3:0,0:0:0:0:
140,340,26722,2,0,B|177:340|177:340|177:311,1,65,8|8,1:0|1:0,0:0:0:0:
176,248,27055,1,4,1:2:0:0:
256,192,32390,5,2,3:2:0:0:
256,192,32473,12,0,36391,3:0:0:0:
256,192,37225,6,0,L|256:256,2,65,4|8|8,3:0|1:0|1:0,0:0:0:0:
256,128,37725,1,4,1:2:0:0:
108,0,38225,1,0,1:0:0:0:
256,128,38725,1,8,1:0:0:0:
256,64,38892,1,0,3:0:0:0:
256,0,39059,2,0,B|276:-20|295:19|315:0,1,65,0|2,1:0|0:0,0:0:0:0:
384,0,39392,2,0,B|404:20|364:39|384:59,1,65,8|2,1:0|0:0,0:0:0:0:
384,128,39725,2,0,B|404:108|423:147|443:128,2,65,0|4|8,1:0|3:0|1:0,0:0:0:0:
384,192,40226,1,8,1:0:0:0:
384,256,40392,6,0,B|320:224|256:288|184:256,2,195,2|2|10,1:2|1:2|1:2,0:0:0:0:
512,256,41726,1,2,1:2:0:0:
512,384,42059,1,8,1:0:0:0:
384,384,42393,2,0,L|320:384,1,65,0|8,1:0|3:0,0:0:0:0:
256,384,42726,2,0,L|192:384,1,65,8|8,1:0|1:0,0:0:0:0:
128,384,43060,5,4,1:2:0:0:
256,236,43560,1,0,1:0:0:0:
128,384,44060,1,8,1:0:0:0:
128,320,44227,1,0,3:0:0:0:
64,320,44393,2,0,B|44:300|83:281|64:261,1,65,0|2,1:0|0:0,0:0:0:0:
64,192,44727,2,0,B|84:172|103:212|123:192,1,65,8|2,1:0|0:0,0:0:0:0:
192,192,45060,2,0,B|172:172|211:153|192:133,2,65,0|4|8,1:0|3:0|1:0,0:0:0:0:
256,192,45560,1,8,1:0:0:0:
320,192,45727,6,0,B|288:256|352:320|320:392,2,195,2|2|10,1:2|1:2|1:2,0:0:0:0:
320,64,47061,1,2,1:2:0:0:
192,64,47394,1,8,1:0:0:0:
64,64,47728,1,0,1:0:0:0:
64,128,47894,1,4,3:0:0:0:
64,192,48061,2,0,L|64:256,1,65,8|8,1:0|1:0,0:0:0:0:
128,288,48395,5,4,1:2:0:0:
384,288,48895,1,0,1:0:0:0:
128,288,49395,1,8,1:0:0:0:
192,288,49562,1,0,3:0:0:0:
256,288,49728,2,0,B|235:308|274:328|255:347,2,65,0|2|8,1:0|0:0|1:0,0:0:0:0:
256,224,50229,1,2,0:0:0:0:
256,160,50395,2,0,B|235:139|274:119|255:100,1,65,0|4,1:0|3:0,0:0:0:0:
256,32,50729,2,0,B|276:11|296:50|315:31,1,65,8|8,1:0|1:0,0:0:0:0:
384,32,51062,6,0,B|416:96|352:160|384:232,2,195,2|2|10,1:2|1:2|1:2,0:0:0:0:
256,0,52396,1,2,1:2:0:0:
128,32,52729,1,8,1:0:0:0:
32,128,53063,2,0,L|32:192,1,65,0|4,1:0|3:0,0:0:0:0:
64,256,53396,2,0,L|64:320,1,65,8|8,1:0|1:0,0:0:0:0:
96,384,53730,5,4,1:2:0:0:
416,384,54230,1,0,1:0:0:0:
96,384,54730,1,8,1:0:0:0:
160,384,54897,1,0,3:0:0:0:
224,384,55063,2,0,L|224:320,1,65,0|2,1:0|0:0,0:0:0:0:
224,256,55397,2,0,L|224:192,1,65,8|2,1:0|0:0,0:0:0:0:
293,191,55730,2,0,L|293:255,1,65,0|4,1:0|3:0,0:0:0:0:
293,319,56064,2,0,L|293:383,1,65,8|8,1:0|1:0,0:0:0:0:
384,384,56397,6,0,B|416:320|352:256|384:184,2,195,2|2|10,1:2|1:2|1:2,0:0:0:0:
256,352,57731,2,0,L|192:352,1,65,2|2,1:2|0:0,0:0:0:0:
128,352,58064,2,0,L|128:288,1,65,8|2,1:0|0:0,0:0:0:0:
128,224,58398,2,0,L|64:224,1,65,0|4,1:0|3:0,0:0:0:0:
64,160,58731,1,8,1:0:0:0:
64,96,58898,1,8,1:0:0:0:
0,96,59064,1,4,1:2:0:0:
