osu file format v14

[General]
AudioFilename: audio.mp3
AudioLeadIn: 0
PreviewTime: 37714
Countdown: 0
SampleSet: Soft
StackLeniency: 0.7
Mode: 0
LetterboxInBreaks: 0
SkinPreference:Default
WidescreenStoryboard: 1

[Editor]
DistanceSpacing: 1
BeatDivisor: 4
GridSize: 32
TimelineZoom: 2.599999

[Metadata]
Title:Super pump up!
TitleUnicode:スーパーポンプアップ!
Artist:Yoko Shimomura
ArtistUnicode:下村陽子
Creator:AJT
Version:Insane
Source:マリオ&ルイージRPG3!!!
Tags:Mario & and Luigi Bowser's Inside Story RPG 3 MiniGame Mini Game Pump it up Nintendo DS Video Game Electronic Instrumental Bloxi
BeatmapID:3406732
BeatmapSetID:1659561

[Difficulty]
HPDrainRate:5
CircleSize:4
OverallDifficulty:7.5
ApproachRate:8.5
SliderMultiplier:1.8
SliderTickRate:2

[Events]
//Background and Video events
0,0,"minigame.jpg",0,0
//Break Periods
2,27255,31715
//Storyboard Layer 0 (Background)
//Storyboard Layer 1 (Fail)
//Storyboard Layer 2 (Pass)
//Storyboard Layer 3 (Foreground)
//Storyboard Layer 4 (Overlay)
//Storyboard Sound Samples

[TimingPoints]
381,333.43151038917,4,2,0,35,1,0
3047,-100,4,2,0,45,0,0
5714,-100,4,2,0,55,0,0
37725,-100,4,2,0,65,0,1
59064,-100,4,2,0,65,0,0

[Colours]
Combo1 : 164,231,154
Combo2 : 97,169,228
Combo3 : 249,113,113
Combo4 : 249,208,132
SliderBorder : 255,255,255

[HitObjects]
496,0,381,6,0,P|446:11|400:32,1,90,0|0,1:0|0:0,0:0:0:0:
328,80,714,2,0,P|317:130|296:176,1,90,8|0,0:0|0:0,0:0:0:0:
210,165,1047,2,0,P|193:124|184:80,1,90,0|0,3:0|0:0,0:0:0:0:
101,26,1381,2,0,P|60:9|16:0,1,90,8|0,0:0|0:0,0:0:0:0:
184,80,1714,6,0,P|193:124|210:165,1,90,0|0,1:0|0:0,0:0:0:0:
301,165,2048,2,0,P|318:124|328:80,1,90,8|0,0:0|0:0,0:0:0:0:
183,79,2381,2,0,P|193:124|210:165,1,90,0|0,1:0|3:0,0:0:0:0:
256,360,2715,1,8,0:0:0:0:
256,360,2881,1,8,0:0:0:0:
176,278,3048,6,0,P|96:307|9:272,1,180,0|8,1:0|0:0,0:0:0:0:
11,110,3548,2,0,P|92:77|176:106,1,180,0|0,1:0|3:0,0:0:0:0:
256,192,4048,1,8,0:0:0:0:
256,192,4215,1,0,3:0:0:0:
336,278,4382,6,0,P|416:307|503:272,1,180,0|8,1:0|0:0,0:0:0:0:
501,110,4882,2,0,P|420:77|336:106,1,180,2|0,1:2|3:0,0:0:0:0:
256,192,5382,1,8,0:0:0:0:
256,192,5549,1,8,0:0:0:0:
256,0,5715,5,4,1:2:0:0:
256,0,6049,1,8,0:0:0:0:
256,0,6216,2,0,B|288:64|224:128|256:184,1,180,0|0,1:0|3:0,0:0:0:0:
256,384,6716,2,0,B|271:353|240:322|256:295,1,90,8|0,1:0|0:0,0:0:0:0:
160,256,7049,5,0,1:0:0:0:
160,256,7216,1,2,0:0:0:0:
352,256,7383,1,8,1:0:0:0:
352,256,7549,1,2,0:0:0:0:
160,256,7716,5,0,1:0:0:0:
256,256,7883,1,4,3:0:0:0:
352,256,8049,1,8,1:0:0:0:
160,256,8216,1,8,1:0:0:0:
192,160,8383,5,2,1:2:0:0:
192,160,8466,1,2,0:0:0:0:
192,160,8550,2,0,L|128:128,2,45,2|2|10,0:0|0:0|1:2,0:0:0:0:
320,160,8883,2,0,L|384:128,4,45,2|2|2|2|2,1:2|0:0|0:0|0:0|1:2,0:0:0:0:
256,64,9383,2,0,L|256:0,2,45,10|2|2,1:2|0:0|0:0,0:0:0:0:
160,96,9717,6,0,P|120:72|76:72,1,90,2|0,1:2|0:0,0:0:0:0:
352,96,10050,2,0,P|392:72|436:72,1,90,8|0,1:0|0:0,0:0:0:0:
352,192,10383,1,0,1:0:0:0:
320,288,10550,1,4,3:0:0:0:
192,288,10717,1,8,1:0:0:0:
160,192,10884,1,8,1:0:0:0:
256,96,11050,5,4,1:2:0:0:
160,192,11384,1,8,0:0:0:0:
160,192,11550,1,0,1:0:0:0:
352,192,11884,1,0,3:0:0:0:
352,192,12051,2,0,B|367:161|336:130|352:103,1,90,8|0,1:0|3:0,0:0:0:0:
352,0,12384,5,0,1:0:0:0:
352,0,12551,1,2,0:0:0:0:
160,0,12717,1,8,1:0:0:0:
160,0,12884,1,2,0:0:0:0:
352,0,13051,5,0,1:0:0:0:
256,0,13218,1,4,3:0:0:0:
160,0,13384,1,8,1:0:0:0:
352,0,13551,1,8,1:0:0:0:
320,96,13718,5,2,1:2:0:0:
320,96,13801,1,2,0:0:0:0:
320,96,13884,2,0,L|384:128,2,45,2|2|10,0:0|0:0|1:2,0:0:0:0:
192,96,14218,2,0,L|128:128,4,45,2|2|2|2|2,1:2|0:0|0:0|0:0|1:2,0:0:0:0:
256,192,14718,2,0,L|256:256,2,45,10|2|2,1:2|0:0|0:0,0:0:0:0:
160,192,15051,6,0,L|64:192,1,90,0|0,1:0|0:0,0:0:0:0:
352,192,15385,2,0,L|448:192,1,90,8|0,1:0|0:0,0:0:0:0:
352,288,15718,1,0,1:0:0:0:
320,384,15885,1,4,3:0:0:0:
192,384,16052,1,8,1:0:0:0:
160,288,16218,1,8,1:0:0:0:
256,192,16385,5,4,1:2:0:0:
256,192,16719,1,8,0:0:0:0:
256,192,16885,2,0,B|288:224|224:288|256:384,1,180,0|0,1:0|3:0,0:0:0:0:
160,288,17386,1,8,1:0:0:0:
160,288,17552,1,2,0:0:0:0:
352,288,17719,5,0,1:0:0:0:
352,192,17886,1,2,0:0:0:0:
352,96,18052,1,8,1:0:0:0:
256,96,18219,1,2,0:0:0:0:
160,96,18386,1,0,1:0:0:0:
160,192,18553,1,4,3:0:0:0:
256,288,18719,1,8,1:0:0:0:
160,288,18886,1,8,1:0:0:0:
96,352,19053,5,2,1:2:0:0:
96,352,19136,1,2,0:0:0:0:
96,352,19219,2,0,L|32:384,2,45,2|2|10,0:0|0:0|1:2,0:0:0:0:
256,192,19553,1,2,1:2:0:0:
256,192,19636,1,2,0:0:0:0:
256,192,19720,2,0,L|256:128,2,45,2|2|2,0:0|0:0|1:2,0:0:0:0:
416,352,20053,2,0,L|480:384,3,45,10|2|2|2,1:2|0:0|0:0|0:0,0:0:0:0:
371,307,20386,5,0,1:0:0:0:
371,192,20553,1,2,0:0:0:0:
371,76,20720,1,8,1:0:0:0:
256,76,20887,1,2,0:0:0:0:
140,76,21053,1,0,1:0:0:0:
140,192,21220,1,4,3:0:0:0:
256,307,21387,1,8,1:0:0:0:
140,307,21553,1,8,1:0:0:0:
256,192,21720,5,4,1:2:0:0:
256,192,22054,1,8,0:0:0:0:
256,192,22220,2,0,B|288:160|224:96|256:0,1,180,0|0,1:0|3:0,0:0:0:0:
160,96,22720,1,8,1:0:0:0:
160,96,22887,1,0,0:0:0:0:
352,95,23054,5,0,1:0:0:0:
392,192,23221,1,2,0:0:0:0:
352,288,23387,1,8,1:0:0:0:
256,328,23554,1,2,0:0:0:0:
159,288,23721,1,0,1:0:0:0:
119,192,23887,1,4,3:0:0:0:
256,55,24054,1,8,1:0:0:0:
159,95,24221,1,8,1:0:0:0:
416,32,24388,5,2,1:2:0:0:
416,32,24471,1,2,0:0:0:0:
416,32,24554,2,0,L|480:0,2,45,2|2|10,0:0|0:0|1:2,0:0:0:0:
256,192,24888,1,2,1:2:0:0:
256,192,24971,1,2,0:0:0:0:
256,192,25054,2,0,L|256:256,2,45,2|2|2,0:0|0:0|1:2,0:0:0:0:
96,32,25388,2,0,L|32:0,3,45,10|2|2|2,1:2|0:0|0:0|0:0,0:0:0:0:
159,95,25721,5,2,1:2:0:0:
119,192,25888,1,2,0:0:0:0:
159,288,26055,1,8,1:0:0:0:
256,328,26221,1,2,0:0:0:0:
352,288,26388,1,0,1:0:0:0:
392,192,26555,1,4,3:0:0:0:
256,55,26722,1,8,1:0:0:0:
352,95,26888,1,8,1:0:0:0:
256,192,27055,5,4,1:2:0:0:
256,192,32390,5,2,3:2:0:0:
256,192,32473,12,8,36725,1:0:0:0:
256,288,37225,5,4,3:0:0:0:
256,96,37391,1,8,1:0:0:0:
256,192,37558,1,8,1:0:0:0:
474,117,37725,6,0,B|420:116|378:34|320:32,1,180,4|8,1:2|0:0,0:0:0:0:
192,32,38225,2,0,B|135:34|93:116|37:117,1,180,0|0,1:0|3:0,0:0:0:0:
256,192,38725,1,8,1:0:0:0:
192,320,38892,1,0,3:0:0:0:
192,320,38975,1,0,3:0:0:0:
192,320,39059,2,0,B|160:352|128:288|96:320,2,90,0|2|8,1:0|0:0|1:0,0:0:0:0:
320,320,39559,2,0,B|352:352|384:288|416:320,2,90,2|0|4,0:0|1:0|3:0,0:0:0:0:
256,192,40059,1,8,1:0:0:0:
256,192,40226,1,8,1:0:0:0:
192,104,40392,5,2,1:2:0:0:
224,88,40476,1,2,0:0:0:0:
256,80,40559,1,2,0:0:0:0:
288,88,40642,1,2,0:0:0:0:
320,104,40726,1,10,1:2:0:0:
384,32,40892,5,2,1:2:0:0:
384,32,40976,1,2,0:0:0:0:
384,32,41059,2,0,L|448:0,2,45,2|2|2,0:0|0:0|1:2,0:0:0:0:
128,32,41393,5,10,1:2:0:0:
128,32,41476,1,2,0:0:0:0:
128,32,41559,2,0,L|64:0,2,45,2|2|2,0:0|0:0|1:2,0:0:0:0:
256,0,41893,1,2,0:0:0:0:
320,96,42059,1,8,1:0:0:0:
256,192,42226,1,2,0:0:0:0:
192,288,42393,5,0,1:0:0:0:
256,384,42560,1,8,3:0:0:0:
256,192,42726,1,8,1:0:0:0:
320,288,42893,1,8,1:0:0:0:
37,202,43060,6,0,B|91:203|133:285|191:287,1,180,4|8,1:2|0:0,0:0:0:0:
320,287,43560,2,0,B|378:285|420:203|475:202,1,180,0|0,1:0|3:0,0:0:0:0:
256,192,44060,1,8,1:0:0:0:
192,64,44227,1,0,3:0:0:0:
192,64,44310,1,0,3:0:0:0:
192,64,44393,2,0,B|160:96|128:32|96:64,2,90,0|2|8,1:0|0:0|1:0,0:0:0:0:
320,64,44894,2,0,B|352:96|384:32|416:64,2,90,2|0|4,0:0|1:0|3:0,0:0:0:0:
256,192,45394,1,8,1:0:0:0:
256,192,45560,1,8,1:0:0:0:
192,280,45727,5,2,1:2:0:0:
224,296,45811,1,2,0:0:0:0:
256,304,45894,1,2,0:0:0:0:
288,296,45977,1,2,0:0:0:0:
320,280,46061,1,10,1:2:0:0:
384,352,46227,5,2,1:2:0:0:
384,352,46311,1,2,0:0:0:0:
384,352,46394,2,0,L|448:384,2,45,2|2|2,0:0|0:0|1:2,0:0:0:0:
128,352,46727,5,10,1:2:0:0:
128,352,46811,1,2,0:0:0:0:
128,352,46894,2,0,L|64:384,2,45,2|2|2,0:0|0:0|1:2,0:0:0:0:
256,384,47228,1,2,0:0:0:0:
320,288,47394,1,8,1:0:0:0:
256,192,47561,1,2,0:0:0:0:
192,96,47728,5,0,1:0:0:0:
320,96,47894,1,4,3:0:0:0:
256,192,48061,1,8,1:0:0:0:
256,0,48228,1,8,1:0:0:0:
320,96,48395,6,0,B|366:156|424:165|424:165|419:195|440:229,1,180,4|8,1:2|0:0,0:0:0:0:
79,215,48895,2,0,B|93:195|88:165|88:165|146:156|192:96,1,180,0|0,1:0|3:0,0:0:0:0:
256,192,49395,2,0,L|256:288,1,90,8|0,1:0|3:0,0:0:0:0:
176,320,49645,1,0,3:0:0:0:
176,320,49728,6,0,P|144:352|92:352,2,90,0|2|8,1:0|0:0|1:0,0:0:0:0:
336,320,50229,2,0,P|368:352|420:352,2,90,2|0|4,0:0|1:0|3:0,0:0:0:0:
256,192,50729,1,8,1:0:0:0:
256,192,50895,1,8,1:0:0:0:
144,256,51062,5,2,1:2:0:0:
160,224,51145,1,2,0:0:0:0:
168,192,51229,1,2,0:0:0:0:
160,160,51312,1,2,0:0:0:0:
144,128,51396,1,10,1:2:0:0:
48,80,51562,5,2,1:2:0:0:
48,80,51646,1,2,0:0:0:0:
48,80,51729,2,0,L|16:16,2,45,2|2|2,0:0|0:0|1:2,0:0:0:0:
48,304,52062,5,10,1:2:0:0:
48,304,52146,1,2,0:0:0:0:
48,304,52229,2,0,L|16:368,2,45,2|2|2,0:0|0:0|1:2,0:0:0:0:
64,192,52563,1,2,0:0:0:0:
160,128,52729,1,8,1:0:0:0:
256,192,52896,1,2,0:0:0:0:
352,256,53063,5,0,1:0:0:0:
448,192,53229,1,4,3:0:0:0:
256,192,53396,1,8,1:0:0:0:
352,128,53563,1,8,1:0:0:0:
160,128,53730,6,0,B|114:188|56:197|56:197|61:227|40:261,1,180,4|8,1:2|0:0,0:0:0:0:
464,247,54230,2,0,B|451:227|456:197|456:197|398:188|352:128,1,180,0|0,1:0|3:0,0:0:0:0:
256,192,54730,2,0,L|256:288,1,90,8|0,1:0|3:0,0:0:0:0:
352,320,54980,1,0,3:0:0:0:
352,320,55063,6,0,P|384:352|436:352,2,90,0|2|8,1:0|0:0|1:0,0:0:0:0:
160,320,55563,2,0,P|128:352|76:352,2,90,2|0|4,0:0|1:0|3:0,0:0:0:0:
256,192,56064,1,8,1:0:0:0:
256,192,56230,1,8,1:0:0:0:
368,256,56397,5,2,1:2:0:0:
352,224,56480,1,2,0:0:0:0:
344,192,56564,1,2,0:0:0:0:
352,160,56647,1,2,0:0:0:0:
368,128,56730,1,10,1:2:0:0:
464,80,56897,5,2,1:2:0:0:
464,80,56980,1,2,0:0:0:0:
464,80,57064,2,0,L|496:16,2,45,2|2|2,0:0|0:0|1:2,0:0:0:0:
464,304,57397,5,10,1:2:0:0:
464,304,57481,1,2,0:0:0:0:
464,304,57564,2,0,L|496:368,1,45,2|2,0:0|0:0,0:0:0:0:
448,192,57731,5,2,1:2:0:0:
448,192,57897,1,2,0:0:0:0:
352,128,58064,1,8,1:0:0:0:
256,192,58231,1,2,0:0:0:0:
128,288,58398,5,0,1:0:0:0:
0,192,58564,1,4,3:0:0:0:
128,96,58731,1,8,1:0:0:0:
256,192,58898,1,8,1:0:0:0:
256,384,59064,5,4,1:2:0:0:
