osu file format v14

[General]
AudioFilename: audio.mp3
AudioLeadIn: 0
PreviewTime: 37714
Countdown: 0
SampleSet: Soft
StackLeniency: 0.7
Mode: 0
LetterboxInBreaks: 0
SkinPreference:Default
WidescreenStoryboard: 1

[Editor]
DistanceSpacing: 1
BeatDivisor: 4
GridSize: 32
TimelineZoom: 2.599999

[Metadata]
Title:Super pump up!
TitleUnicode:スーパーポンプアップ!
Artist:Yoko Shimomura
ArtistUnicode:下村陽子
Creator:AJT
Version:Hard
Source:マリオ&ルイージRPG3!!!
Tags:Mario & and Luigi Bowser's Inside Story RPG 3 MiniGame Mini Game Pump it up Nintendo DS Video Game Electronic Instrumental Bloxi
BeatmapID:3406991
BeatmapSetID:1659561

[Difficulty]
HPDrainRate:4
CircleSize:3.5
OverallDifficulty:6
ApproachRate:8
SliderMultiplier:1.45
SliderTickRate:2

[Events]
//Background and Video events
0,0,"minigame.jpg",0,0
//Break Periods
2,27255,31640
//Storyboard Layer 0 (Background)
//Storyboard Layer 1 (Fail)
//Storyboard Layer 2 (Pass)
//Storyboard Layer 3 (Foreground)
//Storyboard Layer 4 (Overlay)
//Storyboard Sound Samples

[TimingPoints]
381,333.43151038917,4,2,0,35,1,0
3047,-100,4,2,0,45,0,0
5714,-100,4,2,0,55,0,0
37725,-100,4,2,0,65,0,1
59064,-100,4,2,0,65,0,0

[Colours]
Combo1 : 164,231,154
Combo2 : 97,169,228
Combo3 : 249,113,113
Combo4 : 249,208,132
SliderBorder : 255,255,255

[HitObjects]
448,32,381,6,0,L|368:32,1,72.5,0|0,1:0|0:0,0:0:0:0:
288,32,714,2,0,L|208:32,1,72.5,8|0,0:0|0:0,0:0:0:0:
128,32,1047,2,0,L|48:32,1,72.5,0|0,3:0|0:0,0:0:0:0:
0,128,1381,1,8,0:0:0:0:
64,224,1714,6,0,L|144:224,1,72.5,0|0,1:0|0:0,0:0:0:0:
224,224,2048,2,0,L|304:224,1,72.5,8|0,0:0|0:0,0:0:0:0:
384,224,2381,2,0,L|464:224,1,72.5,0|0,1:0|3:0,0:0:0:0:
512,128,2715,1,8,0:0:0:0:
512,128,2881,1,8,0:0:0:0:
448,32,3048,6,0,P|384:9|315:36,1,145,0|8,1:0|0:0,0:0:0:0:
196,36,3548,2,0,P|130:9|63:32,1,145,0|0,1:0|3:0,0:0:0:0:
0,128,4048,1,8,0:0:0:0:
64,224,4382,6,0,P|127:247|196:219,1,145,0|8,1:0|0:0,0:0:0:0:
315,219,4882,2,0,P|380:246|447:223,1,145,2|0,1:2|3:0,0:0:0:0:
512,128,5382,1,8,0:0:0:0:
512,128,5549,1,8,0:0:0:0:
384,128,5715,5,4,1:2:0:0:
256,0,6049,1,8,0:0:0:0:
256,0,6216,2,0,B|280:49|231:98|256:141,1,145,0|0,1:0|3:0,0:0:0:0:
256,224,6716,2,0,B|244:248|268:273|256:294,1,72.5,8|0,1:0|0:0,0:0:0:0:
400,352,7049,5,0,1:0:0:0:
400,352,7216,1,2,0:0:0:0:
304,352,7383,1,8,1:0:0:0:
304,352,7549,1,2,0:0:0:0:
208,352,7716,1,0,1:0:0:0:
208,352,7883,1,4,3:0:0:0:
112,352,8049,1,8,1:0:0:0:
112,352,8216,1,8,1:0:0:0:
64,256,8383,6,0,L|16:256,4,36.25,2|2|2|2|10,1:2|0:0|0:0|0:0|1:2,0:0:0:0:
160,192,8883,2,0,L|208:192,4,36.25,2|2|2|2|2,1:2|0:0|0:0|0:0|1:2,0:0:0:0:
64,128,9383,2,0,L|16:128,3,36.25,10|2|2|2,1:2|0:0|0:0|0:0,0:0:0:0:
96,96,9717,6,0,B|96:64|96:64|160:64,1,72.5,2|0,1:2|0:0,0:0:0:0:
224,64,10050,2,0,B|256:64|256:64|256:128,1,72.5,8|0,1:0|0:0,0:0:0:0:
320,160,10383,2,0,B|360:160|360:160|360:192,1,72.5,0|4,1:0|3:0,0:0:0:0:
360,280,10717,1,8,1:0:0:0:
360,280,10884,1,8,1:0:0:0:
448,280,11050,5,4,1:2:0:0:
256,384,11384,1,8,0:0:0:0:
256,384,11550,2,0,B|232:335|281:286|256:243,1,145,0|0,1:0|3:0,0:0:0:0:
256,160,12051,2,0,B|268:136|244:111|256:90,1,72.5,8|0,1:0|3:0,0:0:0:0:
112,32,12384,5,0,1:0:0:0:
112,32,12551,1,2,0:0:0:0:
208,32,12717,1,8,1:0:0:0:
208,32,12884,1,2,0:0:0:0:
304,32,13051,1,0,1:0:0:0:
304,32,13218,1,4,3:0:0:0:
400,32,13384,1,8,1:0:0:0:
400,32,13551,1,8,1:0:0:0:
448,128,13718,6,0,L|496:128,4,36.25,2|2|2|2|10,1:2|0:0|0:0|0:0|1:2,0:0:0:0:
352,192,14218,2,0,L|304:192,4,36.25,2|2|2|2|2,1:2|0:0|0:0|0:0|1:2,0:0:0:0:
448,256,14718,2,0,L|496:256,3,36.25,10|2|2|2,1:2|0:0|0:0|0:0,0:0:0:0:
416,288,15051,6,0,B|416:320|416:320|352:320,1,72.5,0|0,1:0|0:0,0:0:0:0:
288,320,15385,2,0,B|256:320|256:320|256:256,1,72.5,8|0,1:0|0:0,0:0:0:0:
256,192,15718,2,0,B|256:151|256:151|224:151,1,72.5,0|4,1:0|3:0,0:0:0:0:
137,152,16052,1,8,1:0:0:0:
137,152,16218,1,8,1:0:0:0:
0,152,16385,6,0,B|32:224|32:224|0:288,1,145,4|8,1:2|0:0,0:0:0:0:
64,352,16885,2,0,B|136:384|136:384|200:352,1,145,0|0,1:0|3:0,0:0:0:0:
256,288,17386,1,8,1:0:0:0:
352,192,17719,5,0,1:0:0:0:
352,192,17886,1,2,0:0:0:0:
352,96,18052,1,8,1:0:0:0:
352,96,18219,1,2,0:0:0:0:
256,96,18386,1,0,1:0:0:0:
256,96,18553,1,4,3:0:0:0:
160,96,18719,1,8,1:0:0:0:
160,192,18886,1,8,1:0:0:0:
160,288,19053,6,0,L|160:352,4,36.25,2|2|2|2|10,1:2|0:0|0:0|0:0|1:2,0:0:0:0:
256,348,19553,2,0,L|256:412,4,36.25,2|2|2|2|2,1:2|0:0|0:0|0:0|1:2,0:0:0:0:
352,288,20053,2,0,L|352:352,3,36.25,10|2|2|2,1:2|0:0|0:0|0:0,0:0:0:0:
352,224,20386,5,0,1:0:0:0:
416,160,20553,1,2,0:0:0:0:
352,96,20720,1,8,1:0:0:0:
352,96,20887,1,0,0:0:0:0:
256,96,21053,1,0,1:0:0:0:
256,96,21220,1,4,3:0:0:0:
160,96,21387,1,8,1:0:0:0:
160,192,21553,1,8,1:0:0:0:
160,288,21720,6,0,B|128:352|128:352|224:352,1,145,4|8,1:2|0:0,0:0:0:0:
310,352,22220,2,0,B|384:352|384:352|352:288,1,145,0|0,1:0|3:0,0:0:0:0:
256,256,22720,1,8,1:0:0:0:
160,192,23054,5,0,1:0:0:0:
160,192,23221,1,2,0:0:0:0:
160,96,23387,1,8,1:0:0:0:
160,96,23554,1,2,0:0:0:0:
256,96,23721,1,0,1:0:0:0:
256,96,23887,1,4,3:0:0:0:
352,96,24054,1,8,1:0:0:0:
352,192,24221,1,8,1:0:0:0:
352,288,24388,6,0,L|352:352,4,36.25,2|2|2|2|10,1:2|0:0|0:0|0:0|1:2,0:0:0:0:
256,348,24888,2,0,L|256:412,4,36.25,2|2|2|2|2,1:2|0:0|0:0|0:0|1:2,0:0:0:0:
160,288,25388,2,0,L|160:352,3,36.25,10|2|2|2,1:2|0:0|0:0|0:0,0:0:0:0:
160,224,25721,5,2,1:2:0:0:
96,160,25888,1,2,0:0:0:0:
160,96,26055,1,8,1:0:0:0:
160,96,26221,1,2,0:0:0:0:
256,128,26388,1,0,1:0:0:0:
352,96,26555,1,4,3:0:0:0:
416,160,26722,1,8,1:0:0:0:
352,224,26888,1,8,1:0:0:0:
256,288,27055,5,4,1:2:0:0:
256,192,32390,5,2,3:2:0:0:
256,192,32473,12,8,36725,1:0:0:0:
256,192,37225,5,4,3:0:0:0:
256,192,37391,1,8,1:0:0:0:
256,192,37558,1,8,1:0:0:0:
188,120,37725,6,0,P|256:96|324:120,1,145,4|8,1:2|0:0,0:0:0:0:
324,264,38225,2,0,P|256:288|188:264,1,145,0|0,1:0|3:0,0:0:0:0:
256,192,38725,1,8,1:0:0:0:
160,192,38892,1,0,3:0:0:0:
160,192,38975,1,0,3:0:0:0:
160,192,39059,2,0,B|137:169|115:214|93:192,2,72.5,0|2|8,1:0|0:0|1:0,0:0:0:0:
352,192,39559,2,0,B|374:169|396:214|418:192,2,72.5,2|0|4,0:0|1:0|3:0,0:0:0:0:
256,192,40059,1,8,1:0:0:0:
256,120,40226,1,8,1:0:0:0:
256,48,40392,6,0,L|256:-16,4,36.25,2|2|2|2|10,1:2|0:0|0:0|0:0|1:2,0:0:0:0:
160,96,40892,2,0,L|112:80,4,36.25,2|2|2|2|2,1:2|0:0|0:0|0:0|1:2,0:0:0:0:
352,96,41393,2,0,L|400:80,4,36.25,10|2|2|2|2,1:2|0:0|0:0|0:0|1:2,0:0:0:0:
256,120,41893,1,2,0:0:0:0:
256,120,42059,1,8,1:0:0:0:
144,288,42393,5,0,1:0:0:0:
256,336,42560,1,8,3:0:0:0:
368,288,42726,1,8,1:0:0:0:
256,336,42893,1,8,1:0:0:0:
144,288,43060,6,0,B|95:264|46:313|3:288,1,145,4|8,1:2|0:0,0:0:0:0:
0,192,43560,2,0,B|49:168|98:217|141:192,1,145,0|0,1:0|3:0,0:0:0:0:
256,192,44060,1,8,1:0:0:0:
256,96,44227,1,0,3:0:0:0:
256,96,44310,1,0,3:0:0:0:
256,96,44393,2,0,B|233:74|278:52|256:30,2,72.5,0|2|8,1:0|0:0|1:0,0:0:0:0:
256,288,44894,2,0,B|233:310|278:332|256:354,2,72.5,2|0|4,0:0|1:0|3:0,0:0:0:0:
256,192,45394,1,8,1:0:0:0:
328,192,45560,1,8,1:0:0:0:
400,192,45727,6,0,L|464:192,4,36.25,2|2|2|2|10,1:2|0:0|0:0|0:0|1:2,0:0:0:0:
352,288,46227,2,0,L|368:336,4,36.25,2|2|2|2|2,1:2|0:0|0:0|0:0|1:2,0:0:0:0:
352,96,46727,2,0,L|368:48,4,36.25,10|2|2|2|2,1:2|0:0|0:0|0:0|1:2,0:0:0:0:
256,192,47228,1,2,0:0:0:0:
256,192,47394,1,8,1:0:0:0:
480,192,47728,5,0,1:0:0:0:
400,192,47894,1,4,3:0:0:0:
320,128,48061,1,8,1:0:0:0:
320,256,48228,1,8,1:0:0:0:
386,352,48395,6,0,B|320:384|320:384|256:352,1,145,4|8,1:2|0:0,0:0:0:0:
126,352,48895,2,0,B|191:384|191:384|255:352,1,145,0|0,1:0|3:0,0:0:0:0:
256,256,49395,1,8,1:0:0:0:
352,192,49562,1,0,3:0:0:0:
352,192,49645,1,0,3:0:0:0:
352,192,49728,2,0,B|352:159|399:175|399:144,2,72.5,0|2|8,1:0|0:0|1:0,0:0:0:0:
160,192,50229,2,0,B|160:159|112:175|112:144,2,72.5,2|0|4,0:0|1:0|3:0,0:0:0:0:
256,192,50729,1,8,1:0:0:0:
256,120,50895,1,8,1:0:0:0:
256,48,51062,6,0,L|256:-16,4,36.25,2|2|2|2|10,1:2|0:0|0:0|0:0|1:2,0:0:0:0:
352,96,51562,2,0,L|400:80,4,36.25,2|2|2|2|2,1:2|0:0|0:0|0:0|1:2,0:0:0:0:
160,96,52062,2,0,L|112:80,4,36.25,10|2|2|2|2,1:2|0:0|0:0|0:0|1:2,0:0:0:0:
256,120,52563,1,2,0:0:0:0:
256,120,52729,1,8,1:0:0:0:
368,288,53063,5,0,1:0:0:0:
256,336,53229,1,4,3:0:0:0:
144,288,53396,1,8,1:0:0:0:
256,224,53563,1,8,1:0:0:0:
368,288,53730,6,0,B|417:264|466:313|509:288,1,145,4|8,1:2|0:0,0:0:0:0:
512,96,54230,2,0,B|463:72|414:121|371:96,1,145,0|0,1:0|3:0,0:0:0:0:
256,192,54730,1,8,1:0:0:0:
256,96,54897,1,0,3:0:0:0:
256,96,54980,1,0,3:0:0:0:
256,96,55063,2,0,B|279:74|234:52|256:30,2,72.5,0|2|8,1:0|0:0|1:0,0:0:0:0:
256,288,55563,2,0,B|279:310|234:332|256:354,2,72.5,2|0|4,0:0|1:0|3:0,0:0:0:0:
256,192,56064,1,8,1:0:0:0:
184,192,56230,1,8,1:0:0:0:
112,192,56397,6,0,L|48:192,4,36.25,2|2|2|2|10,1:2|0:0|0:0|0:0|1:2,0:0:0:0:
160,288,56897,2,0,L|144:336,4,36.25,2|2|2|2|2,1:2|0:0|0:0|0:0|1:2,0:0:0:0:
160,96,57397,2,0,L|144:48,4,36.25,10|2|2|2|2,1:2|0:0|0:0|0:0|1:2,0:0:0:0:
256,192,57897,1,2,0:0:0:0:
256,192,58064,1,8,1:0:0:0:
512,192,58398,5,0,1:0:0:0:
416,192,58564,1,4,3:0:0:0:
332,115,58731,1,8,1:0:0:0:
256,32,58898,1,8,1:0:0:0:
256,192,59064,5,4,1:2:0:0:
