osu file format v14

[General]
AudioFilename: audio.mp3
AudioLeadIn: 0
PreviewTime: 37714
Countdown: 0
SampleSet: Soft
StackLeniency: 0.7
Mode: 0
LetterboxInBreaks: 0
SkinPreference:Default
WidescreenStoryboard: 0

[Editor]
DistanceSpacing: 1
BeatDivisor: 4
GridSize: 32
TimelineZoom: 2.599999

[Metadata]
Title:Super pump up!
TitleUnicode:スーパーポンプアップ!
Artist:Yoko Shimomura
ArtistUnicode:下村陽子
Creator:AJT
Version:Extra
Source:マリオ&ルイージRPG3!!!
Tags:Mario & and Luigi Bowser's Inside Story RPG 3 MiniGame Mini Game Pump it up Nintendo DS Video Game Electronic Instrumental Bloxi
BeatmapID:3387840
BeatmapSetID:1659561

[Difficulty]
HPDrainRate:6
CircleSize:4
OverallDifficulty:8
ApproachRate:8
SliderMultiplier:1.8
SliderTickRate:2

[Events]
//Background and Video events
0,0,"minigame.jpg",0,0
//Break Periods
2,27255,31640
//Storyboard Layer 0 (Background)
//Storyboard Layer 1 (Fail)
//Storyboard Layer 2 (Pass)
//Storyboard Layer 3 (Foreground)
//Storyboard Layer 4 (Overlay)
//Storyboard Sound Samples

[TimingPoints]
381,333.43151038917,4,2,0,35,1,0
3047,-100,4,2,0,45,0,0
5714,-100,4,2,0,55,0,0
37725,-100,4,2,0,65,0,1
59064,-100,4,2,0,65,0,0

[Colours]
Combo1 : 164,231,154
Combo2 : 97,169,228
Combo3 : 249,113,113
Combo4 : 249,208,132
SliderBorder : 255,255,255

[HitObjects]
480,32,381,6,0,P|469:82|448:128,1,90,0|0,1:0|0:0,0:0:0:0:
384,192,714,2,0,P|334:181|288:160,1,90,8|0,0:0|0:0,0:0:0:0:
31,32,1047,2,0,P|40:76|58:118,1,90,0|0,3:0|0:0,0:0:0:0:
127,192,1381,2,0,P|171:183|213:165,1,90,8|0,0:0|0:0,0:0:0:0:
480,352,1714,6,0,P|469:302|448:256,1,90,0|0,1:0|0:0,0:0:0:0:
384,192,2048,2,0,P|334:203|288:224,1,90,8|0,0:0|0:0,0:0:0:0:
31,351,2381,2,0,P|40:307|58:266,1,90,0|0,1:0|3:0,0:0:0:0:
127,191,2715,1,8,0:0:0:0:
213,218,2881,1,8,0:0:0:0:
340,114,3048,6,0,P|369:194|334:281,1,180,0|8,1:0|0:0,0:0:0:0:
176,278,3548,2,0,P|143:197|172:114,1,180,0|0,1:0|3:0,0:0:0:0:
256,0,4048,1,8,0:0:0:0:
256,0,4215,1,0,3:0:0:0:
172,113,4382,6,0,P|142:196|176:278,1,180,0|8,1:0|0:0,0:0:0:0:
335,278,4882,2,0,P|368:197|340:114,1,180,2|0,1:2|3:0,0:0:0:0:
128,0,5382,1,8,0:0:0:0:
384,0,5549,1,8,0:0:0:0:
512,64,5715,6,0,B|332:32,1,180,4|8,1:2|0:0,0:0:0:0:
0,64,6216,2,0,B|180:32,1,180,0|0,1:0|3:0,0:0:0:0:
256,96,6716,2,0,L|256:192,1,90,8|0,1:0|0:0,0:0:0:0:
192,352,7049,5,0,1:0:0:0:
103,369,7216,1,2,0:0:0:0:
85,280,7383,1,8,1:0:0:0:
174,263,7549,1,2,0:0:0:0:
320,352,7716,5,0,1:0:0:0:
427,280,7883,1,4,3:0:0:0:
409,369,8049,1,8,1:0:0:0:
338,263,8216,1,8,1:0:0:0:
320,128,8383,5,2,1:2:0:0:
288,112,8466,1,2,0:0:0:0:
256,96,8550,1,2,0:0:0:0:
224,112,8633,1,2,0:0:0:0:
192,128,8716,1,10,1:2:0:0:
192,32,8883,5,2,1:2:0:0:
224,16,8966,1,2,0:0:0:0:
256,0,9050,1,2,0:0:0:0:
288,16,9133,1,2,0:0:0:0:
320,32,9216,1,2,1:2:0:0:
320,128,9383,5,10,1:2:0:0:
288,112,9467,1,2,0:0:0:0:
256,96,9550,1,2,0:0:0:0:
224,112,9633,1,2,0:0:0:0:
192,128,9717,6,0,P|152:152|108:152,1,90,2|0,1:2|0:0,0:0:0:0:
320,128,10050,2,0,P|360:152|404:152,1,90,8|0,1:0|0:0,0:0:0:0:
256,224,10383,1,0,1:0:0:0:
256,352,10550,1,4,3:0:0:0:
160,288,10717,1,8,1:0:0:0:
352,288,10884,1,8,1:0:0:0:
512,352,11050,6,0,B|332:320,1,180,4|8,1:2|0:0,0:0:0:0:
0,352,11550,2,0,B|180:320,1,180,0|0,1:0|3:0,0:0:0:0:
255,282,12051,1,8,1:0:0:0:
256,192,12217,1,0,3:0:0:0:
256,101,12384,5,0,1:0:0:0:
346,192,12551,1,2,0:0:0:0:
255,282,12717,1,8,1:0:0:0:
165,192,12884,1,2,0:0:0:0:
256,101,13051,5,0,1:0:0:0:
347,192,13218,1,4,3:0:0:0:
255,282,13384,1,8,1:0:0:0:
347,192,13551,1,8,1:0:0:0:
128,128,13718,5,2,1:2:0:0:
112,160,13801,1,2,0:0:0:0:
96,192,13884,1,2,0:0:0:0:
112,224,13968,1,2,0:0:0:0:
128,256,14051,1,10,1:2:0:0:
32,256,14218,5,2,1:2:0:0:
16,224,14301,1,2,0:0:0:0:
0,192,14385,1,2,0:0:0:0:
16,160,14468,1,2,0:0:0:0:
32,128,14551,1,2,1:2:0:0:
128,128,14718,5,10,1:2:0:0:
112,160,14801,1,2,0:0:0:0:
96,192,14885,1,2,0:0:0:0:
112,224,14968,1,2,0:0:0:0:
128,256,15051,6,0,P|152:296|152:340,1,90,0|0,1:0|0:0,0:0:0:0:
128,128,15385,2,0,P|152:88|152:44,1,90,8|0,1:0|0:0,0:0:0:0:
256,0,15718,1,0,1:0:0:0:
384,192,15885,1,4,3:0:0:0:
320,272,16052,1,8,1:0:0:0:
256,352,16218,1,8,1:0:0:0:
60,279,16385,6,0,P|105:205|192:192,1,180,4|8,1:2|0:0,0:0:0:0:
451,279,16885,2,0,P|406:205|320:192,1,180,0|0,1:0|3:0,0:0:0:0:
256,0,17386,2,0,L|256:96,1,90,8|0,1:0|0:0,0:0:0:0:
128,256,17719,5,0,1:0:0:0:
192,352,17886,1,2,0:0:0:0:
64,384,18052,1,8,1:0:0:0:
0,288,18219,1,2,0:0:0:0:
128,128,18386,5,0,1:0:0:0:
64,0,18553,1,4,3:0:0:0:
192,32,18719,1,8,1:0:0:0:
0,96,18886,1,8,1:0:0:0:
160,256,19053,5,2,1:2:0:0:
158,300,19136,1,2,0:0:0:0:
177,340,19219,1,2,0:0:0:0:
213,366,19303,1,2,0:0:0:0:
257,371,19386,1,10,1:2:0:0:
352,256,19553,5,2,1:2:0:0:
354,300,19636,1,2,0:0:0:0:
335,340,19720,1,2,0:0:0:0:
299,366,19803,1,2,0:0:0:0:
255,371,19886,1,2,1:2:0:0:
160,256,20053,5,10,1:2:0:0:
158,300,20136,1,2,0:0:0:0:
177,340,20220,1,2,0:0:0:0:
213,366,20303,1,2,0:0:0:0:
257,371,20386,5,0,1:0:0:0:
257,371,20553,1,2,0:0:0:0:
256,192,20720,2,0,L|256:96,1,90,8|0,1:0|0:0,0:0:0:0:
352,0,21053,1,0,1:0:0:0:
256,102,21220,5,4,3:0:0:0:
352,0,21387,1,8,1:0:0:0:
160,0,21553,1,8,1:0:0:0:
60,105,21720,6,0,P|105:179|192:192,1,180,4|8,1:2|0:0,0:0:0:0:
451,105,22220,2,0,P|406:179|320:192,1,180,0|0,1:0|3:0,0:0:0:0:
256,384,22720,2,0,L|256:288,1,90,8|0,1:0|0:0,0:0:0:0:
256,43,23054,5,0,1:0:0:0:
360,87,23221,1,2,0:0:0:0:
404,192,23387,1,8,1:0:0:0:
361,297,23554,1,2,0:0:0:0:
256,340,23721,1,0,1:0:0:0:
107,192,23887,1,4,3:0:0:0:
150,297,24054,1,8,1:0:0:0:
151,87,24221,1,8,1:0:0:0:
384,0,24388,5,2,1:2:0:0:
416,0,24471,1,2,0:0:0:0:
448,0,24554,1,2,0:0:0:0:
480,0,24638,1,2,0:0:0:0:
512,0,24721,1,10,1:2:0:0:
128,0,24888,5,2,1:2:0:0:
96,0,24971,1,2,0:0:0:0:
64,0,25054,1,2,0:0:0:0:
32,0,25138,1,2,0:0:0:0:
0,0,25221,1,2,1:2:0:0:
256,213,25388,5,10,1:2:0:0:
256,245,25471,1,2,0:0:0:0:
256,277,25555,1,2,0:0:0:0:
256,309,25638,1,2,0:0:0:0:
256,341,25721,5,2,1:2:0:0:
360,297,25888,1,2,0:0:0:0:
404,192,26055,1,8,1:0:0:0:
361,87,26221,1,2,0:0:0:0:
256,44,26388,1,0,1:0:0:0:
107,192,26555,5,4,3:0:0:0:
405,192,26722,1,8,1:0:0:0:
256,44,26888,1,8,1:0:0:0:
256,384,27055,5,4,1:2:0:0:
256,192,32390,5,2,3:2:0:0:
256,192,32473,12,8,36725,1:0:0:0:
96,192,37225,5,4,3:0:0:0:
256,96,37391,1,8,1:0:0:0:
416,192,37558,1,8,1:0:0:0:
192,0,37725,6,0,B|134:2|92:84|35:86,1,180,4|8,1:2|0:0,0:0:0:0:
320,0,38225,2,0,B|377:2|419:84|476:86,1,180,0|0,1:0|3:0,0:0:0:0:
256,192,38725,1,8,1:0:0:0:
256,320,38892,1,0,3:0:0:0:
256,320,38975,1,0,3:0:0:0:
256,320,39059,5,0,1:0:0:0:
352,320,39225,1,2,0:0:0:0:
160,320,39392,1,8,1:0:0:0:
448,320,39559,1,2,0:0:0:0:
64,320,39725,1,0,1:0:0:0:
352,320,39892,1,4,3:0:0:0:
160,320,40059,1,8,1:0:0:0:
256,384,40226,1,8,1:0:0:0:
162,115,40392,5,2,1:2:0:0:
143,153,40476,1,2,0:0:0:0:
124,192,40559,1,2,0:0:0:0:
143,230,40642,1,2,0:0:0:0:
162,268,40726,1,10,1:2:0:0:
349,269,40892,5,2,1:2:0:0:
368,231,40976,1,2,0:0:0:0:
387,192,41059,1,2,0:0:0:0:
368,154,41143,1,2,0:0:0:0:
349,116,41226,1,2,1:2:0:0:
162,115,41393,5,10,1:2:0:0:
143,153,41476,1,2,0:0:0:0:
124,192,41559,1,2,0:0:0:0:
143,230,41643,1,2,0:0:0:0:
162,268,41726,5,2,1:2:0:0:
162,268,41893,1,2,0:0:0:0:
350,268,42059,1,8,1:0:0:0:
350,268,42226,1,2,0:0:0:0:
349,115,42393,5,0,1:0:0:0:
163,115,42560,1,8,3:0:0:0:
349,115,42726,1,8,1:0:0:0:
163,115,42893,1,8,1:0:0:0:
192,384,43060,6,0,B|134:382|92:300|35:298,1,180,4|8,1:2|0:0,0:0:0:0:
320,384,43560,2,0,B|377:382|419:300|476:298,1,180,0|0,1:0|3:0,0:0:0:0:
256,192,44060,1,8,1:0:0:0:
480,32,44227,1,0,3:0:0:0:
480,32,44310,1,0,3:0:0:0:
480,32,44393,5,0,1:0:0:0:
448,128,44560,1,2,0:0:0:0:
352,96,44727,1,8,1:0:0:0:
320,0,44894,1,2,0:0:0:0:
192,0,45060,5,0,1:0:0:0:
160,96,45227,1,4,3:0:0:0:
64,128,45394,1,8,1:0:0:0:
32,32,45560,1,8,1:0:0:0:
192,256,45727,5,2,1:2:0:0:
224,272,45811,1,2,0:0:0:0:
256,288,45894,1,2,0:0:0:0:
288,272,45977,1,2,0:0:0:0:
320,256,46061,1,10,1:2:0:0:
320,128,46227,5,2,1:2:0:0:
288,112,46311,1,2,0:0:0:0:
256,96,46394,1,2,0:0:0:0:
224,112,46477,1,2,0:0:0:0:
192,128,46561,1,2,1:2:0:0:
192,256,46727,5,10,1:2:0:0:
224,272,46811,1,2,0:0:0:0:
256,288,46894,1,2,0:0:0:0:
288,272,46978,1,2,0:0:0:0:
320,256,47061,5,2,1:2:0:0:
320,128,47228,1,2,0:0:0:0:
192,128,47394,1,8,1:0:0:0:
192,256,47561,1,2,0:0:0:0:
128,320,47728,5,0,1:0:0:0:
128,64,47894,1,4,3:0:0:0:
384,64,48061,1,8,1:0:0:0:
384,320,48228,1,8,1:0:0:0:
128,192,48395,6,0,B|68:146|59:88|59:88|29:93|-5:72,1,180,4|8,1:2|0:0,0:0:0:0:
384,192,48895,2,0,B|443:146|452:88|452:88|482:93|517:72,1,180,0|0,1:0|3:0,0:0:0:0:
256,192,49395,2,0,L|256:288,1,90,8|0,1:0|3:0,0:0:0:0:
128,352,49645,1,0,3:0:0:0:
128,352,49728,6,0,P|96:320|44:320,2,90,0|2|8,1:0|0:0|1:0,0:0:0:0:
384,352,50229,2,0,P|416:320|468:320,2,90,2|0|4,0:0|1:0|3:0,0:0:0:0:
256,384,50729,1,8,1:0:0:0:
256,288,50895,1,8,1:0:0:0:
128,192,51062,5,2,1:2:0:0:
72,173,51145,1,2,0:0:0:0:
72,115,51229,1,2,0:0:0:0:
128,97,51312,1,2,0:0:0:0:
161,143,51396,1,10,1:2:0:0:
384,192,51562,5,2,1:2:0:0:
440,173,51646,1,2,0:0:0:0:
440,115,51729,1,2,0:0:0:0:
384,97,51812,1,2,0:0:0:0:
351,143,51896,1,2,1:2:0:0:
128,192,52062,5,10,1:2:0:0:
72,173,52146,1,2,0:0:0:0:
72,115,52229,1,2,0:0:0:0:
128,97,52312,1,2,0:0:0:0:
161,143,52396,5,2,1:2:0:0:
256,192,52563,1,2,0:0:0:0:
351,143,52729,1,8,1:0:0:0:
256,82,52896,1,2,0:0:0:0:
256,192,53063,5,0,1:0:0:0:
379,256,53229,1,4,3:0:0:0:
133,256,53396,1,8,1:0:0:0:
256,335,53563,1,8,1:0:0:0:
494,45,53730,6,0,B|470:54|442:43|442:43|420:97|352:128,1,180,4|8,1:2|0:0,0:0:0:0:
18,45,54230,2,0,B|42:54|70:43|70:43|92:97|160:128,1,180,0|0,1:0|3:0,0:0:0:0:
256,192,54730,2,0,L|256:256,1,45,8|0,1:0|0:0,0:0:0:0:
471,345,54897,1,0,3:0:0:0:
471,345,54980,1,0,3:0:0:0:
471,345,55063,5,0,1:0:0:0:
439,249,55230,1,2,0:0:0:0:
343,281,55397,1,8,1:0:0:0:
311,377,55563,1,2,0:0:0:0:
183,377,55730,5,0,1:0:0:0:
151,281,55897,1,4,3:0:0:0:
55,249,56064,1,8,1:0:0:0:
23,345,56230,1,8,1:0:0:0:
384,192,56397,5,2,1:2:0:0:
440,173,56480,1,2,0:0:0:0:
440,115,56564,1,2,0:0:0:0:
384,97,56647,1,2,0:0:0:0:
351,143,56730,1,10,1:2:0:0:
128,192,56897,5,2,1:2:0:0:
72,173,56980,1,2,0:0:0:0:
72,115,57064,1,2,0:0:0:0:
128,97,57147,1,2,0:0:0:0:
161,143,57231,1,2,1:2:0:0:
384,192,57397,5,10,1:2:0:0:
440,173,57481,1,2,0:0:0:0:
440,115,57564,1,2,0:0:0:0:
384,97,57647,1,2,0:0:0:0:
351,143,57731,5,2,1:2:0:0:
207,97,57897,1,2,0:0:0:0:
161,241,58064,1,8,1:0:0:0:
305,287,58231,1,2,0:0:0:0:
354,2,58398,5,0,1:0:0:0:
66,94,58564,1,4,3:0:0:0:
158,382,58731,1,8,1:0:0:0:
446,290,58898,1,8,1:0:0:0:
256,192,59064,5,4,1:2:0:0:
