osu file format v14

[General]
AudioFilename: audio.mp3
AudioLeadIn: 0
PreviewTime: 37714
Countdown: 0
SampleSet: Soft
StackLeniency: 0.7
Mode: 0
LetterboxInBreaks: 0
SkinPreference:Default
WidescreenStoryboard: 1

[Editor]
DistanceSpacing: 1
BeatDivisor: 4
GridSize: 16
TimelineZoom: 2.599999

[Metadata]
Title:Super pump up!
TitleUnicode:スーパーポンプアップ!
Artist:Yoko Shimomura
ArtistUnicode:下村陽子
Creator:AJT
Version:Easy
Source:マリオ&ルイージRPG3!!!
Tags:Mario & and Luigi Bowser's Inside Story RPG 3 MiniGame Mini Game Pump it up Nintendo DS Video Game Electronic Instrumental Bloxi
BeatmapID:3415720
BeatmapSetID:1659561

[Difficulty]
HPDrainRate:2
CircleSize:2.5
OverallDifficulty:3
ApproachRate:5
SliderMultiplier:1
SliderTickRate:2

[Events]
//Background and Video events
0,0,"minigame.jpg",0,0
//Break Periods
2,26922,31190
//Storyboard Layer 0 (Background)
//Storyboard Layer 1 (Fail)
//Storyboard Layer 2 (Pass)
//Storyboard Layer 3 (Foreground)
//Storyboard Layer 4 (Overlay)
//Storyboard Sound Samples

[TimingPoints]
381,333.43151038917,4,2,0,35,1,0
3047,-100,4,2,0,45,0,0
5714,-100,4,2,0,55,0,0
37725,-100,4,2,0,65,0,1
59064,-100,4,2,0,65,0,0

[Colours]
Combo1 : 164,231,154
Combo2 : 97,169,228
Combo3 : 249,113,113
Combo4 : 249,208,132
SliderBorder : 255,255,255

[HitObjects]
320,192,381,6,0,L|456:192,2,100,0|8|0,1:0|0:0|3:0,0:0:0:0:
256,112,1381,1,8,0:0:0:0:
192,192,1714,2,0,L|56:192,2,100,0|8|0,1:0|0:0|1:0,0:0:0:0:
256,272,2715,1,8,0:0:0:0:
176,336,3048,6,0,P|108:359|37:332,2,150,0|0|8,1:0|1:0|0:0,0:0:0:0:
176,240,4382,2,0,P|108:216|37:243,2,150,0|2|8,1:0|1:2|0:0,0:0:0:0:
256,192,5715,5,4,1:2:0:0:
256,48,6216,2,0,B|307:74|359:22|404:48,1,150,0|8,1:0|1:0,0:0:0:0:
400,144,7049,2,0,B|501:144,2,100,0|8|0,1:0|1:0|1:0,0:0:0:0:
400,240,8049,1,8,1:0:0:0:
304,240,8383,6,0,L|140:240,2,150,2|2|10,1:2|1:2|1:2,0:0:0:0:
304,336,9717,1,2,1:2:0:0:
208,336,10050,1,8,1:0:0:0:
112,336,10383,1,0,1:0:0:0:
16,336,10717,1,8,1:0:0:0:
16,240,11050,5,4,1:2:0:0:
16,96,11550,2,0,B|67:70|119:122|164:96,1,150,0|8,1:0|1:0,0:0:0:0:
256,64,12384,1,0,1:0:0:0:
336,0,12717,1,8,1:0:0:0:
416,64,13051,1,0,1:0:0:0:
336,144,13384,1,8,1:0:0:0:
304,240,13718,6,0,B|352:261|400:224|455:240,2,150,2|2|10,1:2|1:2|1:2,0:0:0:0:
208,240,15051,1,0,1:0:0:0:
112,240,15385,1,8,1:0:0:0:
112,144,15718,1,0,1:0:0:0:
208,144,16052,1,8,1:0:0:0:
208,48,16385,6,0,L|384:48,1,150,4|0,1:2|1:0,0:0:0:0:
496,128,17386,1,8,1:0:0:0:
496,224,17719,1,0,1:0:0:0:
400,224,18052,1,8,1:0:0:0:
400,320,18386,1,0,1:0:0:0:
320,384,18719,1,8,1:0:0:0:
240,320,19053,6,0,L|73:320,2,150,2|2|10,1:2|1:2|1:2,0:0:0:0:
240,224,20386,1,0,1:0:0:0:
336,224,20720,1,8,1:0:0:0:
336,128,21053,1,0,1:0:0:0:
240,128,21387,1,8,1:0:0:0:
240,32,21720,6,0,L|80:32,1,150,4|0,1:2|1:0,0:0:0:0:
16,160,22720,1,8,1:0:0:0:
16,256,23054,1,0,1:0:0:0:
112,256,23387,1,8,1:0:0:0:
112,352,23721,1,0,1:0:0:0:
208,352,24054,1,8,1:0:0:0:
304,352,24388,6,0,L|470:352,2,150,2|2|10,1:2|1:2|1:2,0:0:0:0:
304,256,25721,1,2,1:2:0:0:
384,192,26055,1,8,1:0:0:0:
464,256,26388,1,0,1:0:0:0:
384,320,26722,1,8,1:0:0:0:
256,192,32390,5,2,3:2:0:0:
256,192,32473,12,2,35057,0:0:0:0:
256,192,37225,5,4,3:0:0:0:
256,192,37391,1,8,1:0:0:0:
256,96,37725,5,4,1:2:0:0:
400,96,38225,1,0,1:0:0:0:
400,240,38725,1,8,1:0:0:0:
400,336,39059,5,0,1:0:0:0:
304,368,39392,1,8,1:0:0:0:
208,336,39725,1,0,1:0:0:0:
112,368,40059,1,8,1:0:0:0:
16,336,40392,6,0,B|-7:288|39:240|16:186,2,150,2|2|10,1:2|1:2|1:2,0:0:0:0:
112,368,41726,1,2,1:2:0:0:
208,336,42059,1,8,1:0:0:0:
304,368,42393,1,0,1:0:0:0:
400,336,42726,1,8,1:0:0:0:
496,368,43060,5,4,1:2:0:0:
496,224,43560,1,0,1:0:0:0:
496,80,44060,1,8,1:0:0:0:
400,80,44393,5,0,1:0:0:0:
320,16,44727,1,8,1:0:0:0:
224,16,45060,1,0,1:0:0:0:
144,80,45394,1,8,1:0:0:0:
208,160,45727,6,0,B|233:210|182:261|208:318,2,150,2|2|10,1:2|1:2|1:2,0:0:0:0:
144,80,47061,5,2,1:2:0:0:
224,16,47394,1,8,1:0:0:0:
320,16,47728,1,0,1:0:0:0:
400,80,48061,1,8,1:0:0:0:
480,16,48395,5,4,1:2:0:0:
480,160,48895,1,0,1:0:0:0:
480,304,49395,1,8,1:0:0:0:
384,304,49728,2,0,B|336:320|336:320|288:304,2,100,0|8|0,1:0|1:0|1:0,0:0:0:0:
384,208,50729,1,8,1:0:0:0:
383,112,51062,6,0,B|336:88|289:135|236:112,2,150,2|2|10,1:2|1:2|1:2,0:0:0:0:
384,208,52396,1,2,1:2:0:0:
288,208,52729,1,8,1:0:0:0:
192,208,53063,1,0,1:0:0:0:
192,304,53396,1,8,1:0:0:0:
96,304,53730,5,4,1:2:0:0:
0,192,54230,1,0,1:0:0:0:
96,80,54730,1,8,1:0:0:0:
192,48,55063,1,0,1:0:0:0:
288,48,55397,1,8,1:0:0:0:
288,144,55730,1,0,1:0:0:0:
384,144,56064,1,8,1:0:0:0:
479,144,56397,6,0,B|504:193|455:243|479:298,2,150,2|2|10,1:2|1:2|1:2,0:0:0:0:
384,144,57731,1,2,1:2:0:0:
288,144,58064,1,8,1:0:0:0:
288,48,58398,1,0,1:0:0:0:
192,48,58731,1,8,1:0:0:0:
192,144,59064,1,4,1:2:0:0:
