osu file format v14

[General]
AudioFilename: audio.mp3
AudioLeadIn: 0
PreviewTime: 9162
Countdown: 0
SampleSet: Soft
StackLeniency: 0.7
Mode: 0
LetterboxInBreaks: 0
WidescreenStoryboard: 0

[Editor]
Bookmarks: 101992
DistanceSpacing: 0.7
BeatDivisor: 4
GridSize: 16
TimelineZoom: 1.4

[Metadata]
Title:Route 10
TitleUnicode:10ばんどうろ(ポケットモンスターブラック・ホワイト)
Artist:Yoko Shimomura
ArtistUnicode:下村陽子
Creator:egg and cheese
Version:Extra
Source:大乱闘スマッシュブラザーズ for Wii U
Tags:nao tomori naotoshi mikasaserket icekalt pokémon black and white pokemon 2 super smash bros for wii u bros.
BeatmapID:1756806
BeatmapSetID:839208

[Difficulty]
HPDrainRate:6
CircleSize:4
OverallDifficulty:8.7
ApproachRate:9.3
SliderMultiplier:3.59999990463257
SliderTickRate:1

[Events]
//Background and Video events
0,0,"pokebg.png",0,0
//Break Periods
//Storyboard Layer 0 (Background)
//Storyboard Layer 1 (Fail)
//Storyboard Layer 2 (Pass)
//Storyboard Layer 3 (Foreground)
//Storyboard Layer 4 (Overlay)
//Storyboard Sound Samples

[TimingPoints]
106,566.037735849057,4,2,0,70,1,0
247,-200,4,2,0,30,0,0
2370,-133.333333333333,4,2,0,30,0,0
4634,-133.333333333333,4,2,0,40,0,0
9162,-100,4,2,0,50,0,0
45389,-200,4,2,0,30,0,0
54445,-100,4,2,0,50,0,0
72558,-200,4,2,0,40,0,0
77087,-100,4,2,0,50,0,0
92936,-200,4,2,0,30,0,0

[Colours]
Combo1 : 192,192,192
Combo2 : 127,127,127

[HitObjects]
99,61,247,5,2,0:0:0:0:
104,95,530,1,2,0:0:0:0:
228,119,1096,2,0,L|219:168,1,44.9999988079071,4|0,3:0|3:0,0:0:0:0:
99,61,1662,2,0,L|108:110,1,44.9999988079071,4|0,3:0|3:0,0:0:0:0:
66,245,2370,5,4,3:0:0:0:
139,233,2511,2,0,L|217:220,1,67.5000007867814,0|0,3:0|0:0,0:0:0:0:
61,275,2794,1,4,3:0:0:0:
134,263,2935,2,0,L|212:250,1,67.5000007867814,0|0,3:0|0:0,0:0:0:0:
56,305,3219,1,4,3:0:0:0:
357,356,3502,5,4,3:0:0:0:
345,283,3643,2,0,L|332:205,1,67.5000007867814,0|0,3:0|0:0,0:0:0:0:
387,361,3926,1,4,3:0:0:0:
417,366,4068,1,0,3:0:0:0:
447,371,4209,1,4,3:0:0:0:
460,114,4634,6,0,P|407:122|380:117,1,67.5000007867814,6|0,1:2|0:0,0:0:0:0:
318,27,4917,1,4,3:0:0:0:
330,52,5058,2,0,P|347:125|320:228,1,135.000001573563,2|4,1:2|3:0,0:0:0:0:
299,252,5483,1,2,1:2:0:0:
46,145,5766,6,0,P|86:132|133:139,1,67.5000007867814,2|0,1:2|0:0,0:0:0:0:
180,221,6049,1,4,3:0:0:0:
165,192,6190,2,0,P|164:76|175:50,1,135.000001573563,2|4,1:2|3:0,0:0:0:0:
216,1,6615,1,2,1:2:0:0:
312,186,6898,6,0,P|298:251|302:274,1,67.5000007867814,2|0,1:2|0:0,0:0:0:0:
389,327,7181,1,4,3:0:0:0:
364,313,7322,2,0,P|254:294|185:307,1,135.000001573563,2|4,1:2|3:0,0:0:0:0:
162,325,7747,1,2,1:2:0:0:
488,262,8030,6,0,P|498:191|494:172,1,67.5000007867814,2|0,1:2|0:0,0:0:0:0:
403,145,8313,1,4,3:0:0:0:
376,170,8455,2,0,P|366:241|370:260,1,67.5000007867814,2|0,1:2|0:0,0:0:0:0:
417,368,8738,5,2,0:0:0:0:
333,325,8879,1,2,0:0:0:0:
250,375,9020,1,2,0:0:0:0:
257,346,9162,6,2,B|190:319|190:319|146:337|146:337|66:330,1,179.999995231629,6|4,1:2|3:0,0:0:0:0:
8,326,9587,1,2,1:2:0:0:
57,261,9728,1,0,0:0:0:0:
173,143,9870,5,2,1:2:0:0:
184,220,10011,1,4,3:0:0:0:
111,191,10153,1,4,3:0:0:0:
62,84,10294,6,0,B|106:105|106:105|253:86,1,179.999995231629,2|4,1:2|3:0,0:0:0:0:
348,17,10719,2,0,L|340:114,1,89.9999976158143,2|0,1:3|0:0,0:0:0:0:
327,204,11002,1,4,3:0:0:0:
473,33,11143,1,2,1:3:0:0:
487,189,11285,1,2,0:0:0:0:
492,207,11356,1,2,0:0:0:0:
497,226,11426,6,0,B|451:248|451:248|429:379,1,179.999995231629,2|4,1:2|3:0,0:0:0:0:
406,307,11851,2,0,L|313:296,1,89.9999976158143,2|0,1:3|0:0,0:0:0:0:
209,281,12134,1,4,3:0:0:0:
260,383,12275,1,2,1:3:0:0:
115,376,12417,1,2,0:2:0:0:
91,379,12488,1,2,0:0:0:0:
65,380,12558,6,0,B|79:322|79:322|56:277|56:277|77:193,1,179.999995231629,2|4,1:2|3:0,0:0:0:0:
124,35,12983,2,0,L|99:131,1,89.9999976158143,2|0,1:3|0:0,0:0:0:0:
232,23,13266,1,4,3:0:0:0:
254,110,13407,1,2,1:3:0:0:
374,5,13549,1,2,0:0:0:0:
371,25,13620,1,2,0:0:0:0:
367,45,13690,6,0,L|351:156,1,89.9999976158143,2|0,1:2|0:0,0:0:0:0:
339,227,13973,1,4,3:0:0:0:
177,92,14115,2,0,L|193:203,1,89.9999976158143,2|0,1:2|0:0,0:0:0:0:
205,274,14398,1,4,3:0:0:0:
380,55,14539,2,0,L|364:166,1,89.9999976158143,2|0,1:2|0:0,0:0:0:0:
450,302,14822,6,0,P|347:299|323:287,1,89.9999976158143,2|0,1:2|0:0,0:0:0:0:
281,242,15106,1,4,3:0:0:0:
145,359,15247,2,0,P|199:271|221:256,1,89.9999976158143,2|0,1:2|0:0,0:0:0:0:
281,242,15531,1,4,3:0:0:0:
248,66,15672,2,0,P|296:156|298:183,1,89.9999976158143,2|0,1:2|0:0,0:0:0:0:
26,128,15955,6,0,B|59:166|59:166|210:144,1,179.999995231629,2|4,1:2|3:0,0:0:0:0:
293,142,16379,2,0,P|276:100|248:66,1,89.9999976158143,2|0,1:2|0:0,0:0:0:0:
154,27,16662,1,4,3:0:0:0:
313,151,16804,2,0,P|295:109|267:74,1,89.9999976158143,2|0,1:2|0:0,0:0:0:0:
243,238,17087,5,2,1:2:0:0:
196,302,17228,1,4,3:0:0:0:
275,311,17370,1,4,3:0:0:0:
134,384,17511,2,0,B|162:296|162:296|143:193,1,179.999995231629,2|4,1:2|3:0,0:0:0:0:
20,165,17936,2,0,L|32:274,1,89.9999976158143,2|0,1:3|0:0,0:0:0:0:
117,86,18219,6,0,B|184:59|184:59|228:77|228:77|308:70,1,179.999995231629,6|4,1:2|3:0,0:0:0:0:
364,61,18643,1,2,1:2:0:0:
335,133,18785,1,0,0:0:0:0:
389,253,18926,5,2,1:2:0:0:
398,179,19068,1,4,3:0:0:0:
330,209,19209,1,4,3:0:0:0:
500,323,19351,6,0,B|452:291|452:291|270:328,1,179.999995231629,2|4,1:2|3:0,0:0:0:0:
217,375,19775,2,0,L|231:279,1,89.9999976158143,2|0,1:3|0:0,0:0:0:0:
248,185,20058,1,4,3:0:0:0:
87,375,20200,1,2,1:3:0:0:
59,237,20341,1,2,0:0:0:0:
42,245,20412,1,2,0:0:0:0:
25,253,20483,6,0,B|49:203|49:203|27:56,1,179.999995231629,2|4,1:2|3:0,0:0:0:0:
74,140,20907,2,0,L|180:121,1,89.9999976158143,2|0,1:3|0:0,0:0:0:0:
266,102,21190,1,4,3:0:0:0:
156,36,21332,1,2,1:3:0:0:
323,25,21473,1,2,0:0:0:0:
341,23,21544,1,2,0:0:0:0:
359,20,21615,6,0,B|345:72|345:72|378:124|378:124|368:196,1,179.999995231629,2|4,1:2|3:0,0:0:0:0:
410,356,22039,2,0,L|428:246,1,89.9999976158143,2|0,1:3|0:0,0:0:0:0:
446,171,22322,1,4,3:0:0:0:
499,285,22464,1,2,1:3:0:0:
323,304,22606,1,2,0:0:0:0:
318,322,22676,1,2,0:0:0:0:
313,340,22747,6,0,L|206:332,1,89.9999976158143,2|0,1:2|0:0,0:0:0:0:
119,324,23030,1,4,3:0:0:0:
274,193,23172,2,0,L|167:201,1,89.9999976158143,2|0,1:2|0:0,0:0:0:0:
80,209,23455,1,4,3:0:0:0:
319,355,23596,2,0,L|212:347,1,89.9999976158143,2|0,1:2|0:0,0:0:0:0:
378,180,23879,6,0,P|386:266|367:307,1,89.9999976158143,2|0,1:2|0:0,0:0:0:0:
275,152,24162,1,4,3:0:0:0:
247,50,24304,2,0,P|317:0|362:-3,1,89.9999976158143,2|0,1:2|0:0,0:0:0:0:
275,152,24587,1,4,3:0:0:0:
200,228,24728,2,0,P|121:191|95:154,1,89.9999976158143,2|0,1:2|0:0,0:0:0:0:
17,44,25011,6,0,B|57:85|57:85|38:241,1,179.999995231629,2|4,1:2|3:0,0:0:0:0:
0,384,25436,2,0,L|11:283,1,89.9999976158143,2|0,1:2|0:0,0:0:0:0:
42,206,25719,1,4,3:0:0:0:
15,384,25860,2,0,L|26:283,1,89.9999976158143,2|0,1:2|0:0,0:0:0:0:
200,228,26143,5,2,1:2:0:0:
241,292,26285,1,4,3:0:0:0:
165,295,26426,1,2,1:2:0:0:
297,357,26568,1,2,0:0:0:0:
320,355,26639,1,2,0:0:0:0:
344,353,26709,6,0,B|315:263|315:263|334:162,1,179.999995231629,2|0,1:2|0:0,0:0:0:0:
413,256,27134,1,4,3:0:0:0:
470,0,27275,6,0,L|465:111,1,89.9999976158143,6|0,1:2|0:0,0:0:0:0:
458,184,27558,1,4,3:0:0:0:
301,23,27700,2,0,L|306:134,1,89.9999976158143,2|0,1:2|0:0,0:0:0:0:
313,207,27983,1,4,3:0:0:0:
490,11,28124,2,0,L|485:122,1,89.9999976158143,2|0,1:2|0:0,0:0:0:0:
502,303,28407,6,0,B|467:267|467:267|313:293,1,179.999995231629,2|4,1:2|3:0,0:0:0:0:
226,384,28832,2,0,L|245:280,1,89.9999976158143,2|0,1:2|0:0,0:0:0:0:
265,197,29115,1,4,3:0:0:0:
207,384,29256,2,0,L|226:280,1,89.9999976158143,2|0,1:2|0:0,0:0:0:0:
351,190,29539,6,0,P|339:234|311:268,1,89.9999976158143,2|0,1:2|0:0,0:0:0:0:
301,124,29822,1,4,3:0:0:0:
333,49,29964,2,0,P|376:36|421:44,1,89.9999976158143,2|0,1:2|0:0,0:0:0:0:
301,124,30247,1,4,3:0:0:0:
219,135,30389,2,0,P|186:102|170:61,1,89.9999976158143,2|0,1:2|0:0,0:0:0:0:
63,0,30672,6,0,L|50:184,1,179.999995231629,2|4,1:2|3:0,0:0:0:0:
109,345,31096,2,0,L|118:244,1,89.9999976158143,2|0,1:2|0:0,0:0:0:0:
132,155,31379,1,4,3:0:0:0:
92,354,31521,2,0,L|101:253,1,89.9999976158143,2|0,1:3|0:0,0:0:0:0:
381,259,31804,6,0,L|290:245,1,89.9999976158143,2|0,1:2|0:0,0:0:0:0:
195,227,32087,1,4,3:0:0:0:
441,345,32228,2,0,L|350:358,1,89.9999976158143,2|0,1:2|0:0,0:0:0:0:
255,377,32511,1,4,3:0:0:0:
399,246,32653,2,0,L|308:232,1,89.9999976158143,2|0,1:2|0:0,0:0:0:0:
125,355,32936,6,0,B|165:334|165:334|153:200,1,179.999995231629,2|4,1:2|3:0,0:0:0:0:
52,66,33360,2,0,L|64:180,1,89.9999976158143,2|0,1:2|0:0,0:0:0:0:
76,256,33643,1,4,3:0:0:0:
35,55,33785,2,0,L|47:169,1,89.9999976158143,2|0,1:2|0:0,0:0:0:0:
251,100,34068,6,0,P|200:88|161:101,1,89.9999976158143,2|0,1:2|0:0,0:0:0:0:
324,134,34351,1,4,3:0:0:0:
390,88,34492,2,0,P|425:49|434:9,1,89.9999976158143,2|0,1:2|0:0,0:0:0:0:
324,134,34775,1,4,3:0:0:0:
331,215,34917,2,0,P|346:265|376:292,1,89.9999976158143,2|0,1:2|0:0,0:0:0:0:
397,168,35200,5,2,1:2:0:0:
258,180,35341,1,4,3:0:0:0:
443,233,35483,1,4,3:0:0:0:
313,357,35624,2,0,B|246:330|246:330|202:348|202:348|122:341,1,179.999995231629,2|2,1:2|1:2,0:0:0:0:
79,228,36049,1,4,3:0:0:0:
72,303,36190,1,4,3:0:0:0:
16,151,36332,6,0,B|40:193|40:193|201:207,1,179.999995231629,2|4,1:2|3:0,0:0:0:0:
286,131,36756,2,0,L|291:237,1,89.9999976158143,2|0,1:2|0:0,0:0:0:0:
296,322,37039,1,4,3:0:0:0:
268,117,37181,2,0,L|273:223,1,89.9999976158143,2|0,1:2|0:0,0:0:0:0:
470,351,37464,6,0,B|424:336|424:336|416:183,1,179.999995231629,2|4,1:2|3:0,0:0:0:0:
375,112,37889,2,0,P|426:104|479:122,1,89.9999976158143,2|0,1:2|0:0,0:0:0:0:
509,216,38172,1,4,3:0:0:0:
361,98,38313,2,0,P|412:90|465:108,1,89.9999976158143,2|0,1:2|0:0,0:0:0:0:
290,220,38596,6,0,L|190:207,1,89.9999976158143,2|0,1:2|0:0,0:0:0:0:
94,197,38879,1,4,3:0:0:0:
231,65,39021,2,0,L|141:76,1,89.9999976158143,2|0,1:2|0:0,0:0:0:0:
35,88,39304,1,4,3:0:0:0:
303,242,39445,2,0,L|203:229,1,89.9999976158143,2|0,1:2|0:0,0:0:0:0:
37,340,39728,6,0,B|89:311|89:311|254:332,1,179.999995231629,2|4,1:2|3:0,0:0:0:0:
321,368,40153,2,0,L|307:274,1,89.9999976158143,2|0,1:2|0:0,0:0:0:0:
297,178,40436,1,4,3:0:0:0:
445,383,40577,1,2,1:3:0:0:
455,223,40719,1,2,0:0:0:0:
476,237,40789,1,2,0:0:0:0:
497,251,40860,6,0,B|473:207|473:207|498:73,1,179.999995231629,2|4,1:2|3:0,0:0:0:0:
419,1,41285,2,0,L|397:132,1,89.9999976158143,2|0,1:2|0:0,0:0:0:0:
380,192,41568,1,4,3:0:0:0:
433,0,41709,2,0,L|411:131,1,89.9999976158143,2|0,1:2|0:0,0:0:0:0:
229,0,41992,6,0,L|254:267,1,179.999995231629,2|4,1:2|3:0,0:0:0:0:
298,265,42417,2,0,P|232:280|199:269,1,89.9999976158143,2|0,1:2|0:0,0:0:0:0:
113,229,42700,1,4,3:0:0:0:
309,289,42841,2,0,P|243:304|210:293,1,89.9999976158143,2|0,1:2|0:0,0:0:0:0:
406,384,43124,6,0,B|420:326|420:326|397:281|397:281|418:197,1,179.999995231629,2|4,1:2|3:0,0:0:0:0:
501,71,43549,2,0,L|476:163,1,89.9999976158143,2|0,1:2|0:0,0:0:0:0:
493,285,43832,1,2,1:3:0:0:
413,213,43973,1,4,3:0:0:0:
311,247,44115,1,4,3:0:0:0:
281,119,44256,6,0,L|246:333,1,179.999995231629,2|4,1:2|3:0,0:0:0:0:
143,384,44681,2,0,L|164:272,1,89.9999976158143,2|0,1:2|0:0,0:0:0:0:
99,127,44964,1,2,1:3:0:0:
107,231,45106,1,4,3:0:0:0:
12,185,45247,1,4,3:0:0:0:
194,173,45389,5,6,1:2:0:0:
194,173,47511,1,2,0:0:0:0:
194,173,47653,1,2,0:0:0:0:
144,230,48785,6,0,P|123:302|150:375,2,134.999996423721,2|2|0,0:0|0:0|0:0,0:0:0:0:
194,173,49917,1,2,0:0:0:0:
194,173,51898,1,2,0:0:0:0:
194,173,52181,1,2,0:0:0:0:
194,173,53313,5,2,0:0:0:0:
256,127,53455,1,2,0:0:0:0:
326,158,53596,1,2,0:0:0:0:
263,204,53738,1,2,0:0:0:0:
186,97,54021,5,2,0:0:0:0:
202,249,54162,1,2,0:0:0:0:
431,320,54445,6,0,B|285:307|285:307|310:343,1,179.999995231629,6|4,1:2|3:0,0:0:0:0:
502,378,54870,2,0,L|516:257,1,89.9999976158143,2|0,1:3|0:0,0:0:0:0:
474,190,55153,1,4,3:0:0:0:
353,82,55294,5,2,1:2:0:0:
370,104,55389,5,2,0:0:0:0:
352,128,55483,5,2,0:0:0:0:
368,148,55577,6,0,P|319:136|275:138,1,89.9999976158143,2|0,1:2|0:0,0:0:0:0:
187,182,55860,1,2,0:0:0:0:
105,14,56002,2,0,L|92:222,1,179.999995231629,2|4,1:2|3:0,0:0:0:0:
19,333,56426,1,2,1:3:0:0:
24,243,56567,1,4,3:0:0:0:
93,381,56709,6,0,B|160:354|160:354|204:372|204:372|284:365,1,179.999995231629,2|4,1:3|3:0,0:0:0:0:
432,310,57134,2,0,P|336:311|327:316,1,89.9999976158143,2|0,1:3|0:0,0:0:0:0:
487,371,57417,1,4,3:0:0:0:
501,178,57558,1,2,1:2:0:0:
482,201,57700,6,0,B|410:183|410:183|364:203|364:203|282:184,1,179.999995231629,2|2,0:2|0:0,0:0:0:0:
192,112,58124,1,2,0:2:0:0:
233,175,58266,1,2,1:2:0:0:
38,236,58407,5,2,0:2:0:0:
111,246,58549,1,2,0:2:0:0:
156,188,58690,1,2,1:2:0:0:
83,178,58832,1,2,0:0:0:0:
34,336,58973,6,0,B|180:323|180:323|155:359,1,179.999995231629,2|2,1:2|0:0,0:0:0:0:
259,376,59398,2,0,B|326:349|326:349|370:367|370:367|450:360,1,179.999995231629,2|4,1:2|3:0,0:0:0:0:
511,356,59822,1,2,1:3:0:0:
391,281,59964,1,4,3:0:0:0:
499,235,60106,6,0,L|294:218,1,179.999995231629,2|4,1:3|3:0,0:0:0:0:
205,276,60530,1,2,1:2:0:0:
219,259,60672,2,0,B|232:113|232:113|196:138,1,179.999995231629,2|2,0:0|1:2,0:0:0:0:
148,179,61096,1,2,0:0:0:0:
53,362,61238,6,0,L|64:165,1,179.999995231629,2|4,1:2|3:0,0:0:0:0:
68,102,61662,1,2,1:2:0:0:
219,44,61804,5,2,0:0:0:0:
277,96,61945,1,2,0:0:0:0:
225,154,62087,1,2,1:2:0:0:
167,102,62228,1,2,0:0:0:0:
339,187,62370,5,2,1:2:0:0:
395,105,62511,1,2,1:2:0:0:
351,15,62653,1,2,1:2:0:0:
438,194,62794,6,0,B|425:340|425:340|461:315,1,179.999995231629,2|4,1:2|3:0,0:0:0:0:
395,373,63219,2,0,L|233:357,1,89.9999976158143,2|0,1:3|0:0,0:0:0:0:
195,354,63502,1,2,1:2:0:0:
46,237,63690,5,2,0:0:0:0:
52,261,63785,1,2,0:2:0:0:
58,285,63879,1,2,0:0:0:0:
173,280,64068,5,2,0:0:0:0:
195,354,64256,1,2,0:0:0:0:
107,180,64539,5,2,0:0:0:0:
101,156,64634,6,0,B|168:129|168:129|212:147|212:147|292:140,1,179.999995231629,2|4,1:2|3:0,0:0:0:0:
351,133,65058,1,2,1:2:0:0:
421,171,65200,2,0,P|426:253|452:294,2,119.999996821086,0|2|2,0:0|0:0|0:0,0:0:0:0:
489,80,65766,6,0,B|513:53|513:53|331:40,1,179.999995231629,2|4,1:2|3:0,0:0:0:0:
292,36,66190,1,2,1:2:0:0:
215,168,66332,5,2,0:0:0:0:
254,102,66473,1,2,0:0:0:0:
188,63,66615,1,2,1:2:0:0:
149,129,66756,1,2,0:0:0:0:
329,105,66898,5,2,1:2:0:0:
344,135,67039,2,0,L|333:250,1,89.9999976158143,2|4,0:0|3:0,0:0:0:0:
445,280,67322,2,0,L|221:259,1,179.999995231629,2|4,1:2|3:0,0:0:0:0:
100,320,67747,2,0,L|212:329,1,89.9999976158143,2|0,1:3|0:0,0:0:0:0:
47,383,68030,6,0,B|72:298|72:298|62:188,1,179.999995231629,2|4,1:2|3:0,0:0:0:0:
47,135,68455,1,2,1:2:0:0:
160,165,68596,1,2,0:0:0:0:
182,168,68667,1,2,0:0:0:0:
204,165,68738,1,2,0:0:0:0:
224,156,68808,1,2,0:0:0:0:
241,141,68879,1,2,1:2:0:0:
120,78,69021,6,0,B|85:46|85:46|248:37,1,179.999995231629,2|0,0:0|0:0,0:0:0:0:
345,92,69445,1,2,0:0:0:0:
295,34,69587,1,2,1:2:0:0:
447,6,69728,5,2,0:0:0:0:
421,78,69870,1,2,0:0:0:0:
498,239,70011,1,2,1:2:0:0:
460,159,70153,1,2,0:0:0:0:
442,179,70223,1,2,0:0:0:0:
424,199,70294,6,0,B|357:172|357:172|313:190|313:190|233:183,1,179.999995231629,2|4,1:2|3:0,0:0:0:0:
195,74,70719,2,0,B|165:43|165:43|156:257,1,179.999995231629,2|4,1:2|3:0,0:0:0:0:
197,342,71143,2,0,L|202:224,1,89.9999976158143,2|0,1:2|0:0,0:0:0:0:
89,265,71426,5,2,1:2:0:0:
159,179,71568,1,4,3:0:0:0:
113,345,71709,1,4,3:0:0:0:
183,99,71851,1,2,1:2:0:0:
204,114,71922,1,2,0:0:0:0:
225,129,71992,6,0,B|297:111|297:111|343:131|343:131|425:112,1,179.999995231629,2|2,1:2|1:2,0:0:0:0:
474,101,72417,1,4,3:0:0:0:
398,310,72558,5,2,1:2:0:0:
398,310,72983,1,2,0:0:0:0:
398,310,73407,1,2,0:0:0:0:
450,175,73690,1,6,1:2:0:0:
450,175,74822,5,2,1:2:0:0:
450,175,75247,1,2,0:0:0:0:
450,175,75672,1,2,0:0:0:0:
398,310,75955,1,6,1:2:0:0:
398,310,76945,1,2,0:0:0:0:
393,330,77016,1,2,0:0:0:0:
388,350,77087,6,0,B|321:323|321:323|277:341|277:341|197:334,1,179.999995231629,6|4,1:2|3:0,0:0:0:0:
114,364,77511,2,0,L|128:224,1,89.9999976158143,2|0,1:2|0:0,0:0:0:0:
133,175,77794,1,4,3:0:0:0:
92,376,77936,2,0,L|106:236,1,89.9999976158143,2|0,1:2|0:0,0:0:0:0:
50,105,78219,6,0,B|81:143|81:143|231:154,1,179.999995231629,2|4,1:2|3:0,0:0:0:0:
348,71,78643,2,0,L|224:62,1,89.9999976158143,2|0,1:2|0:0,0:0:0:0:
328,177,78926,1,4,3:0:0:0:
429,141,79068,1,2,1:2:0:0:
449,35,79209,1,4,3:0:0:0:
458,167,79351,6,0,B|424:196|424:196|436:340,1,179.999995231629,2|4,1:2|3:0,0:0:0:0:
341,369,79775,2,0,L|251:377,1,89.9999976158143,2|0,1:2|0:0,0:0:0:0:
159,266,80058,1,4,3:0:0:0:
173,384,80200,1,2,1:2:0:0:
63,337,80341,1,4,3:0:0:0:
251,377,80483,5,2,1:2:0:0:
200,202,80624,1,2,1:2:0:0:
1,384,80766,1,2,1:2:0:0:
254,266,80907,6,0,B|312:252|312:252|357:275|357:275|441:254,1,179.999995231629,2|4,1:2|3:0,0:0:0:0:
483,157,81332,1,2,1:2:0:0:
512,238,81473,1,4,3:0:0:0:
492,40,81615,6,0,B|456:78|456:78|302:46,1,179.999995231629,2|4,1:2|3:0,0:0:0:0:
259,26,82039,1,2,1:2:0:0:
248,174,82181,5,0,0:0:0:0:
276,103,82322,1,4,3:0:0:0:
201,115,82464,1,2,1:2:0:0:
173,186,82606,1,4,3:0:0:0:
96,10,82748,5,2,1:2:0:0:
103,31,82818,1,2,0:0:0:0:
107,53,82889,1,2,0:0:0:0:
108,75,82959,1,2,0:0:0:0:
105,98,83030,1,2,0:0:0:0:
97,119,83101,1,2,0:0:0:0:
93,141,83172,1,2,1:2:0:0:
23,211,83313,1,2,0:0:0:0:
116,260,83455,2,0,B|183:233|183:233|227:251|227:251|307:244,1,179.999995231629,2|4,0:0|3:0,0:0:0:0:
327,63,83879,6,0,B|296:87|296:87|313:256,1,179.999995231629,2|4,1:2|3:0,0:0:0:0:
323,327,84304,1,2,1:2:0:0:
410,214,84445,1,0,0:0:0:0:
423,314,84587,1,4,3:0:0:0:
318,357,84728,2,0,L|202:350,1,89.9999976158143,2|0,1:2|0:0,0:0:0:0:
118,373,85011,5,2,1:2:0:0:
189,259,85153,1,2,1:2:0:0:
126,141,85294,1,2,1:2:0:0:
55,255,85436,1,2,1:2:0:0:
208,92,85577,5,2,1:2:0:0:
293,153,85719,1,4,3:0:0:0:
220,165,85860,1,4,3:0:0:0:
281,80,86002,1,4,3:0:0:0:
431,6,86143,6,0,B|417:64|417:64|440:109|440:109|419:193,1,179.999995231629,2|4,1:2|3:0,0:0:0:0:
397,281,86568,1,2,1:2:0:0:
392,305,86639,1,2,0:0:0:0:
387,329,86709,2,0,P|329:313|266:334,2,119.999996821086,2|2|2,0:0|0:0|0:0,0:0:0:0:
186,375,87275,6,0,L|196:267,1,89.9999976158143,2|0,1:2|0:0,0:0:0:0:
206,183,87558,1,4,3:0:0:0:
51,384,87700,2,0,L|41:276,1,89.9999976158143,2|0,1:2|0:0,0:0:0:0:
31,192,87983,1,4,3:0:0:0:
206,383,88124,2,0,L|216:275,1,89.9999976158143,2|0,1:2|0:0,0:0:0:0:
114,88,88407,6,0,B|137:125|137:125|295:143,1,179.999995231629,2|4,1:2|3:0,0:0:0:0:
379,153,88832,1,2,1:2:0:0:
330,93,88973,1,0,0:0:0:0:
313,237,89115,5,4,3:0:0:0:
406,80,89256,1,2,1:2:0:0:
495,239,89398,1,4,3:0:0:0:
339,321,89539,6,0,L|215:308,1,89.9999976158143,2|0,1:2|0:0,0:0:0:0:
149,296,89822,1,4,3:0:0:0:
0,241,89964,2,0,L|124:228,1,89.9999976158143,2|0,1:2|0:0,0:0:0:0:
190,216,90247,1,4,3:0:0:0:
339,161,90389,2,0,L|215:148,1,89.9999976158143,2|0,1:2|0:0,0:0:0:0:
110,27,90672,6,0,L|100:241,1,179.999995231629,2|4,1:2|3:0,0:0:0:0:
49,294,91096,2,0,P|126:305|157:295,1,89.9999976158143,2|0,1:2|0:0,0:0:0:0:
214,231,91379,1,4,3:0:0:0:
234,335,91521,1,2,1:2:0:0:
334,369,91662,1,4,3:0:0:0:
314,265,91804,5,2,1:2:0:0:
194,127,91945,1,2,1:2:0:0:
56,247,92087,1,2,1:2:0:0:
175,384,92228,1,2,1:2:0:0:
94,94,92370,5,2,1:2:0:0:
69,379,92511,1,2,1:2:0:0:
219,12,92653,1,2,1:2:0:0:
244,297,92794,1,2,1:2:0:0:
318,211,92936,5,6,1:2:0:0:
318,211,95058,1,2,0:0:0:0:
318,211,95200,1,2,0:0:0:0:
368,154,96332,6,0,P|389:82|362:9,2,134.999996423721,2|2|0,0:0|0:0|0:0,0:0:0:0:
318,211,97464,1,2,0:0:0:0:
318,211,99445,1,2,0:0:0:0:
318,211,99728,1,2,0:0:0:0:
318,211,100860,5,2,0:0:0:0:
256,257,101002,1,2,0:0:0:0:
186,226,101143,1,2,0:0:0:0:
249,180,101285,1,2,0:0:0:0:
326,287,101568,5,2,0:0:0:0:
310,135,101709,1,2,0:0:0:0:
