osu file format v14

[General]
AudioFilename: audio.mp3
AudioLeadIn: 0
PreviewTime: 2472
Countdown: 0
SampleSet: Soft
StackLeniency: 0.4
Mode: 0
LetterboxInBreaks: 0
WidescreenStoryboard: 1

[Editor]
Bookmarks: 2548,12344,17242,22140,27038,29487,39283,49079,58875,68671,78467
DistanceSpacing: 1.2
BeatDivisor: 4
GridSize: 16
TimelineZoom: 2

[Metadata]
Title:Never Let Up!
TitleUnicode:油断できないこの一瞬!
Artist:Yoko Shimomura
ArtistUnicode:下村 陽子
Creator:Hobbes2
Version:Hard!
Source:Mario & Luigi: Dream Team
Tags:Voli Adventure マリオ&ルイージRPG4 ドリームアドベンチャー Nintendo Boss Battle Theme VGM OST and Bowser
BeatmapID:1491666
BeatmapSetID:607959

[Difficulty]
HPDrainRate:4
CircleSize:4
OverallDifficulty:6
ApproachRate:8
SliderMultiplier:1.4
SliderTickRate:1

[Events]
//Background and Video events
0,0,"dream team.jpg",0,0
//Break Periods
2,29687,37309
//Storyboard Layer 0 (Background)
//Storyboard Layer 1 (Fail)
//Storyboard Layer 2 (Pass)
//Storyboard Layer 3 (Foreground)
//Storyboard Sound Samples

[TimingPoints]
100,306.122448979592,4,2,1,33,1,0
2548,-100,4,2,1,45,0,0
12344,-100,4,2,1,35,0,0
17242,-100,4,2,1,40,0,0
22140,-100,4,2,1,45,0,0
27038,-100,4,2,1,25,0,0
28263,-100,4,2,1,35,0,0
28875,-100,4,2,1,45,0,0
29487,-100,4,2,1,25,0,0
39283,-100,4,2,1,35,0,0
49079,-100,4,2,1,35,0,0
56426,-100,4,2,1,40,0,0
57651,-100,4,2,1,45,0,0
58875,-100,4,2,1,40,0,0
68671,-100,4,2,1,33,0,0
68977,-100,4,2,1,45,0,1
71120,-100,4,2,1,33,0,0
71426,-100,4,2,1,45,0,1
73569,-100,4,2,1,33,0,0
73875,-100,4,2,1,45,0,1
76018,-100,4,2,1,33,0,0
76324,-100,4,2,1,45,0,1
78467,-100,4,2,1,33,0,0
80304,-100,4,2,1,45,0,0

[Colours]
Combo1 : 255,53,53
Combo2 : 0,217,0
Combo3 : 0,230,230
Combo4 : 0,111,221
Combo5 : 204,119,172

[HitObjects]
97,99,100,6,0,P|113:93|138:88,15,35,4|0|4|0|0|0|0|0|0|0|0|0|0|0|0|0,0:0|0:0|0:0|0:0|0:0|0:0|0:0|0:0|0:0|0:0|0:0|0:0|0:0|0:0|0:0|0:0,0:0:0:0:
164,114,1324,6,0,P|180:120|205:125,7,35,4|0|0|0|8|0|0|0,0:0|0:0|0:0|0:0|0:0|0:0|0:0|0:0,0:0:0:0:
237,110,1936,2,0,P|253:104|278:99,7,35,8|8|8|0|12|0|0|0,0:3|0:2|0:3|0:0|0:0|0:0|0:0|0:0,0:0:0:0:
311,108,2548,6,0,P|303:181|307:257,2,140,4|8|8,0:0|0:0|0:3,0:0:0:0:
381,61,3314,1,8,0:3:0:0:
446,113,3467,2,0,L|439:196,1,70,8|8,0:0|0:3,0:0:0:0:
395,253,3773,6,0,L|401:336,1,70,2|8,0:0|0:3,0:0:0:0:
404,364,4003,1,0,0:0:0:0:
404,364,4079,2,0,P|345:358|306:366,1,70,8|0,0:0|0:0,0:0:0:0:
252,341,4385,2,0,P|224:349|211:356,2,35,8|8|8,0:3|0:0|0:3,0:0:0:0:
298,271,4691,2,0,P|304:212|296:173,1,70,8|0,0:0|0:0,0:0:0:0:
240,145,4997,6,0,B|168:119|167:175|90:140,2,140,4|8|8,0:0|0:0|0:3,0:0:0:0:
303,202,5763,1,8,0:3:0:0:
372,155,5916,2,0,P|379:99|373:60,1,70,8|8,0:0|0:3,0:0:0:0:
311,33,6222,6,0,B|272:23|272:23|243:32,1,70,2|8,0:0|0:3,0:0:0:0:
204,46,6452,1,0,0:0:0:0:
204,46,6528,2,0,B|165:56|165:56|136:46,1,70,8|0,0:0|0:0,0:0:0:0:
70,98,6834,2,0,P|75:146|70:176,1,70,8|8,0:3|0:3,0:0:0:0:
32,241,7140,2,0,P|17:267|9:277,2,35,8|4|8,0:0|0:3|0:0,0:0:0:0:
110,269,7446,6,0,L|282:284,2,140,4|8|8,0:0|0:0|0:3,0:0:0:0:
49,328,8212,1,8,0:3:0:0:
125,361,8365,2,0,L|205:368,1,70,8|8,0:0|0:3,0:0:0:0:
278,362,8671,6,0,P|332:352|368:356,1,70,2|8,0:0|0:3,0:0:0:0:
383,372,8901,1,0,0:0:0:0:
383,372,8977,2,0,P|373:318|377:282,1,70,8|0,0:0|0:0,0:0:0:0:
429,240,9283,2,0,P|464:237|479:240,2,35,8|8|8,0:3|0:0|0:3,0:0:0:0:
347,221,9589,2,0,P|346:186|337:152,1,70,8|0,0:0|0:0,0:0:0:0:
271,100,9895,6,0,P|211:125|190:206,2,140,4|8|8,0:0|0:0|0:3,0:0:0:0:
337,152,10661,1,8,0:3:0:0:
393,214,10814,2,0,P|398:260|395:299,1,70,8|8,0:0|0:3,0:0:0:0:
330,335,11120,6,0,L|253:329,1,70,4|8,0:0|0:3,0:0:0:0:
227,355,11350,1,0,0:0:0:0:
227,355,11426,2,0,L|150:361,1,70,8|0,0:0|0:0,0:0:0:0:
79,328,11732,1,8,0:3:0:0:
68,244,11885,1,8,0:3:0:0:
146,276,12038,2,0,L|216:271,1,70,8|8,0:0|0:0,0:0:0:0:
276,212,12344,6,0,P|335:203|428:243,2,140,4|10|8,0:0|0:0|0:3,0:0:0:0:
216,271,13110,2,0,L|222:308,2,35,8|0|10,0:3|0:0|0:0,0:0:0:0:
134,123,13569,6,0,P|75:132|-18:92,1,140,6|8,0:0|0:0,0:0:0:0:
26,26,14028,1,4,0:0:0:0:
106,3,14181,2,0,L|275:17,1,140,8|8,0:3|0:0,0:0:0:0:
358,139,14793,6,0,P|413:114|435:33,2,140,4|10|8,0:0|0:0|0:3,0:0:0:0:
276,115,15559,2,0,P|234:114|228:117,2,35,8|0|10,0:3|0:0|0:0,0:0:0:0:
75,42,16018,6,0,P|93:107|154:139,1,140,6|8,0:0|0:0,0:0:0:0:
212,199,16477,1,4,0:0:0:0:
212,199,16630,2,0,P|198:232|199:266,1,70,8|8,0:3|0:3,0:0:0:0:
124,304,16936,2,0,P|137:336|136:370,1,70,8|8,0:0|0:0,0:0:0:0:
41,320,17242,6,0,L|54:172,1,140,4|8,0:0|0:0,0:0:0:0:
100,109,17702,2,0,P|149:90|181:93,1,70,0|8,0:0|0:3,0:0:0:0:
205,102,17931,1,0,0:0:0:0:
205,102,18008,1,8,0:3:0:0:
264,161,18161,2,0,L|340:155,1,70,10|8,0:0|0:3,0:0:0:0:
387,220,18467,6,0,L|456:225,1,70,2|8,0:0|0:3,0:0:0:0:
503,155,18773,1,8,0:0:0:0:
457,84,18926,2,0,P|407:68|373:73,1,70,0|8,0:0|0:3,0:0:0:0:
349,79,19156,1,0,0:0:0:0:
349,79,19232,1,8,0:3:0:0:
274,117,19385,2,0,L|204:111,1,70,10|0,0:0|0:0,0:0:0:0:
149,47,19691,6,0,P|166:113|139:177,1,140,2|8,0:0|0:0,0:0:0:0:
69,224,20151,1,0,0:0:0:0:
74,308,20304,2,0,P|116:363|183:382,1,140,8|10,0:3|0:0,0:0:0:0:
321,286,20916,6,0,P|328:246|318:210,1,70,2|8,0:0|0:3,0:0:0:0:
255,165,21222,2,0,P|248:125|258:89,1,70,8|0,0:0|0:0,0:0:0:0:
327,54,21528,2,0,P|357:56|374:61,2,35,8|8|8,0:3|0:0|0:3,0:0:0:0:
254,96,21834,2,0,P|214:103|178:93,1,70,8|0,0:0|0:0,0:0:0:0:
72,167,22140,6,0,P|106:160|141:167,1,70,4|0,0:0|0:0,0:0:0:0:
172,195,22370,1,0,0:0:0:0:
172,195,22446,2,0,L|166:270,1,70,8|0,0:0|0:0,0:0:0:0:
101,317,22753,2,0,P|66:323|32:316,1,70,8|8,0:3|0:3,0:0:0:0:
4,237,23059,2,0,L|0:167,1,70,8|8,0:0|0:3,0:0:0:0:
41,94,23365,5,2,0:0:0:0:
113,52,23518,1,8,0:3:0:0:
196,52,23671,2,0,L|286:59,1,70,8|0,0:0|0:0,0:0:0:0:
309,129,23977,1,8,0:3:0:0:
237,171,24130,1,8,0:3:0:0:
154,171,24283,2,0,L|63:163,1,70,8|0,0:0|0:0,0:0:0:0:
77,248,24589,6,0,P|93:278|98:313,1,70,2|0,0:0|0:0,0:0:0:0:
93,355,24819,1,0,0:0:0:0:
93,355,24895,1,8,0:0:0:0:
176,346,25048,1,0,0:0:0:0:
257,367,25202,2,0,P|300:371|341:363,1,70,8|8,0:3|0:3,0:0:0:0:
398,324,25508,2,0,P|401:289|397:254,1,70,8|8,0:0|0:3,0:0:0:0:
353,183,25814,5,2,0:0:0:0:
313,265,25967,1,8,0:3:0:0:
269,194,26120,2,0,P|234:190|199:194,1,70,8|0,0:0|0:0,0:0:0:0:
140,254,26426,2,0,P|105:248|97:246,2,35,8|0|8,0:3|0:0|0:3,0:0:0:0:
191,320,26732,2,0,P|208:316|225:314,2,35,8|0|8,0:0|0:0|0:0,0:0:0:0:
108,333,27038,6,0,L|32:327,1,70,4|0,0:0|0:0,0:0:0:0:
70,248,27344,2,0,L|145:253,1,70
115,340,27651,6,0,L|39:338,1,70
73,257,27957,2,0,L|149:259,1,70
123,347,28263,6,0,L|47:349,1,70,4|0,0:0|0:0,0:0:0:0:
76,267,28569,2,0,L|152:265,1,70,0|0,0:0|0:0,0:0:0:0:
221,301,28875,5,4,0:0:0:0:
299,269,29028,1,0,0:0:0:0:
263,193,29181,2,0,P|256:153|263:123,1,70,0|0,0:0|0:0,0:0:0:0:
335,84,29487,5,4,0:0:0:0:
254,244,38059,6,0,L|263:94,2,140,8|8|12,0:3|0:0|0:0,0:0:0:0:
251,285,38747,1,8,0:0:0:0:
251,285,38824,1,0,0:0:0:0:
317,336,38977,1,8,0:0:0:0:
149,346,39283,6,0,L|75:337,1,70,4|0,0:0|0:0,0:0:0:0:
16,279,39589,2,0,P|3:212|22:145,1,140,8|8,0:0|0:3,0:0:0:0:
57,120,39972,1,0,0:0:0:0:
57,120,40048,1,8,0:3:0:0:
132,157,40202,2,0,P|184:159|212:156,1,70,8|8,0:0|0:3,0:0:0:0:
227,237,40508,6,0,P|279:235|307:238,1,70,2|8,0:0|0:3,0:0:0:0:
348,302,40814,2,0,P|330:247|352:169,1,140,8|8,0:0|0:3,0:0:0:0:
387,149,41196,1,0,0:0:0:0:
387,149,41273,1,8,0:3:0:0:
459,106,41426,2,0,P|458:48|448:12,1,70,8|0,0:0|0:0,0:0:0:0:
374,14,41732,6,0,L|226:3,2,140,4|8|8,0:0|0:0|0:3,0:0:0:0:
455,36,42497,1,8,0:3:0:0:
492,111,42651,2,0,P|501:165|490:209,1,70,8|8,0:0|0:3,0:0:0:0:
429,227,42957,6,0,P|420:281|431:325,1,70,2|8,0:0|0:3,0:0:0:0:
488,346,43263,2,0,B|422:326|422:326|356:350,1,140,8|8,0:0|0:3,0:0:0:0:
318,369,43645,1,0,0:0:0:0:
318,369,43722,1,8,0:3:0:0:
249,319,43875,2,0,P|241:285|245:250,1,70,8|8,0:0|0:0,0:0:0:0:
311,198,44181,6,0,P|372:232|392:319,2,140,4|8|8,0:0|0:0|0:3,0:0:0:0:
245,250,44946,1,8,0:3:0:0:
185,310,45100,2,0,P|139:306|109:297,1,70,8|8,0:0|0:3,0:0:0:0:
61,235,45406,6,0,L|74:84,1,140,4|8,0:0|0:0,0:0:0:0:
140,45,45865,1,0,0:0:0:0:
204,98,46018,2,0,P|261:122|341:88,1,140,8|8,0:3|0:0,0:0:0:0:
457,208,46630,6,0,P|392:183|329:208,1,140,4|8,0:0|0:0,0:0:0:0:
274,272,47089,1,0,0:0:0:0:
221,336,47242,2,0,P|156:360|93:335,1,140,8|8,0:3|0:0,0:0:0:0:
42,267,47702,1,8,0:3:0:0:
98,204,47855,6,0,L|111:49,1,140,4|8,0:0|0:0,0:0:0:0:
166,1,48314,1,0,0:0:0:0:
226,59,48467,2,0,P|272:68|315:60,1,70,8|8,0:3|0:3,0:0:0:0:
361,117,48773,2,0,P|407:108|450:116,1,70,8|8,0:0|0:0,0:0:0:0:
475,180,49079,6,0,B|461:136|461:136|481:37,2,140,4|8|8,0:0|0:0|0:3,0:0:0:0:
500,259,49844,1,8,0:3:0:0:
429,305,49997,2,0,P|374:312|354:307,1,70,8|8,0:0|0:3,0:0:0:0:
300,249,50304,6,0,L|292:179,1,70,2|8,0:0|0:3,0:0:0:0:
288,137,50533,1,0,0:0:0:0:
288,137,50610,2,0,L|357:144,1,70,8|0,0:0|0:0,0:0:0:0:
436,172,50916,2,0,P|447:205|447:215,2,35,8|8|8,0:3|0:0|0:3,0:0:0:0:
423,89,51222,2,0,P|419:32|433:1,1,70,8|0,0:0|0:0,0:0:0:0:
339,13,51528,6,0,P|277:41|240:117,2,140,4|8|8,0:0|0:0|0:3,0:0:0:0:
411,55,52293,1,8,0:3:0:0:
452,127,52446,2,0,L|445:206,1,70,8|8,0:0|0:3,0:0:0:0:
363,215,52753,6,0,L|369:294,1,70,2|8,0:0|0:3,0:0:0:0:
373,326,52982,1,0,0:0:0:0:
373,326,53059,2,0,P|331:326|300:340,1,70,8|0,0:0|0:0,0:0:0:0:
238,286,53365,2,0,P|196:286|165:272,1,70,8|8,0:3|0:3,0:0:0:0:
104,223,53671,2,0,L|64:228,2,35,8|4|8,0:0|0:3|0:0,0:0:0:0:
153,155,53977,6,0,L|141:15,2,140,4|8|8,0:0|0:0|0:3,0:0:0:0:
104,223,54742,1,8,0:3:0:0:
170,275,54895,2,0,P|203:287|238:285,1,70,8|8,0:0|0:3,0:0:0:0:
302,231,55202,6,0,L|307:161,1,70,4|8,0:0|0:3,0:0:0:0:
272,139,55431,1,0,0:0:0:0:
272,139,55508,2,0,L|266:69,1,70,8|0,0:0|0:0,0:0:0:0:
331,16,55814,2,0,P|365:8|400:12,1,70,8|8,0:3|0:3,0:0:0:0:
453,77,56120,2,0,P|460:110|456:145,1,70,8|0,0:0|0:0,0:0:0:0:
403,210,56426,6,0,L|333:204,1,70,4|0,0:0|0:0,0:0:0:0:
311,240,56655,1,0,0:0:0:0:
311,240,56732,2,0,L|241:245,1,70,8|0,0:0|0:0,0:0:0:0:
181,304,57038,2,0,P|147:311|112:307,1,70,4|8,0:0|0:3,0:0:0:0:
60,243,57344,2,0,P|52:209|56:174,1,70,8|8,0:0|0:3,0:0:0:0:
126,127,57651,6,0,L|119:57,1,70,4|0,0:0|0:0,0:0:0:0:
202,45,57957,2,0,L|208:114,1,70,8|0,0:0|0:0,0:0:0:0:
177,191,58263,1,4,0:0:0:0:
253,221,58416,1,8,0:3:0:0:
285,145,58569,2,0,L|355:139,1,70,12|8,0:0|0:0,0:0:0:0:
394,64,58875,6,0,P|334:43|252:63,2,140,4|8|8,0:0|0:0|0:3,0:0:0:0:
462,130,59640,1,8,0:3:0:0:
462,130,59717,1,0,0:0:0:0:
462,130,59793,2,0,P|461:183|457:217,1,70,8|8,0:0|0:3,0:0:0:0:
409,268,60100,6,0,L|263:253,1,140,2|8,0:0|0:0,0:0:0:0:
206,197,60559,1,0,0:0:0:0:
269,142,60712,2,0,L|338:135,1,70,8|8,0:3|0:3,0:0:0:0:
368,106,60941,1,0,0:0:0:0:
368,106,61018,2,0,L|437:99,1,70,8|0,0:2|0:0,0:0:0:0:
408,18,61324,6,0,P|373:11|339:14,1,70,2|0,0:0|0:0,0:0:0:0:
267,57,61630,2,0,P|232:63|198:60,1,70,8|0,0:0|0:0,0:0:0:0:
117,36,61936,2,0,P|84:21|75:20,2,35,8|0|8,0:3|0:0|0:3,0:0:0:0:
81,112,62242,2,0,L|89:181,1,70,8|8,0:0|0:3,0:0:0:0:
163,222,62548,6,0,L|154:291,1,70,2|8,0:0|0:3,0:0:0:0:
78,329,62855,2,0,P|48:335|-3:321,1,70,8|0,0:0|0:0,0:0:0:0:
10,243,63161,2,0,L|0:172,1,70,8|8,0:3|0:3,0:0:0:0:
14,134,63390,1,0,0:0:0:0:
14,134,63467,2,0,P|44:128|95:142,1,70,8|8,0:0|0:0,0:0:0:0:
148,186,63773,6,0,B|163:236|163:236|140:320,2,140,4|8|8,0:0|0:0|0:3,0:0:0:0:
165,103,64538,1,8,0:3:0:0:
165,103,64615,1,0,0:0:0:0:
165,103,64691,2,0,L|250:95,1,70,8|8,0:0|0:3,0:0:0:0:
308,136,64997,6,0,P|331:182|306:280,1,140,2|8,0:0|0:0,0:0:0:0:
381,320,65457,1,0,0:0:0:0:
451,367,65610,2,0,P|425:303|442:236,1,140,8|8,0:3|0:0,0:0:0:0:
495,153,66069,1,0,0:0:0:0:
495,153,66145,1,0,0:0:0:0:
495,153,66222,6,0,L|355:140,1,140,4|8,0:0|0:0,0:0:0:0:
292,84,66681,1,0,0:0:0:0:
229,140,66834,2,0,L|89:153,1,140,8|8,0:3|0:0,0:0:0:0:
89,315,67446,6,0,L|229:328,1,140,2|8,0:0|0:0,0:0:0:0:
292,384,67905,1,0,0:0:0:0:
355,328,68059,2,0,L|424:321,1,70,8|8,0:3|0:3,0:0:0:0:
455,293,68288,1,0,0:0:0:0:
455,293,68365,2,0,P|455:242|436:207,1,70,8|8,0:0|0:0,0:0:0:0:
387,166,68671,5,2,0:0:0:0:
387,166,68977,6,0,B|315:140|314:196|237:161,1,140,12|8,0:2|0:3,0:0:0:0:
191,106,69436,1,8,0:3:0:0:
249,45,69589,2,0,L|345:36,1,70,8|8,0:0|0:3,0:0:0:0:
380,98,69895,6,0,P|390:147|373:192,1,70,2|8,0:0|0:3,0:0:0:0:
457,211,70202,2,0,P|447:260|464:305,1,70,8|0,0:0|0:0,0:0:0:0:
409,354,70508,1,8,0:3:0:0:
409,354,70584,1,0,0:0:0:0:
409,354,70661,1,8,0:3:0:0:
334,307,70814,2,0,P|285:303|250:311,1,70,8|0,0:0|0:0,0:0:0:0:
193,350,71120,5,2,0:0:0:0:
193,350,71426,6,0,B|222:303|222:303|201:196,1,140,12|8,0:0|0:3,0:0:0:0:
148,158,71885,1,8,0:3:0:0:
78,111,72038,2,0,P|38:102|-2:114,1,70,8|8,0:0|0:3,0:0:0:0:
4,191,72344,6,0,L|9:269,1,70,2|8,0:0|0:3,0:0:0:0:
15,343,72651,2,0,P|49:348|83:340,1,70,8|0,0:0|0:0,0:0:0:0:
148,287,72957,1,8,0:3:0:0:
148,287,73033,1,0,0:0:0:0:
148,287,73110,1,8,0:3:0:0:
216,334,73263,2,0,L|306:326,1,70,8|8,0:0|0:0,0:0:0:0:
357,284,73569,6,0,L|447:291,1,70,2|0,0:0|0:0,0:0:0:0:
283,243,73875,6,0,P|273:208|283:167,1,70,12|0,0:0|0:0,0:0:0:0:
339,117,74181,2,0,P|349:81|339:40,1,70,8|8,0:3|0:3,0:0:0:0:
266,17,74487,2,0,L|178:9,1,70,8|8,0:0|0:3,0:0:0:0:
137,70,74793,6,0,L|67:76,1,70,2|8,0:0|0:3,0:0:0:0:
13,141,75100,2,0,P|9:183|27:224,1,70,8|0,0:0|0:0,0:0:0:0:
95,262,75406,1,8,0:3:0:0:
95,262,75482,1,0,0:0:0:0:
95,262,75559,1,8,0:3:0:0:
167,218,75713,2,0,P|171:176|153:135,1,70,8|0,0:0|0:0,0:0:0:0:
213,83,76018,5,2,0:0:0:0:
213,83,76324,6,0,P|277:102|341:47,1,140,12|8,0:0|0:3,0:0:0:0:
411,31,76783,1,8,0:3:0:0:
467,93,76936,2,0,P|461:138|454:166,1,70,8|8,0:0|0:3,0:0:0:0:
380,199,77242,6,0,P|386:244|393:272,1,70,2|8,0:0|0:3,0:0:0:0:
339,333,77548,2,0,P|294:339|266:346,1,70,8|0,0:0|0:0,0:0:0:0:
194,306,77855,1,8,0:3:0:0:
194,306,77931,1,0,0:0:0:0:
194,306,78008,1,8,0:3:0:0:
117,267,78161,2,0,P|83:274|49:279,1,70,8|8,0:0|0:0,0:0:0:0:
20,199,78467,6,0,P|10:145|17:111,1,70,2|0,0:0|0:0,0:0:0:0:
94,115,78773,2,0,P|104:169|97:203,1,70,0|0,0:0|0:0,0:0:0:0:
20,211,79079,6,0,P|7:157|13:123,1,70,2|0,0:0|0:0,0:0:0:0:
90,123,79385,2,0,P|103:176|97:211,1,70,0|0,0:0|0:0,0:0:0:0:
22,223,79691,6,0,P|6:170|9:136,1,70,2|0,0:0|0:0,0:0:0:0:
86,132,79997,2,0,P|102:185|99:219,1,70,0|0,0:0|0:0,0:0:0:0:
24,235,80304,5,2,0:0:0:0:
92,284,80457,1,0,0:0:0:0:
170,314,80610,2,0,L|270:305,1,70,6|0,0:0|0:0,0:0:0:0:
305,255,80916,5,4,0:0:0:0:
