osu file format v14

[General]
AudioFilename: audio.mp3
AudioLeadIn: 0
PreviewTime: -1
Countdown: 1
SampleSet: None
StackLeniency: 0.7
Mode: 2
LetterboxInBreaks: 0
WidescreenStoryboard: 1

[Editor]
DistanceSpacing: 1.3
BeatDivisor: 4
GridSize: 4
TimelineZoom: 1.7

[Metadata]
Title:Land of the Dragons
TitleUnicode:Land of the Dragons
Artist:Yoko Shimomura
ArtistUnicode:Yoko Shimomura
Creator:Lucas Valentino
Version:Simplicity
Source:Kingdom Hearts II
Tags:Kingdom Hearts, Kingdom Hearts II, Yoko Shimomura, Land of the Dragons.
BeatmapID:1094985
BeatmapSetID:515623

[Difficulty]
HPDrainRate:5
CircleSize:3
OverallDifficulty:7
ApproachRate:5
SliderMultiplier:1.4
SliderTickRate:1

[Events]
//Background and Video events
//Break Periods
2,39714,49295
2,62160,66146
//Storyboard Layer 0 (Background)
//Storyboard Layer 1 (Fail)
//Storyboard Layer 2 (Pass)
//Storyboard Layer 3 (Foreground)
//Storyboard Sound Samples

[TimingPoints]
5193.81658273621,183.694088111931,4,1,0,100,1,0

[HitObjects]
256,88,4918,6,0,L|256:312,3,210
255,191,6571,1,0,0:0:0:0:
157,193,7122,2,0,P|202:258|257:279,3,140
256,278,8178,1,0,0:0:0:0:
324,160,8775,1,0,0:0:0:0:
176,191,9268,5,0,0:0:0:0:
252,288,10383,1,0,0:0:0:0:
334,195,11485,1,0,0:0:0:0:
255,135,12541,1,0,0:0:0:0:
256,124,14195,2,0,L|256:284,2,140
177,268,15342,5,0,0:0:0:0:
341,268,16399,1,0,0:0:0:0:
258,134,17501,1,0,0:0:0:0:
165,191,18052,6,0,P|188:256|256:281,2,140
337,278,19154,1,0,0:0:0:0:
337,278,19705,1,0,0:0:0:0:
337,278,20256,6,0,P|337:168|296:135,2,140
320,143,21358,1,0,0:0:0:0:
314,140,21909,1,0,0:0:0:0:
280,120,22461,6,0,P|248:212|220:276,2,140
190,139,23563,1,0,0:0:0:0:
190,139,24114,1,0,0:0:0:0:
212,132,24665,2,0,L|306:261,2,140
256,116,25767,2,0,P|256:192|256:268,2,140
255,191,27420,5,0,0:0:0:0:
211,191,27971,1,0,0:0:0:0:
285,191,28522,1,0,0:0:0:0:
256,192,29625,12,0,31276,0:0:0:0:
255,189,32380,5,0,0:0:0:0:
204,132,33482,6,0,L|308:252,2,140
256,192,34587,1,0,0:0:0:0:
248,191,35135,1,0,0:0:0:0:
174,189,35641,5,0,0:0:0:0:
332,186,36743,1,0,0:0:0:0:
256,112,37845,2,0,L|256:256,3,140
200,195,38967,1,0,0:0:0:0:
309,233,39514,1,0,0:0:0:0:
255,191,54295,5,0,0:0:0:0:
379,117,56444,1,0,0:0:0:0:
212,144,58097,2,0,L|312:268,2,140
308,248,58832,1,0,0:0:0:0:
256,192,59199,1,0,0:0:0:0:
256,192,59750,1,0,0:0:0:0:
256,264,60865,2,0,P|256:192|256:120,2,140
256,124,61404,2,0,L|256:264,2,140
256,192,61960,1,0,0:0:0:0:
208,140,67466,6,0,L|300:248,2,140
260,208,68200,1,0,0:0:0:0:
152,196,68568,5,0,0:0:0:0:
364,192,69119,1,0,0:0:0:0:
256,192,69624,1,0,0:0:0:0:
248,192,70719,1,0,0:0:0:0:
256,120,71277,6,0,L|256:264,2,140
256,192,71828,12,0,75660,0:0:0:0:
254,191,76191,5,0,0:0:0:0:
168,188,77293,1,0,0:0:0:0:
328,192,78383,1,0,0:0:0:0:
256,192,79452,1,0,0:0:0:0:
176,196,80554,5,0,0:0:0:0:
376,188,81656,1,0,0:0:0:0:
258,259,82762,5,0,0:0:0:0:
258,229,83310,1,0,0:0:0:0:
257,194,83857,1,0,0:0:0:0:
256,96,85468,2,0,L|256:312,2,210
256,306,86570,2,0,L|256:96,2,210
256,192,87488,12,0,88774,0:0:0:0:
