osu file format v14

[General]
AudioFilename: audio.mp3
AudioLeadIn: 0
PreviewTime: -1
Countdown: 2
SampleSet: None
StackLeniency: 0.7
Mode: 2
LetterboxInBreaks: 0
WidescreenStoryboard: 1

[Editor]
DistanceSpacing: 1.3
BeatDivisor: 4
GridSize: 4
TimelineZoom: 1.7

[Metadata]
Title:Land of the Dragons
TitleUnicode:Land of the Dragons
Artist:Yoko Shimomura
ArtistUnicode:Yoko Shimomura
Creator:Lucas Valentino
Version:Final Stage
Source:Kingdom Hearts II
Tags:Kingdom Hearts, Kingdom Hearts II, Yoko Shimomura, Land of the Dragons.
BeatmapID:1095966
BeatmapSetID:515623

[Difficulty]
HPDrainRate:8
CircleSize:4
OverallDifficulty:9
ApproachRate:8
SliderMultiplier:1.4
SliderTickRate:1

[Events]
//Background and Video events
//Break Periods
2,22661,26670
2,31615,39299
2,44750,53444
2,72074,75441
//Storyboard Layer 0 (Background)
//Storyboard Layer 1 (Fail)
//Storyboard Layer 2 (Pass)
//Storyboard Layer 3 (Foreground)
//Storyboard Sound Samples

[TimingPoints]
5193.81658273621,183.694088111931,4,1,0,100,1,0

[HitObjects]
256,192,4918,5,0,0:0:0:0:
48,308,5193,2,0,P|136:192|32:120,2,280
256,80,6158,1,0,0:0:0:0:
464,304,6341,2,0,P|372:176|472:112,2,280
256,192,7260,1,0,0:0:0:0:
256,192,7444,5,0,0:0:0:0:
48,336,7627,2,0,L|340:336,1,280
472,272,8178,2,0,L|168:272,1,280
40,216,8729,2,0,L|328:216,2,280
256,192,10429,1,0,0:0:0:0:
36,192,11485,5,0,0:0:0:0:
476,192,11669,1,0,0:0:0:0:
164,192,11852,1,0,0:0:0:0:
348,192,12036,1,0,0:0:0:0:
476,192,12587,5,0,0:0:0:0:
40,192,12771,1,0,0:0:0:0:
348,192,12954,1,0,0:0:0:0:
184,192,13138,1,0,0:0:0:0:
36,192,14286,2,0,L|152:192,1,105
424,192,14608,1,0,0:0:0:0:
424,192,14791,6,0,L|320:192,1,105
152,192,15113,1,0,0:0:0:0:
204,192,15296,2,0,L|344:192,2,140
436,192,15939,1,0,0:0:0:0:
64,192,16169,1,0,0:0:0:0:
216,296,16399,2,0,P|364:204|212:108,2,420
256,192,18052,5,0,0:0:0:0:
256,192,18236,1,0,0:0:0:0:
40,192,18419,2,0,L|180:192,2,140
476,192,18970,2,0,L|332:192,2,140
148,192,19521,2,0,L|368:192,2,210
36,116,20256,2,0,L|36:256,2,140
476,272,20807,2,0,L|476:116,2,140
144,192,21404,2,0,L|368:192,2,210
256,192,22461,5,0,0:0:0:0:
120,192,27420,6,0,L|400:192,2,280
256,100,28339,1,0,0:0:0:0:
404,192,28522,2,0,L|124:192,2,280
256,276,29441,1,0,0:0:0:0:
72,192,29625,2,0,P|168:288|252:192,2,280
424,192,30681,2,0,P|352:284|256:192,2,280
256,192,40049,5,0,0:0:0:0:
68,268,40417,2,0,L|68:128,2,140
468,136,40968,2,0,L|468:288,2,140
184,192,41519,2,0,L|352:192,2,140
196,192,42070,6,0,P|244:156|308:192,2,140
128,192,42621,1,0,0:0:0:0:
376,192,42805,1,0,0:0:0:0:
256,192,42988,1,0,0:0:0:0:
180,192,43172,6,0,L|320:192,2,140
112,192,43723,2,0,P|180:272|248:184,2,245
408,192,44550,1,0,0:0:0:0:
256,192,54194,5,0,0:0:0:0:
184,192,54837,2,0,L|324:192,1,140
388,192,55342,2,0,L|84:192,2,280
172,192,56490,5,0,0:0:0:0:
340,192,56674,1,0,0:0:0:0:
256,192,56857,1,0,0:0:0:0:
36,192,57041,5,0,0:0:0:0:
480,192,57225,1,0,0:0:0:0:
172,64,57408,1,0,0:0:0:0:
168,272,57592,2,0,L|328:108,2,210
256,192,58648,5,0,0:0:0:0:
476,192,59153,2,0,P|460:272|408:324,1,140
36,192,59521,2,0,P|60:120|124:76,1,140
408,192,59888,2,0,P|376:104|312:80,1,140
108,192,60256,2,0,P|128:272|188:312,1,140
176,192,60623,6,0,L|336:192,2,140
160,88,61220,2,0,L|344:304,2,280
252,192,62138,1,0,0:0:0:0:
252,192,62506,1,0,0:0:0:0:
252,192,63057,1,0,0:0:0:0:
132,192,63332,6,0,P|168:120|224:88,1,140
344,192,63746,2,0,P|312:260|256:316,1,140
208,248,64159,2,0,L|304:144,3,140
184,192,65353,6,0,L|328:192,1,140
256,120,65721,2,0,L|256:268,1,140
184,192,66088,2,0,L|352:192,4,140
256,192,67695,1,0,0:0:0:0:
256,36,67971,1,0,0:0:0:0:
36,192,68246,5,0,0:0:0:0:
480,192,68522,1,0,0:0:0:0:
184,264,68797,1,0,0:0:0:0:
256,352,69073,1,0,0:0:0:0:
256,80,69348,1,0,0:0:0:0:
368,184,69624,1,0,0:0:0:0:
272,304,69900,1,0,0:0:0:0:
148,196,70175,1,0,0:0:0:0:
36,192,70451,5,0,0:0:0:0:
476,192,70726,1,0,0:0:0:0:
104,32,71002,1,0,0:0:0:0:
396,356,71277,1,0,0:0:0:0:
256,192,71874,1,0,0:0:0:0:
256,192,76191,5,0,0:0:0:0:
164,192,76375,2,0,L|256:84,1,140
352,192,76742,2,0,L|256:312,1,140
192,192,77110,2,0,L|348:192,2,140
180,192,77661,2,0,L|320:192,1,140
36,120,78028,2,0,L|36:264,1,140
480,268,78395,2,0,L|480:116,1,140
160,92,78763,2,0,L|260:196,1,140
368,304,79130,2,0,L|256:192,1,140
184,192,79498,2,0,L|336:192,3,140
256,192,80646,5,0,0:0:0:0:
256,192,80875,12,0,81702,0:0:0:0:
