osu file format v14

[General]
AudioFilename: audio.mp3
AudioLeadIn: 0
PreviewTime: -1
Countdown: 1
SampleSet: None
StackLeniency: 0.7
Mode: 2
LetterboxInBreaks: 0
WidescreenStoryboard: 0

[Editor]
DistanceSpacing: 1.3
BeatDivisor: 4
GridSize: 4
TimelineZoom: 1.7

[Metadata]
Title:Land of the Dragons
TitleUnicode:Land of the Dragons
Artist:Yoko Shimomura
ArtistUnicode:Yoko Shimomura
Creator:Lucas Valentino
Version:Boss Battle
Source:Kingdom Hearts II
Tags:Kingdom Hearts, Kingdom Hearts II, Yoko Shimomura, Land of the Dragons.
BeatmapID:1094984
BeatmapSetID:515623

[Difficulty]
HPDrainRate:5
CircleSize:3
OverallDifficulty:7
ApproachRate:7
SliderMultiplier:1.4
SliderTickRate:1

[Events]
//Background and Video events
//Break Periods
2,39714,43230
2,44750,52975
2,62160,66146
//Storyboard Layer 0 (Background)
//Storyboard Layer 1 (Fail)
//Storyboard Layer 2 (Pass)
//Storyboard Layer 3 (Foreground)
//Storyboard Sound Samples

[TimingPoints]
5193.81658273621,183.694088111931,4,1,0,100,1,0

[HitObjects]
101,193,4826,6,0,L|385:193,2,280
255,191,6571,1,0,0:0:0:0:
157,193,7030,2,0,P|202:258|257:279,3,140
354,192,8132,2,0,P|319:129|256:114,3,140
176,191,9268,5,0,0:0:0:0:
252,288,10383,1,0,0:0:0:0:
334,195,11485,1,0,0:0:0:0:
255,135,12541,1,0,0:0:0:0:
199,191,14195,2,0,L|338:191,2,140
177,268,15342,5,0,0:0:0:0:
341,268,16399,1,0,0:0:0:0:
258,134,17501,1,0,0:0:0:0:
165,191,18052,6,0,P|188:256|256:281,2,140
337,278,19154,1,0,0:0:0:0:
337,278,19705,1,0,0:0:0:0:
337,278,20256,6,0,P|337:168|296:135,2,140
320,143,21358,1,0,0:0:0:0:
314,140,21909,1,0,0:0:0:0:
306,136,22461,6,0,P|226:107|174:156,2,140
190,139,23563,1,0,0:0:0:0:
190,139,24114,1,0,0:0:0:0:
190,146,24665,2,0,L|306:261,2,140
321,238,25216,2,0,P|255:271|201:239,2,140
132,120,25767,2,0,L|360:120,2,210
255,191,27420,5,0,0:0:0:0:
211,191,27971,1,0,0:0:0:0:
285,191,28522,1,0,0:0:0:0:
256,192,29625,12,0,31276,0:0:0:0:
255,189,32380,5,0,0:0:0:0:
175,191,33482,6,0,L|323:191,2,140
256,116,34033,2,0,L|256:260,2,140
256,192,34587,1,0,0:0:0:0:
248,191,35135,1,0,0:0:0:0:
174,189,35641,5,0,0:0:0:0:
332,186,36743,1,0,0:0:0:0:
328,192,37872,2,0,L|176:192,3,140
200,195,38967,1,0,0:0:0:0:
309,233,39514,1,0,0:0:0:0:
256,192,44550,5,0,0:0:0:0:
255,191,54295,5,0,0:0:0:0:
379,117,56490,1,0,0:0:0:0:
180,192,58097,2,0,L|352:192,2,140
328,192,58648,2,0,L|168:192,2,140
328,191,59199,1,0,0:0:0:0:
329,178,59750,1,0,0:0:0:0:
337,193,60865,2,0,P|254:193|174:193,2,140
337,193,61404,2,0,L|176:192,2,140
188,193,61960,1,0,0:0:0:0:
176,192,67466,6,0,L|336:192,2,140
316,192,68017,2,0,L|168:192,2,140
257,110,68568,5,0,0:0:0:0:
256,208,69119,1,0,0:0:0:0:
255,302,69624,1,0,0:0:0:0:
325,201,70719,1,0,0:0:0:0:
188,192,71323,6,0,L|336:192,2,140
256,192,71828,12,0,75660,0:0:0:0:
254,191,76191,5,0,0:0:0:0:
250,152,77293,1,0,0:0:0:0:
248,231,78383,1,0,0:0:0:0:
293,191,79452,1,0,0:0:0:0:
146,192,80554,6,0,L|256:106,2,140
367,191,81656,2,0,L|255:279,2,140
258,259,82762,5,0,0:0:0:0:
258,229,83310,1,0,0:0:0:0:
257,194,83857,1,0,0:0:0:0:
116,193,85468,2,0,L|405:193,2,280
408,194,86570,2,0,L|122:193,2,280
256,192,87488,12,0,88774,0:0:0:0:
