osu file format v14

[General]
AudioFilename: audio.mp3
AudioLeadIn: 0
PreviewTime: 2700
Countdown: 0
SampleSet: Soft
StackLeniency: 0.5
Mode: 0
LetterboxInBreaks: 0
SkinPreference:Default
WidescreenStoryboard: 0

[Editor]
DistanceSpacing: 1.1
BeatDivisor: 6
GridSize: 32
TimelineZoom: 1

[Metadata]
Title:Itsu demo Happy
TitleUnicode:いつでもハッピー
Artist:Yoko Shimomura
ArtistUnicode:下村陽子
Creator:bluirre
Version:hyper talk
Source:マリオ&ルイージRPG3!!!
Tags:mario and & luigi bowser's inside story video game vgm original soundtrack ost instrumental nintendo ds nds 3ds have a nice talk persistent joy alpha dream bloxi
BeatmapID:3400024
BeatmapSetID:1665463

[Difficulty]
HPDrainRate:5
CircleSize:5
OverallDifficulty:6
ApproachRate:7.5
SliderMultiplier:1.28
SliderTickRate:1

[Events]
//Background and Video events
0,0,"bg.jpg",0,0
//Break Periods
//Storyboard Layer 0 (Background)
//Storyboard Layer 1 (Fail)
//Storyboard Layer 2 (Pass)
//Storyboard Layer 3 (Foreground)
//Storyboard Layer 4 (Overlay)
//Storyboard Sound Samples

[TimingPoints]
190,500.150045013504,3,2,1,50,1,0
2690,-100,3,2,1,50,0,0
15190,-100,3,2,1,40,0,0
19690,-100,3,2,1,60,0,0
21190,-100,3,2,1,40,0,0
25690,-100,3,2,1,60,0,0
27190,-100,3,2,1,50,0,0
39190,-100,3,2,1,40,0,0
43690,-100,3,2,1,60,0,0
45190,-100,3,2,1,40,0,0
49690,-100,3,2,1,60,0,0
51205,-100,3,2,1,50,0,1
51288,-100,3,2,1,50,0,0
51700,-100,3,2,1,45,0,0
52200,-100,3,2,1,40,0,0
52700,-100,3,2,1,35,0,0
53200,-100,3,2,1,30,0,0
53700,-100,3,2,1,25,0,0
55700,-100,3,2,1,20,0,0
56700,-100,3,2,1,15,0,0
57207,-100,3,2,1,5,0,0

[Colours]
Combo1 : 164,231,154
Combo2 : 97,169,228
Combo3 : 249,113,113
Combo4 : 249,208,132
SliderBorder : 255,255,255

[HitObjects]
256,0,190,5,2,0:0:0:0:
256,96,523,1,0,0:0:0:0:
256,128,690,1,8,0:0:0:0:
256,224,1190,1,8,0:0:0:0:
256,384,1690,5,2,0:0:0:0:
256,288,2023,1,0,0:0:0:0:
256,256,2190,1,8,0:0:0:0:
256,160,2690,1,8,0:0:0:0:
256,64,2940,1,8,0:0:0:0:
256,48,3024,1,2,0:0:0:0:
256,32,3107,1,2,0:0:0:0:
256,16,3190,5,12,0:0:0:0:
256,160,3524,1,0,0:0:0:0:
256,192,3691,1,8,0:0:0:0:
256,288,4024,1,0,0:0:0:0:
256,320,4191,1,8,0:0:0:0:
256,192,4524,1,0,0:0:0:0:
256,160,4691,5,2,0:0:0:0:
256,64,5024,1,0,0:0:0:0:
256,32,5191,1,8,0:0:0:0:
256,192,5691,1,8,0:0:0:0:
256,352,6191,5,2,0:0:0:0:
256,320,6358,1,0,0:0:0:0:
256,288,6525,1,0,0:0:0:0:
256,192,6691,1,8,0:0:0:0:
256,64,7025,1,0,0:0:0:0:
256,32,7192,1,8,0:0:0:0:
256,32,7692,5,2,0:0:0:0:
256,64,7858,1,0,0:0:0:0:
256,96,8025,1,0,0:0:0:0:
256,192,8192,1,8,0:0:0:0:
256,320,8525,1,0,0:0:0:0:
256,352,8692,1,8,0:0:0:0:
256,224,9025,1,0,0:0:0:0:
256,192,9192,5,2,0:0:0:0:
256,0,9526,1,0,0:0:0:0:
256,32,9692,1,8,0:0:0:0:
256,128,10026,1,0,0:0:0:0:
256,160,10193,1,8,0:0:0:0:
256,256,10526,1,0,0:0:0:0:
256,288,10693,5,2,0:0:0:0:
256,128,11026,1,0,0:0:0:0:
256,96,11193,1,8,0:0:0:0:
256,352,11693,1,8,0:0:0:0:
256,96,12193,5,2,0:0:0:0:
256,64,12360,1,0,0:0:0:0:
256,32,12527,1,0,0:0:0:0:
256,0,12693,1,8,0:0:0:0:
256,160,13027,1,0,0:0:0:0:
256,192,13193,1,8,0:0:0:0:
256,288,13694,5,2,0:0:0:0:
256,320,13860,1,0,0:0:0:0:
256,352,14027,1,0,0:0:0:0:
256,384,14194,1,8,0:0:0:0:
256,192,14527,1,0,0:0:0:0:
256,160,14694,1,8,0:0:0:0:
256,32,15027,1,0,0:0:0:0:
256,0,15194,6,0,L|256:128,2,128,2|8|8,0:0|0:0|0:0,0:0:0:0:
256,256,16528,1,0,0:0:0:0:
256,224,16694,6,0,L|256:352,2,128,2|8|8,0:0|0:0|0:0,0:0:0:0:
256,128,18195,2,0,L|256:0,2,128,2|8|8,0:0|0:0|0:0,0:0:0:0:
256,0,19529,1,0,0:0:0:0:
256,32,19695,5,2,0:0:0:0:
256,128,20029,1,0,0:0:0:0:
256,160,20196,1,8,0:0:0:0:
256,288,20529,1,0,0:0:0:0:
256,352,20696,1,8,0:0:0:0:
256,32,21029,1,0,0:0:0:0:
256,0,21196,6,0,L|256:128,2,128,2|8|8,0:0|0:0|0:0,0:0:0:0:
256,288,22530,1,0,0:0:0:0:
256,256,22696,6,0,L|256:384,2,128,2|8|8,0:0|0:0|0:0,0:0:0:0:
256,128,24197,6,0,L|256:0,2,128,2|8|8,0:0|0:0|0:0,0:0:0:0:
256,288,25530,1,0,0:0:0:0:
256,320,25697,5,2,0:0:0:0:
256,96,26031,1,0,0:0:0:0:
256,64,26197,1,8,0:0:0:0:
256,192,26697,1,8,0:0:0:0:
256,320,26948,1,8,0:0:0:0:
256,336,27031,1,2,0:0:0:0:
256,352,27114,1,2,0:0:0:0:
256,368,27198,5,12,0:0:0:0:
256,224,27531,1,0,0:0:0:0:
256,192,27698,1,8,0:0:0:0:
256,96,28031,1,0,0:0:0:0:
256,64,28198,1,8,0:0:0:0:
256,192,28531,1,0,0:0:0:0:
256,224,28698,5,2,0:0:0:0:
256,320,29031,1,0,0:0:0:0:
256,352,29198,1,8,0:0:0:0:
256,192,29698,1,8,0:0:0:0:
256,32,30199,5,2,0:0:0:0:
256,64,30365,1,0,0:0:0:0:
256,96,30532,1,0,0:0:0:0:
256,192,30699,1,8,0:0:0:0:
256,320,31032,1,0,0:0:0:0:
256,352,31199,1,8,0:0:0:0:
256,352,31699,5,2,0:0:0:0:
256,320,31866,1,0,0:0:0:0:
256,288,32032,1,0,0:0:0:0:
256,192,32199,1,8,0:0:0:0:
256,64,32533,1,0,0:0:0:0:
256,32,32699,1,8,0:0:0:0:
256,160,33033,1,0,0:0:0:0:
256,192,33199,5,2,0:0:0:0:
256,384,33533,1,0,0:0:0:0:
256,352,33700,1,8,0:0:0:0:
256,256,34033,1,0,0:0:0:0:
256,224,34200,1,8,0:0:0:0:
256,128,34533,1,0,0:0:0:0:
256,96,34700,5,2,0:0:0:0:
256,256,35033,1,0,0:0:0:0:
256,288,35200,1,8,0:0:0:0:
256,32,35700,1,8,0:0:0:0:
256,288,36200,5,2,0:0:0:0:
256,320,36367,1,0,0:0:0:0:
256,352,36534,1,0,0:0:0:0:
256,384,36700,1,8,0:0:0:0:
256,224,37034,1,0,0:0:0:0:
256,192,37201,1,8,0:0:0:0:
256,96,37701,5,2,0:0:0:0:
256,64,37867,1,0,0:0:0:0:
256,32,38034,1,0,0:0:0:0:
256,0,38201,1,8,0:0:0:0:
256,192,38534,1,0,0:0:0:0:
256,224,38701,1,8,0:0:0:0:
256,384,39034,1,0,0:0:0:0:
256,352,39201,6,0,L|256:224,2,128,2|8|8,0:0|0:0|0:0,0:0:0:0:
256,160,40535,1,0,0:0:0:0:
256,128,40702,6,0,L|256:0,2,128,2|8|8,0:0|0:0|0:0,0:0:0:0:
256,256,42202,6,0,L|256:384,2,128,2|8|8,0:0|0:0|0:0,0:0:0:0:
256,0,43536,1,0,0:0:0:0:
256,32,43703,5,2,0:0:0:0:
256,96,44036,1,0,0:0:0:0:
256,128,44203,1,8,0:0:0:0:
256,224,44536,1,0,0:0:0:0:
256,288,44703,1,8,0:0:0:0:
256,384,45036,1,0,0:0:0:0:
256,352,45203,6,0,L|256:224,2,128,2|8|8,0:0|0:0|0:0,0:0:0:0:
256,160,46537,1,0,0:0:0:0:
256,128,46703,6,0,L|256:0,2,128,2|8|8,0:0|0:0|0:0,0:0:0:0:
256,256,48204,6,0,L|256:384,2,128,2|8|8,0:0|0:0|0:0,0:0:0:0:
256,160,49538,1,0,0:0:0:0:
256,128,49704,5,2,0:0:0:0:
256,256,50038,1,0,0:0:0:0:
256,320,50205,1,8,0:0:0:0:
256,0,50705,1,8,0:0:0:0:
256,160,50955,1,8,0:0:0:0:
256,176,51038,1,2,0:0:0:0:
256,192,51121,1,2,0:0:0:0:
256,208,51205,5,12,0:0:0:0:
256,192,51455,12,0,57207,0:0:0:0:
