osu file format v14

[General]
AudioFilename: audio.mp3
AudioLeadIn: 0
PreviewTime: 2700
Countdown: 0
SampleSet: Soft
StackLeniency: 0.7
Mode: 0
LetterboxInBreaks: 0
SkinPreference:Default
WidescreenStoryboard: 0

[Editor]
DistanceSpacing: 1.1
BeatDivisor: 6
GridSize: 16
TimelineZoom: 1

[Metadata]
Title:Itsu demo Happy
TitleUnicode:いつでもハッピー
Artist:Yoko Shimomura
ArtistUnicode:下村陽子
Creator:bluirre
Version:hard talk
Source:マリオ&ルイージRPG3!!!
Tags:mario and & luigi bowser's inside story video game vgm original soundtrack ost instrumental nintendo ds nds 3ds have a nice talk persistent joy alpha dream bloxi
BeatmapID:3400022
BeatmapSetID:1665463

[Difficulty]
HPDrainRate:4
CircleSize:4.5
OverallDifficulty:5
ApproachRate:7
SliderMultiplier:2
SliderTickRate:1

[Events]
//Background and Video events
0,0,"bg.jpg",0,0
//Break Periods
//Storyboard Layer 0 (Background)
//Storyboard Layer 1 (Fail)
//Storyboard Layer 2 (Pass)
//Storyboard Layer 3 (Foreground)
//Storyboard Layer 4 (Overlay)
//Storyboard Sound Samples

[TimingPoints]
190,500.150045013504,3,2,1,50,1,0
2680,-100,3,2,1,50,0,0
15180,-100,3,2,1,40,0,0
19680,-100,3,2,1,60,0,0
21180,-100,3,2,1,40,0,0
25680,-100,3,2,1,60,0,0
27180,-100,3,2,1,50,0,0
39180,-100,3,2,1,40,0,0
43680,-100,3,2,1,60,0,0
45180,-100,3,2,1,40,0,0
49680,-100,3,2,1,60,0,0
51205,-100,3,2,1,50,0,1
51288,-100,3,2,1,50,0,0
51690,-100,3,2,1,45,0,0
52190,-100,3,2,1,40,0,0
52690,-100,3,2,1,35,0,0
53190,-100,3,2,1,30,0,0
53690,-100,3,2,1,25,0,0
55690,-100,3,2,1,20,0,0
56690,-100,3,2,1,15,0,0
57207,-100,3,2,1,5,0,0

[Colours]
Combo1 : 164,231,154
Combo2 : 97,169,228
Combo3 : 249,113,113
Combo4 : 249,208,132
SliderBorder : 255,255,255

[HitObjects]
36,153,190,6,0,P|69:112|162:107,1,133.333333333333,2|0,0:0|0:0,0:0:0:0:
197,151,690,2,0,P|261:145|306:98,1,133.333333333333,8|0,0:0|0:0,0:0:0:0:
328,28,1190,1,8,0:0:0:0:
364,244,1690,6,0,P|331:285|238:290,1,133.333333333333,2|0,0:0|0:0,0:0:0:0:
203,246,2190,2,0,P|138:251|93:298,1,133.333333333333,8|0,0:0|0:0,0:0:0:0:
90,372,2690,1,8,0:0:0:0:
199,374,2940,2,0,L|220:318,2,33.3333333333333,8|2|8,0:0|0:0|0:0,0:0:0:0:
236,377,3190,6,0,B|276:340|317:402|375:366,1,133.333333333333,12|0,0:0|0:0,0:0:0:0:
411,315,3691,2,0,B|434:268|434:268|328:293,1,133.333333333333,8|0,0:0|0:0,0:0:0:0:
328,218,4191,2,0,B|249:236|249:236|272:189,1,133.333333333333,8|0,0:0|0:0,0:0:0:0:
316,131,4691,6,0,B|356:94|397:156|455:120,1,133.333333333333,2|0,0:0|0:0,0:0:0:0:
476,60,5191,1,8,0:0:0:0:
260,16,5691,1,8,0:0:0:0:
56,75,6191,5,2,0:0:0:0:
56,75,6358,1,0,0:0:0:0:
56,75,6525,1,0,0:0:0:0:
56,75,6691,2,0,P|81:142|43:203,1,133.333333333333,8|0,0:0|0:0,0:0:0:0:
65,266,7192,1,8,0:0:0:0:
285,341,7692,5,2,0:0:0:0:
285,341,7859,1,0,0:0:0:0:
285,341,8026,1,0,0:0:0:0:
285,341,8192,2,0,P|260:274|298:213,1,133.333333333333,8|0,0:0|0:0,0:0:0:0:
264,151,8692,2,0,P|290:91|264:32,1,133.333333333333,8|0,0:0|0:0,0:0:0:0:
219,90,9192,6,0,B|179:53|138:115|80:79,1,133.333333333333,2|0,0:0|0:0,0:0:0:0:
62,152,9692,2,0,B|-16:133|-16:133|6:180,1,133.333333333333,8|0,0:0|0:0,0:0:0:0:
57,234,10193,2,0,B|135:252|135:252|112:205,1,133.333333333333,8|0,0:0|0:0,0:0:0:0:
172,162,10693,6,0,B|169:217|243:222|231:275,1,133.333333333333,2|0,0:0|0:0,0:0:0:0:
221,346,11193,1,8,0:0:0:0:
257,129,11693,1,8,0:0:0:0:
482,184,12193,5,2,0:0:0:0:
482,184,12360,1,0,0:0:0:0:
482,184,12527,1,0,0:0:0:0:
482,184,12693,2,0,P|431:143|367:152,1,133.333333333333,8|0,0:0|0:0,0:0:0:0:
375,225,13193,1,8,0:0:0:0:
451,22,13694,5,2,0:0:0:0:
451,22,13861,1,0,0:0:0:0:
451,22,14028,1,0,0:0:0:0:
451,22,14194,2,0,P|383:46|322:8,1,133.333333333333,8|0,0:0|0:0,0:0:0:0:
266,55,14694,2,0,P|215:14|151:23,1,133.333333333333,8|0,0:0|0:0,0:0:0:0:
197,87,15194,6,0,B|183:91|182:110|182:110|198:241,1,133.333333333333,2|0,0:0|0:0,0:0:0:0:
200,286,15694,1,8,0:0:0:0:
417,253,16194,1,8,0:0:0:0:
386,113,16528,1,0,0:0:0:0:
386,113,16694,6,0,B|489:100|489:100|508:101|512:115,1,133.333333333333,2|0,0:0|0:0,0:0:0:0:
510,188,17195,2,0,B|338:207|338:207|319:206|315:192,1,200,8|8,0:0|0:0,0:0:0:0:
152,46,18195,6,0,B|255:33|255:33|274:34|278:48,1,133.333333333333,2|0,0:0|0:0,0:0:0:0:
284,121,18695,2,0,B|180:133|180:133|161:132|157:118,1,133.333333333333,8|0,0:0|0:0,0:0:0:0:
152,46,19195,1,8,0:0:0:0:
41,142,19529,1,0,0:0:0:0:
41,142,19695,6,0,B|53:245|53:245|52:264|38:268,1,133.333333333333,2|0,0:0|0:0,0:0:0:0:
105,300,20196,2,0,B|187:237|187:237|204:228|215:239,1,133.333333333333,8|0,0:0|0:0,0:0:0:0:
206,166,20696,2,0,B|110:125|110:125|94:115|98:100,1,133.333333333333,8|0,0:0|0:0,0:0:0:0:
133,36,21196,6,0,B|228:76|228:76|244:86|240:101,1,133.333333333333,2|0,0:0|0:0,0:0:0:0:
206,166,21696,1,8,0:0:0:0:
405,257,22196,1,8,0:0:0:0:
286,341,22530,1,0,0:0:0:0:
286,341,22696,6,0,B|190:300|190:300|174:290|178:275,1,133.333333333333,2|0,0:0|0:0,0:0:0:0:
206,208,23196,2,0,B|363:276|363:276|379:286|376:301,1,200,8|8,0:0|0:0,0:0:0:0:
180,199,24197,6,0,B|84:158|84:158|68:148|72:133,1,133.333333333333,2|0,0:0|0:0,0:0:0:0:
106,69,24697,2,0,B|201:109|201:109|217:119|213:134,1,133.333333333333,8|0,0:0|0:0,0:0:0:0:
180,199,25197,1,8,0:0:0:0:
328,219,25530,1,0,0:0:0:0:
328,219,25697,6,0,B|410:156|410:156|427:147|438:158,1,133.333333333333,2|0,0:0|0:0,0:0:0:0:
424,85,26197,2,0,B|328:44|328:44|312:34|316:19,1,133.333333333333,8|0,0:0|0:0,0:0:0:0:
244,2,26697,1,8,0:0:0:0:
135,24,26948,2,0,L|79:2,2,33.3333333333333,8|2|8,0:0|0:0|0:0,0:0:0:0:
155,55,27198,6,0,B|192:95|130:136|166:194,1,133.333333333333,12|0,0:0|0:0,0:0:0:0:
203,241,27698,2,0,B|226:288|226:288|120:263,1,133.333333333333,8|0,0:0|0:0,0:0:0:0:
90,223,28198,2,0,B|11:204|11:204|34:251,1,133.333333333333,8|0,0:0|0:0,0:0:0:0:
38,324,28698,6,0,B|67:370|122:320|169:370,1,133.333333333333,2|0,0:0|0:0,0:0:0:0:
233,368,29198,1,8,0:0:0:0:
446,315,29698,1,8,0:0:0:0:
396,108,30199,5,2,0:0:0:0:
396,108,30366,1,0,0:0:0:0:
396,108,30533,1,0,0:0:0:0:
396,108,30699,2,0,P|421:175|383:236,1,133.333333333333,8|0,0:0|0:0,0:0:0:0:
343,279,31199,1,8,0:0:0:0:
156,190,31699,5,2,0:0:0:0:
156,190,31866,1,0,0:0:0:0:
156,190,32033,1,0,0:0:0:0:
156,190,32199,2,0,P|131:257|169:318,1,133.333333333333,8|0,0:0|0:0,0:0:0:0:
206,363,32699,2,0,P|231:303|205:244,1,133.333333333333,8|0,0:0|0:0,0:0:0:0:
156,190,33199,6,0,B|116:153|75:215|16:182,1,133.333333333333,2|0,0:0|0:0,0:0:0:0:
51,117,33700,2,0,B|-28:128|-28:128|-2:83,1,133.333333333333,8|0,0:0|0:0,0:0:0:0:
62,45,34200,2,0,B|141:33|141:33|114:77,1,133.333333333333,8|0,0:0|0:0,0:0:0:0:
182,104,34700,6,0,B|237:101|242:175|295:163,1,133.333333333333,2|0,0:0|0:0,0:0:0:0:
361,135,35200,1,8,0:0:0:0:
369,332,35700,1,8,0:0:0:0:
186,227,36200,5,2,0:0:0:0:
186,227,36367,1,0,0:0:0:0:
186,227,36534,1,0,0:0:0:0:
186,227,36700,2,0,P|250:236|300:195,1,133.333333333333,8|0,0:0|0:0,0:0:0:0:
321,124,37201,1,8,0:0:0:0:
114,75,37701,5,2,0:0:0:0:
114,75,37868,1,0,0:0:0:0:
114,75,38035,1,0,0:0:0:0:
114,75,38201,2,0,P|84:140|14:156,1,133.333333333333,8|0,0:0|0:0,0:0:0:0:
26,231,38701,2,0,P|50:291|111:314,1,133.333333333333,8|0,0:0|0:0,0:0:0:0:
104,236,39201,6,0,B|207:223|207:223|226:224|230:238,1,133.333333333333,2|0,0:0|0:0,0:0:0:0:
242,310,39701,1,8,0:0:0:0:
457,262,40202,1,8,0:0:0:0:
440,116,40535,1,0,0:0:0:0:
367,130,40702,6,0,B|264:143|264:143|245:142|241:128,1,133.333333333333,2|0,0:0|0:0,0:0:0:0:
236,55,41202,2,0,B|408:36|408:36|427:37|431:51,1,200,8|8,0:0|0:0,0:0:0:0:
238,155,42202,6,0,B|341:142|341:142|360:143|364:157,1,133.333333333333,2|0,0:0|0:0,0:0:0:0:
377,229,42702,2,0,B|389:333|389:333|388:352|374:356,1,133.333333333333,8|0,0:0|0:0,0:0:0:0:
301,350,43202,1,8,0:0:0:0:
161,319,43536,1,0,0:0:0:0:
161,319,43703,6,0,B|99:235|99:235|90:218|100:208,1,133.333333333333,2|0,0:0|0:0,0:0:0:0:
67,142,44203,2,0,B|169:128|169:128|188:129|192:144,1,133.333333333333,8|0,0:0|0:0,0:0:0:0:
265,143,44703,2,0,B|224:239|224:239|214:255|199:250,1,133.333333333333,8|0,0:0|0:0,0:0:0:0:
175,319,45203,6,0,B|271:360|271:360|287:370|282:385,1,133.333333333333,2|0,0:0|0:0,0:0:0:0:
354,371,45703,1,8,0:0:0:0:
431,165,46203,1,8,0:0:0:0:
299,113,46537,1,0,0:0:0:0:
299,113,46703,6,0,B|203:72|203:72|187:62|191:47,1,133.333333333333,2|0,0:0|0:0,0:0:0:0:
255,13,47204,2,0,B|412:81|412:81|428:91|425:106,1,200,8|8,0:0|0:0,0:0:0:0:
306,289,48204,6,0,B|210:248|210:248|194:238|198:223,1,133.333333333333,2|0,0:0|0:0,0:0:0:0:
227,157,48704,2,0,B|322:197|322:197|338:207|334:222,1,133.333333333333,8|0,0:0|0:0,0:0:0:0:
306,289,49204,1,8,0:0:0:0:
166,324,49538,1,0,0:0:0:0:
166,324,49704,6,0,B|70:284|70:284|54:274|58:259,1,133.333333333333,2|0,0:0|0:0,0:0:0:0:
52,186,50205,2,0,B|135:123|135:123|152:114|163:125,1,133.333333333333,8|0,0:0|0:0,0:0:0:0:
234,139,50705,1,8,0:0:0:0:
173,230,50955,2,0,L|210:276,2,33.3333333333333,8|2|8,0:0|0:0|0:0,0:0:0:0:
149,201,51205,5,12,0:0:0:0:
256,192,51455,12,0,57207,0:0:0:0:
