osu file format v14

[General]
AudioFilename: audio.mp3
AudioLeadIn: 0
PreviewTime: 3610
Countdown: 0
SampleSet: Normal
StackLeniency: 0.7
Mode: 1
LetterboxInBreaks: 0
WidescreenStoryboard: 0

[Editor]
Bookmarks: 4080,19080,34080
DistanceSpacing: 0.8
BeatDivisor: 4
GridSize: 16
TimelineZoom: 1.3

[Metadata]
Title:It's a Small World
TitleUnicode:It's a Small World
Artist:Yoko Shimomura
ArtistUnicode:下村陽子
Creator:Etsu
Version:Futsuu
Source:KINGDOM HEARTS Birth by Sleep
Tags:disney square enix ost Sherman Brothers Richard M. Sherman Robert B. Sherman キングダム ハーツ バース バイ スリープ
BeatmapID:1258750
BeatmapSetID:595227

[Difficulty]
HPDrainRate:7
CircleSize:2
OverallDifficulty:3
ApproachRate:0
SliderMultiplier:1.4
SliderTickRate:1

[Events]
//Background and Video events
0,0,"BG_0.4.jpg",0,-50
//Break Periods
//Storyboard Layer 0 (Background)
//Storyboard Layer 1 (Fail)
//Storyboard Layer 2 (Pass)
//Storyboard Layer 3 (Foreground)
//Storyboard Sound Samples

[TimingPoints]
329.544663792646,468.75,4,1,0,80,1,0
34079,-100,4,1,0,80,0,1
49079,-100,4,1,0,80,0,0

[HitObjects]
256,192,330,5,0,0:0:0:0:
256,192,1267,1,8,0:0:0:0:
256,192,2205,1,0,0:0:0:0:
256,192,4080,1,0,0:0:0:0:
256,192,4548,1,8,0:0:0:0:
256,192,5017,1,0,0:0:0:0:
256,192,5486,1,8,0:0:0:0:
256,192,5721,1,8,0:0:0:0:
256,192,5955,1,0,0:0:0:0:
256,192,6423,1,8,0:0:0:0:
256,192,6892,1,8,0:0:0:0:
256,192,7830,1,0,0:0:0:0:
256,192,8298,1,8,0:0:0:0:
256,192,8767,1,0,0:0:0:0:
256,192,9235,1,0,0:0:0:0:
256,192,9470,1,0,0:0:0:0:
256,192,9704,1,8,0:0:0:0:
256,192,10173,1,0,0:0:0:0:
256,192,10642,1,0,0:0:0:0:
256,192,11580,1,0,0:0:0:0:
256,192,12048,1,8,0:0:0:0:
256,192,12283,1,0,0:0:0:0:
256,192,12517,1,8,0:0:0:0:
256,192,12986,1,8,0:0:0:0:
256,192,13455,1,0,0:0:0:0:
256,192,13923,1,0,0:0:0:0:
256,192,14158,1,8,0:0:0:0:
256,192,14392,1,8,0:0:0:0:
256,192,14861,1,8,0:0:0:0:
256,192,15330,1,0,0:0:0:0:
256,192,15798,1,8,0:0:0:0:
256,192,16267,1,0,0:0:0:0:
256,192,16736,1,8,0:0:0:0:
256,192,17205,1,0,0:0:0:0:
256,192,18142,1,8,0:0:0:0:
256,192,19080,1,0,0:0:0:0:
256,192,19548,1,8,0:0:0:0:
256,192,20017,1,0,0:0:0:0:
256,192,20485,1,8,0:0:0:0:
256,192,20720,1,8,0:0:0:0:
256,192,20955,1,0,0:0:0:0:
256,192,21423,1,8,0:0:0:0:
256,192,21892,1,8,0:0:0:0:
256,192,22830,1,0,0:0:0:0:
256,192,23298,1,8,0:0:0:0:
256,192,23767,1,0,0:0:0:0:
256,192,24235,1,0,0:0:0:0:
256,192,24471,1,0,0:0:0:0:
256,192,24705,1,8,0:0:0:0:
256,192,25173,1,0,0:0:0:0:
256,192,25642,1,0,0:0:0:0:
256,192,26580,1,0,0:0:0:0:
256,192,27048,1,0,0:0:0:0:
256,192,27282,1,8,0:0:0:0:
256,192,27517,1,8,0:0:0:0:
256,192,27986,1,8,0:0:0:0:
256,192,28455,1,0,0:0:0:0:
256,192,28923,1,8,0:0:0:0:
256,192,29158,1,0,0:0:0:0:
256,192,29392,1,8,0:0:0:0:
256,192,29861,1,8,0:0:0:0:
256,192,30330,1,0,0:0:0:0:
256,192,30798,1,8,0:0:0:0:
256,192,31267,1,8,0:0:0:0:
256,192,31736,1,0,0:0:0:0:
256,192,32205,1,8,0:0:0:0:
256,192,33142,1,0,0:0:0:0:
256,192,33611,1,8,0:0:0:0:
256,192,34080,1,4,0:0:0:0:
256,192,34782,1,0,0:0:0:0:
256,192,35017,1,8,0:0:0:0:
256,192,35486,1,0,0:0:0:0:
256,192,35955,1,8,0:0:0:0:
256,192,36658,1,0,0:0:0:0:
256,192,36892,1,0,0:0:0:0:
256,192,37830,1,0,0:0:0:0:
256,192,38532,1,0,0:0:0:0:
256,192,38767,1,8,0:0:0:0:
256,192,39236,1,0,0:0:0:0:
256,192,39705,1,8,0:0:0:0:
256,192,40407,1,0,0:0:0:0:
256,192,40642,1,0,0:0:0:0:
256,192,41579,1,0,0:0:0:0:
256,192,42283,1,0,0:0:0:0:
256,192,42517,1,8,0:0:0:0:
256,192,42986,1,0,0:0:0:0:
256,192,43455,1,8,0:0:0:0:
256,192,44158,1,8,0:0:0:0:
256,192,44392,1,8,0:0:0:0:
256,192,44861,1,8,0:0:0:0:
160,192,45095,1,8,0:0:0:0:
256,192,45330,1,0,0:0:0:0:
256,192,46267,1,8,0:0:0:0:
256,192,47205,1,0,0:0:0:0:
256,192,47673,1,8,0:0:0:0:
256,192,48142,1,0,0:0:0:0:
256,192,48377,1,0,0:0:0:0:
256,192,48611,1,8,0:0:0:0:
256,192,48845,1,8,0:0:0:0:
256,192,49080,1,0,0:0:0:0:
