osu file format v14

[General]
AudioFilename: audio.mp3
AudioLeadIn: 0
PreviewTime: 3610
Countdown: 0
SampleSet: Normal
StackLeniency: 0.7
Mode: 1
LetterboxInBreaks: 0
WidescreenStoryboard: 0

[Editor]
Bookmarks: 4080,19080,34080
DistanceSpacing: 0.8
BeatDivisor: 4
GridSize: 32
TimelineZoom: 1.7

[Metadata]
Title:It's a Small World
TitleUnicode:It's a Small World
Artist:Yoko Shimomura
ArtistUnicode:下村陽子
Creator:Etsu
Version:Oni
Source:KINGDOM HEARTS Birth by Sleep
Tags:disney square enix ost Sherman Brothers Richard M. Sherman Robert B. Sherman キングダム ハーツ バース バイ スリープ
BeatmapID:1258753
BeatmapSetID:595227

[Difficulty]
HPDrainRate:5
CircleSize:2
OverallDifficulty:5
ApproachRate:8
SliderMultiplier:1.4
SliderTickRate:1

[Events]
//Background and Video events
0,0,"BG_0.4.jpg",0,-50
//Break Periods
//Storyboard Layer 0 (Background)
//Storyboard Layer 1 (Fail)
//Storyboard Layer 2 (Pass)
//Storyboard Layer 3 (Foreground)
//Storyboard Sound Samples

[TimingPoints]
329.544663792646,468.75,4,1,0,80,1,0
34079,-100,4,1,0,80,0,1
49079,-100,4,1,0,80,0,0

[HitObjects]
256,192,330,5,0,0:0:0:0:
256,192,563,1,8,0:0:0:0:
256,192,681,1,8,0:0:0:0:
256,192,798,1,8,0:0:0:0:
256,192,915,1,8,0:0:0:0:
256,192,1032,1,8,0:0:0:0:
256,192,1267,1,0,0:0:0:0:
256,192,1501,1,0,0:0:0:0:
256,192,1618,1,0,0:0:0:0:
256,192,1735,1,0,0:0:0:0:
256,192,1852,1,0,0:0:0:0:
256,192,1970,1,0,0:0:0:0:
256,192,2205,1,0,0:0:0:0:
256,192,2673,1,8,0:0:0:0:
256,192,3142,1,0,0:0:0:0:
256,192,3610,1,0,0:0:0:0:
256,192,3845,1,8,0:0:0:0:
256,192,4080,1,0,0:0:0:0:
256,192,4548,1,8,0:0:0:0:
256,192,5017,1,0,0:0:0:0:
256,192,5486,1,8,0:0:0:0:
112,192,5720,1,0,0:0:0:0:
256,192,5955,1,8,0:0:0:0:
256,192,6189,1,0,0:0:0:0:
256,192,6306,1,0,0:0:0:0:
256,192,6423,1,8,0:0:0:0:
256,192,6658,1,0,0:0:0:0:
256,192,6892,1,8,0:0:0:0:
256,192,7126,1,8,0:0:0:0:
256,192,7361,1,0,0:0:0:0:
256,192,7595,1,8,0:0:0:0:
256,192,7830,1,0,0:0:0:0:
256,192,8298,1,8,0:0:0:0:
256,192,8767,1,0,0:0:0:0:
256,192,9235,1,0,0:0:0:0:
256,192,9470,1,8,0:0:0:0:
256,192,9704,1,0,0:0:0:0:
256,192,9939,1,8,0:0:0:0:
256,192,10056,1,8,0:0:0:0:
256,192,10173,1,0,0:0:0:0:
256,192,10408,1,8,0:0:0:0:
256,192,10642,1,0,0:0:0:0:
256,192,10876,1,0,0:0:0:0:
256,192,11111,1,8,0:0:0:0:
256,192,11345,1,8,0:0:0:0:
256,192,11580,1,0,0:0:0:0:
256,192,12048,1,8,0:0:0:0:
256,192,12282,1,0,0:0:0:0:
256,192,12517,1,8,0:0:0:0:
256,192,12751,1,8,0:0:0:0:
256,192,12986,1,0,0:0:0:0:
256,192,13220,1,8,0:0:0:0:
256,192,13455,1,0,0:0:0:0:
256,192,13923,1,0,0:0:0:0:
256,192,14158,1,8,0:0:0:0:
256,192,14392,1,8,0:0:0:0:
256,192,14626,1,0,0:0:0:0:
256,192,14860,1,8,0:0:0:0:
256,192,15095,1,8,0:0:0:0:
256,192,15330,1,0,0:0:0:0:
256,192,15798,1,8,0:0:0:0:
256,192,16267,1,0,0:0:0:0:
256,192,16501,1,0,0:0:0:0:
256,192,16736,1,8,0:0:0:0:
256,192,17204,1,0,0:0:0:0:
256,192,17438,1,8,0:0:0:0:
256,192,17556,1,8,0:0:0:0:
256,192,17673,1,0,0:0:0:0:
256,192,17790,1,0,0:0:0:0:
256,192,17907,1,8,0:0:0:0:
256,192,18142,1,8,0:0:0:0:
256,192,18376,1,0,0:0:0:0:
256,192,18610,1,8,0:0:0:0:
256,192,18845,1,8,0:0:0:0:
256,192,19080,1,0,0:0:0:0:
256,192,19548,1,8,0:0:0:0:
256,192,20017,1,0,0:0:0:0:
256,192,20486,1,8,0:0:0:0:
256,192,20720,1,0,0:0:0:0:
256,192,20955,1,8,0:0:0:0:
256,192,21189,1,0,0:0:0:0:
256,192,21306,1,0,0:0:0:0:
256,192,21423,1,8,0:0:0:0:
256,192,21658,1,0,0:0:0:0:
256,192,21892,1,8,0:0:0:0:
256,192,22126,1,8,0:0:0:0:
256,192,22361,1,0,0:0:0:0:
256,192,22595,1,8,0:0:0:0:
256,192,22830,1,0,0:0:0:0:
256,192,23298,1,8,0:0:0:0:
256,192,23767,1,0,0:0:0:0:
256,192,24236,1,0,0:0:0:0:
256,192,24470,1,8,0:0:0:0:
256,192,24705,1,0,0:0:0:0:
256,192,24939,1,8,0:0:0:0:
256,192,25056,1,8,0:0:0:0:
256,192,25173,1,0,0:0:0:0:
256,192,25408,1,8,0:0:0:0:
256,192,25642,1,0,0:0:0:0:
256,192,25876,1,0,0:0:0:0:
256,192,26110,1,8,0:0:0:0:
256,192,26345,1,8,0:0:0:0:
256,192,26580,1,0,0:0:0:0:
256,192,27048,1,0,0:0:0:0:
256,192,27283,1,8,0:0:0:0:
256,192,27517,1,8,0:0:0:0:
256,192,27751,1,0,0:0:0:0:
112,128,27985,1,8,0:0:0:0:
256,192,28220,1,8,0:0:0:0:
256,192,28455,1,0,0:0:0:0:
256,192,28923,1,8,0:0:0:0:
256,192,29158,1,0,0:0:0:0:
256,192,29392,1,8,0:0:0:0:
256,192,29626,1,8,0:0:0:0:
256,192,29860,1,0,0:0:0:0:
256,192,30095,1,8,0:0:0:0:
256,192,30330,1,0,0:0:0:0:
256,192,30798,1,8,0:0:0:0:
256,192,31267,1,8,0:0:0:0:
256,192,31501,1,8,0:0:0:0:
256,192,31735,1,0,0:0:0:0:
256,192,32204,1,8,0:0:0:0:
256,192,32439,1,0,0:0:0:0:
256,192,32557,1,0,0:0:0:0:
256,192,32673,1,8,0:0:0:0:
256,192,32790,1,8,0:0:0:0:
256,192,32907,1,0,0:0:0:0:
256,192,33142,1,8,0:0:0:0:
256,192,33376,1,0,0:0:0:0:
256,192,33610,1,8,0:0:0:0:
256,192,33845,1,8,0:0:0:0:
256,192,34080,1,4,0:0:0:0:
256,192,34548,1,8,0:0:0:0:
256,192,34783,1,0,0:0:0:0:
256,192,35017,1,8,0:0:0:0:
256,192,35134,1,8,0:0:0:0:
256,192,35251,1,0,0:0:0:0:
256,192,35485,1,8,0:0:0:0:
256,192,35720,1,0,0:0:0:0:
256,192,35954,1,0,0:0:0:0:
256,192,36423,1,8,0:0:0:0:
256,192,36657,1,0,0:0:0:0:
256,192,36892,1,0,0:0:0:0:
256,192,37126,1,0,0:0:0:0:
256,192,37243,1,0,0:0:0:0:
256,192,37361,1,8,0:0:0:0:
256,192,37595,1,8,0:0:0:0:
256,192,37830,1,0,0:0:0:0:
256,192,38298,1,8,0:0:0:0:
256,192,38533,1,0,0:0:0:0:
256,192,38767,1,8,0:0:0:0:
160,192,38884,1,8,0:0:0:0:
256,192,39001,1,0,0:0:0:0:
256,192,39236,1,8,0:0:0:0:
256,192,39470,1,0,0:0:0:0:
256,192,39704,1,8,0:0:0:0:
256,192,40173,1,0,0:0:0:0:
256,192,40407,1,8,0:0:0:0:
256,192,40642,1,8,0:0:0:0:
256,192,40876,1,0,0:0:0:0:
256,192,40994,1,0,0:0:0:0:
256,192,41111,1,8,0:0:0:0:
256,192,41345,1,8,0:0:0:0:
256,192,41580,1,0,0:0:0:0:
256,192,42048,1,8,0:0:0:0:
256,192,42283,1,0,0:0:0:0:
256,192,42517,1,8,0:0:0:0:
256,192,42634,1,8,0:0:0:0:
160,192,42751,1,8,0:0:0:0:
256,192,42986,1,8,0:0:0:0:
256,192,43220,1,0,0:0:0:0:
256,192,43455,1,8,0:0:0:0:
256,192,43923,1,0,0:0:0:0:
256,192,44158,1,8,0:0:0:0:
256,192,44392,1,8,0:0:0:0:
256,192,44626,1,8,0:0:0:0:
256,192,44744,1,0,0:0:0:0:
256,192,44861,1,8,0:0:0:0:
256,192,45095,1,8,0:0:0:0:
256,192,45330,1,0,0:0:0:0:
256,192,45798,1,8,0:0:0:0:
256,192,46033,1,8,0:0:0:0:
256,192,46267,1,0,0:0:0:0:
256,192,46501,1,0,0:0:0:0:
256,192,46736,1,8,0:0:0:0:
256,192,47204,1,0,0:0:0:0:
256,192,47439,1,0,0:0:0:0:
256,192,47556,1,8,0:0:0:0:
256,192,47673,1,8,0:0:0:0:
256,192,47790,1,8,0:0:0:0:
256,192,47907,1,0,0:0:0:0:
256,192,48142,1,8,0:0:0:0:
256,192,48376,1,0,0:0:0:0:
256,192,48611,1,8,0:0:0:0:
256,192,48845,1,8,0:0:0:0:
256,192,49079,1,0,0:0:0:0:
