osu file format v14

[General]
AudioFilename: audio.mp3
AudioLeadIn: 0
PreviewTime: 132
Countdown: 0
SampleSet: Normal
StackLeniency: 0.7
Mode: 0
LetterboxInBreaks: 0
SkinPreference:Default
WidescreenStoryboard: 0

[Editor]
DistanceSpacing: 1
BeatDivisor: 4
GridSize: 4
TimelineZoom: 1

[Metadata]
Title:Hachamecha Music
TitleUnicode:ハチャメチャMusic
Artist:Yoko Shimomura
ArtistUnicode:下村陽子
Creator:Apo11o
Version:Normal
Source:マリオ&ルイージRPG3!!!
Tags:Mario & and Luigi Bowser's Inside Story RPG 3 Nintendo DS Video Game Electronic Instrumental Danger! Rumpus Music Panic Bloxi
BeatmapID:3389990
BeatmapSetID:1660540

[Difficulty]
HPDrainRate:5
CircleSize:3
OverallDifficulty:5
ApproachRate:6
SliderMultiplier:1.2
SliderTickRate:2

[Events]
//Background and Video events
0,0,"minigame.jpg",0,0
//Break Periods
//Storyboard Layer 0 (Background)
//Storyboard Layer 1 (Fail)
//Storyboard Layer 2 (Pass)
//Storyboard Layer 3 (Foreground)
//Storyboard Layer 4 (Overlay)
//Storyboard Sound Samples

[TimingPoints]
222,357.244927122035,4,1,1,40,1,0

[Colours]
Combo1 : 164,231,154
Combo2 : 97,169,228
Combo3 : 249,113,113
Combo4 : 249,208,132
SliderBorder : 255,255,255

[HitObjects]
334,322,222,5,4,0:0:0:0:
236,251,579,1,8,0:0:0:0:
274,137,936,1,2,0:0:0:0:
394,137,1293,1,8,0:0:0:0:
436,260,1650,5,2,0:0:0:0:
436,260,1829,1,8,0:0:0:0:
436,260,2008,1,8,0:0:0:0:
510,168,2365,1,2,0:0:0:0:
510,168,2544,1,8,0:0:0:0:
510,168,2723,1,8,0:0:0:0:
512,351,3258,1,0,0:0:0:0:
512,351,3437,2,0,L|447:351,1,60,8|0,0:0|0:0,0:0:0:0:
391,351,3794,6,0,B|278:384|287:256|171:289,1,240,4|0,0:0|0:0,0:0:0:0:
64,340,4866,1,0,0:0:0:0:
29,225,5223,2,0,B|70:175|133:154|221:178,1,180,10|8,0:0|0:0,0:0:0:0:
234,128,5937,5,12,0:0:0:0:
342,180,6295,1,8,0:0:0:0:
350,300,6652,1,2,0:0:0:0:
250,367,7009,1,8,0:0:0:0:
148,311,7366,5,2,0:0:0:0:
148,311,7545,1,8,0:0:0:0:
148,311,7724,1,8,0:0:0:0:
134,195,8081,1,2,0:0:0:0:
134,195,8260,1,8,0:0:0:0:
134,195,8438,1,8,0:0:0:0:
157,20,8974,1,0,0:0:0:0:
157,20,9153,2,0,L|94:20,1,60,8|2,0:0|0:0,0:0:0:0:
44,49,9510,6,0,B|13:91|13:167|93:189|146:178|174:117|178:89|215:73|261:86|287:121,1,360,4|2,0:0|0:0,0:0:0:0:
369,198,10939,2,0,B|348:235|312:298|155:241,1,240,8|12,0:0|0:0,0:0:0:0:
99,228,11832,5,2,0:0:0:0:
99,228,12011,1,2,0:0:0:0:
23,134,12368,1,2,0:0:0:0:
113,55,12725,1,0,0:0:0:0:
197,155,13082,1,2,0:0:0:0:
197,155,13261,1,2,0:0:0:0:
197,155,13440,2,0,B|172:267|311:252|291:373,1,240,10|8,0:0|0:0,0:0:0:0:
413,228,14690,5,2,0:0:0:0:
413,228,14869,1,2,0:0:0:0:
489,134,15226,1,2,0:0:0:0:
399,55,15583,1,0,0:0:0:0:
325,149,15940,2,0,P|291:156|258:181,1,60,10|0,0:0|0:0,0:0:0:0:
255,227,16298,2,0,P|310:191|484:228,1,240,10|8,0:0|0:0,0:0:0:0:
439,103,17369,5,4,0:0:0:0:
368,5,17727,1,8,0:0:0:0:
324,116,18084,2,0,B|298:155|295:183|300:220,1,90,2|2,0:0|0:0,0:0:0:0:
387,321,18798,5,4,0:0:0:0:
437,210,19156,1,8,0:0:0:0:
319,228,19513,2,0,B|272:224|246:236|216:259,1,90,2|2,0:0|0:0,0:0:0:0:
156,377,20227,5,4,0:0:0:0:
277,364,20585,1,8,0:0:0:0:
202,271,20942,2,0,B|181:228|158:212|123:198,1,90,2|2,0:0|0:0,0:0:0:0:
0,213,21656,5,12,0:0:0:0:
71,311,22014,1,8,0:0:0:0:
114,199,22371,2,0,B|140:160|143:132|138:94,2,90,14|14|14,0:0|0:0|0:0,0:0:0:0:
120,258,23085,5,4,0:0:0:0:
218,187,23442,1,8,0:0:0:0:
180,73,23799,1,2,0:0:0:0:
60,73,24156,1,8,0:0:0:0:
22,196,24513,5,2,0:0:0:0:
22,196,24692,1,8,0:0:0:0:
22,196,24871,1,8,0:0:0:0:
124,258,25229,1,2,0:0:0:0:
124,258,25407,1,8,0:0:0:0:
124,258,25586,1,8,0:0:0:0:
283,174,26122,1,0,0:0:0:0:
283,174,26300,2,0,L|347:174,1,60,8|0,0:0|0:0,0:0:0:0:
403,174,26658,6,0,P|473:158|393:67,1,240,4|0,0:0|0:0,0:0:0:0:
289,97,27729,1,0,0:0:0:0:
244,208,28087,2,0,B|306:201|313:201|358:263,1,120,10|10,0:0|0:0,0:0:0:0:
412,348,28801,5,12,0:0:0:0:
292,337,29158,1,8,0:0:0:0:
172,327,29516,1,2,0:0:0:0:
52,317,29873,1,8,0:0:0:0:
120,221,30230,5,2,0:0:0:0:
120,221,30409,1,8,0:0:0:0:
120,221,30587,1,8,0:0:0:0:
248,237,30945,1,2,0:0:0:0:
248,237,31123,1,8,0:0:0:0:
248,237,31302,1,8,0:0:0:0:
426,257,31838,1,0,0:0:0:0:
426,257,32016,2,0,L|426:191,1,60,8|2,0:0|0:0,0:0:0:0:
455,144,32374,6,0,P|481:95|316:114,1,360,4|2,0:0|0:0,0:0:0:0:
194,73,33803,2,0,B|237:93|284:173|214:308,1,240,8|12,0:0|0:0,0:0:0:0:
200,344,34696,5,2,0:0:0:0:
200,344,34874,1,2,0:0:0:0:
320,345,35232,1,2,0:0:0:0:
260,240,35589,1,0,0:0:0:0:
256,120,35946,1,2,0:0:0:0:
256,120,36125,1,2,0:0:0:0:
256,120,36303,2,0,B|367:143|360:59|483:69,1,240,10|8,0:0|0:0,0:0:0:0:
316,26,37554,5,2,0:0:0:0:
316,26,37732,1,2,0:0:0:0:
196,25,38090,1,2,0:0:0:0:
256,130,38447,1,0,0:0:0:0:
255,250,38804,2,0,P|222:264|170:263,1,60,10|0,0:0|0:0,0:0:0:0:
165,317,39161,2,0,P|66:262|56:130,1,240,10|8,0:0|0:0,0:0:0:0:
86,30,40233,5,4,0:0:0:0:
205,26,40590,1,8,0:0:0:0:
324,22,40947,2,0,L|421:18,1,90,2|2,0:0|0:0,0:0:0:0:
487,149,41662,5,4,0:0:0:0:
368,145,42019,1,8,0:0:0:0:
249,141,42376,2,0,L|152:137,1,90,2|2,0:0|0:0,0:0:0:0:
70,258,43091,5,4,0:0:0:0:
189,254,43448,1,8,0:0:0:0:
308,250,43805,2,0,L|405:246,1,90,2|2,0:0|0:0,0:0:0:0:
479,373,44520,5,12,0:0:0:0:
360,369,44877,1,8,0:0:0:0:
241,365,45234,2,0,L|144:361,2,90,14|14|14,0:0|0:0|0:0,0:0:0:0:
291,331,45949,5,4,0:0:0:0:
