osu file format v14

[General]
AudioFilename: audio.mp3
AudioLeadIn: 0
PreviewTime: 132
Countdown: 0
SampleSet: Normal
StackLeniency: 0.7
Mode: 0
LetterboxInBreaks: 0
SkinPreference:Default
WidescreenStoryboard: 1

[Editor]
DistanceSpacing: 1.2
BeatDivisor: 4
GridSize: 4
TimelineZoom: 1

[Metadata]
Title:Hachamecha Music
TitleUnicode:ハチャメチャMusic
Artist:Yoko Shimomura
ArtistUnicode:下村陽子
Creator:Apo11o
Version:Hard
Source:マリオ&ルイージRPG3!!!
Tags:Mario & and Luigi Bowser's Inside Story RPG 3 Nintendo DS Video Game Electronic Instrumental Danger! Rumpus Music Panic Bloxi
BeatmapID:3408683
BeatmapSetID:1660540

[Difficulty]
HPDrainRate:5
CircleSize:3
OverallDifficulty:6
ApproachRate:7
SliderMultiplier:1.4
SliderTickRate:2

[Events]
//Background and Video events
0,0,"minigame.jpg",0,0
//Break Periods
//Storyboard Layer 0 (Background)
//Storyboard Layer 1 (Fail)
//Storyboard Layer 2 (Pass)
//Storyboard Layer 3 (Foreground)
//Storyboard Layer 4 (Overlay)
//Storyboard Sound Samples

[TimingPoints]
222,357.244927122035,4,1,1,40,1,0
20763,-83.3333333333333,4,1,1,40,0,0
23085,-100,4,1,1,40,0,0
43627,-83.3333333333333,4,1,1,40,0,0

[Colours]
Combo1 : 164,231,154
Combo2 : 97,169,228
Combo3 : 249,113,113
Combo4 : 249,208,132
SliderBorder : 255,255,255

[HitObjects]
56,262,222,5,4,0:0:0:0:
0,200,400,1,0,0:0:0:0:
0,192,489,1,0,0:0:0:0:
0,184,579,1,8,0:0:0:0:
56,122,757,1,0,0:0:0:0:
135,149,936,6,0,L|210:149,1,70,2|0,0:0|0:0,0:0:0:0:
205,235,1293,2,0,L|135:235,1,70,8|0,0:0|0:0,0:0:0:0:
68,282,1650,5,2,0:0:0:0:
68,282,1829,1,8,0:0:0:0:
68,282,2008,1,8,0:0:0:0:
68,102,2365,1,2,0:0:0:0:
68,102,2544,1,8,0:0:0:0:
68,102,2723,1,8,0:0:0:0:
302,192,3258,2,0,L|340:192,2,35,0|0|8,0:0|0:0|0:0,0:0:0:0:
217,192,3615,1,0,0:0:0:0:
256,117,3794,6,0,P|316:78|418:147,1,210,4|8,0:0|0:0,0:0:0:0:
418,236,4508,2,0,P|347:305|256:267,1,210,0|8,0:0|0:0,0:0:0:0:
178,300,5223,2,0,P|147:256|143:212,1,70,10|8,0:0|0:0,0:0:0:0:
143,142,5580,2,0,P|155:110|178:84,1,70,10|8,0:0|0:0,0:0:0:0:
256,115,5937,5,12,0:0:0:0:
305,183,6116,1,0,0:0:0:0:
305,192,6205,1,0,0:0:0:0:
305,201,6295,1,8,0:0:0:0:
256,269,6473,1,0,0:0:0:0:
178,236,6652,2,0,L|107:236,1,70,2|0,0:0|0:0,0:0:0:0:
108,148,7009,2,0,L|178:148,1,70,8|0,0:0|0:0,0:0:0:0:
239,90,7366,5,2,0:0:0:0:
239,90,7545,1,8,0:0:0:0:
239,90,7724,1,8,0:0:0:0:
239,294,8081,1,2,0:0:0:0:
239,294,8260,1,8,0:0:0:0:
239,294,8439,1,8,0:0:0:0:
468,192,8974,2,0,L|512:192,2,35,0|0|8,0:0|0:0|0:0,0:0:0:0:
405,135,9331,1,2,0:0:0:0:
405,135,9510,6,0,B|348:64|348:64|256:144,1,210,4|8,0:0|0:0,0:0:0:0:
258,241,10224,2,0,B|348:320|348:320|405:249,1,210,0|8,0:0|0:0,0:0:0:0:
471,301,10939,2,0,P|492:259|485:224,1,70,8|8,0:0|0:0,0:0:0:0:
490,146,11296,2,0,P|489:112|471:83,1,70,8|8,0:0|0:0,0:0:0:0:
297,34,11832,5,2,0:0:0:0:
305,28,11921,1,2,0:0:0:0:
314,21,12011,1,2,0:0:0:0:
396,6,12189,1,10,0:0:0:0:
368,85,12368,1,2,0:0:0:0:
200,97,12725,1,0,0:0:0:0:
187,13,12904,1,8,0:0:0:0:
104,24,13082,1,2,0:0:0:0:
113,107,13261,1,2,0:0:0:0:
164,173,13440,2,0,B|229:230|294:188|271:111|355:122|426:174,1,280,10|8,0:0|0:0,0:0:0:0:
297,350,14690,5,2,0:0:0:0:
305,356,14779,1,2,0:0:0:0:
314,363,14869,1,2,0:0:0:0:
396,378,15047,1,10,0:0:0:0:
368,299,15226,1,2,0:0:0:0:
200,287,15583,1,0,0:0:0:0:
187,371,15762,1,10,0:0:0:0:
104,360,15940,1,10,0:0:0:0:
113,277,16119,2,0,L|121:234,2,35,0|0|10,0:0|0:0|0:0,0:0:0:0:
256,192,16476,12,4,17369,0:0:0:0:
167,140,17905,5,10,0:0:0:0:
167,140,18084,2,0,L|167:245,2,105,2|2|2,0:0|0:0|0:0,0:0:0:0:
167,55,18798,1,0,0:0:0:0:
345,244,19334,1,10,0:0:0:0:
345,244,19513,2,0,L|345:139,2,105,2|2|2,0:0|0:0|0:0,0:0:0:0:
345,329,20227,1,0,0:0:0:0:
124,130,20763,5,10,0:0:0:0:
124,130,20942,2,0,L|124:289,2,125.999996154785,2|2|2,0:0|0:0|0:0,0:0:0:0:
124,47,21656,1,0,0:0:0:0:
508,255,22192,1,10,0:0:0:0:
508,255,22371,2,0,L|507:129,2,125.999996154785,14|14|14,0:0|0:0|0:0,0:0:0:0:
425,270,23085,5,4,0:0:0:0:
383,197,23264,1,0,0:0:0:0:
383,192,23353,1,0,0:0:0:0:
383,187,23442,1,8,0:0:0:0:
425,114,23621,1,0,0:0:0:0:
341,119,23800,2,0,P|307:130|272:159,1,70,2|0,0:0|0:0,0:0:0:0:
279,233,24157,2,0,P|307:254|341:265,1,70,8|0,0:0|0:0,0:0:0:0:
426,304,24514,5,2,0:0:0:0:
426,304,24693,1,8,0:0:0:0:
426,304,24871,1,8,0:0:0:0:
426,80,25229,1,2,0:0:0:0:
426,80,25408,1,8,0:0:0:0:
426,80,25586,1,8,0:0:0:0:
200,192,26122,2,0,L|165:192,2,35,0|0|8,0:0|0:0|0:0,0:0:0:0:
284,192,26479,1,0,0:0:0:0:
250,269,26658,6,0,B|104:269|104:269|42:227,1,210,4|8,0:0|0:0,0:0:0:0:
51,150,27372,2,0,B|104:115|104:115|250:115,1,210,0|8,0:0|0:0,0:0:0:0:
334,110,28087,1,10,0:0:0:0:
350,192,28265,1,8,0:0:0:0:
334,274,28444,1,10,0:0:0:0:
413,126,28801,5,12,0:0:0:0:
350,187,28980,1,0,0:0:0:0:
350,192,29069,1,0,0:0:0:0:
350,197,29158,1,8,0:0:0:0:
413,258,29337,1,0,0:0:0:0:
330,274,29516,2,0,P|278:246|266:223,1,70,2|0,0:0|0:0,0:0:0:0:
272,145,29873,2,0,P|297:120|330:110,1,70,8|0,0:0|0:0,0:0:0:0:
388,49,30230,5,2,0:0:0:0:
388,49,30409,1,8,0:0:0:0:
388,49,30587,1,8,0:0:0:0:
388,335,30945,1,2,0:0:0:0:
388,335,31124,1,8,0:0:0:0:
388,335,31302,1,8,0:0:0:0:
180,192,31838,2,0,L|122:192,2,35,0|0|8,0:0|0:0|0:0,0:0:0:0:
264,192,32195,1,2,0:0:0:0:
227,116,32374,6,0,P|162:82|55:152,1,210,4|8,0:0|0:0,0:0:0:0:
56,235,33088,2,0,P|132:300|227:268,1,210,0|8,0:0|0:0,0:0:0:0:
264,192,33803,1,8,0:0:0:0:
334,147,33981,1,8,0:0:0:0:
334,237,34160,1,8,0:0:0:0:
98,237,34696,5,2,0:0:0:0:
94,241,34785,1,2,0:0:0:0:
90,245,34874,1,2,0:0:0:0:
26,300,35053,1,10,0:0:0:0:
87,357,35232,1,2,0:0:0:0:
250,317,35589,1,0,0:0:0:0:
272,236,35767,1,8,0:0:0:0:
189,216,35946,1,2,0:0:0:0:
171,297,36125,1,2,0:0:0:0:
196,376,36303,2,0,P|258:360|326:176,1,280,10|8,0:0|0:0,0:0:0:0:
98,147,37554,5,2,0:0:0:0:
94,143,37643,1,2,0:0:0:0:
90,139,37732,1,2,0:0:0:0:
26,83,37911,1,10,0:0:0:0:
87,27,38090,1,2,0:0:0:0:
250,67,38447,1,0,0:0:0:0:
272,148,38625,1,10,0:0:0:0:
189,168,38804,1,10,0:0:0:0:
171,87,38983,2,0,L|158:46,2,35,0|0|10,0:0|0:0|0:0,0:0:0:0:
256,192,39340,12,4,40233,0:0:0:0:
158,144,40947,6,0,P|140:192|158:240,2,105,2|2|2,0:0|0:0|0:0,0:0:0:0:
207,75,41662,1,0,0:0:0:0:
354,240,42197,1,10,0:0:0:0:
354,240,42376,2,0,P|371:192|353:144,2,105,2|2|2,0:0|0:0|0:0,0:0:0:0:
305,309,43091,1,0,0:0:0:0:
94,250,43627,5,10,0:0:0:0:
94,250,43805,2,0,P|72:192|94:135,2,125.999996154785,2|2|2,0:0|0:0|0:0,0:0:0:0:
148,319,44520,1,0,0:0:0:0:
418,134,45055,1,10,0:0:0:0:
418,134,45234,2,0,P|439:192|417:249,2,125.999996154785,14|14|14,0:0|0:0|0:0,0:0:0:0:
361,67,45949,1,4,0:0:0:0:
